Tags
Language
Tags

The Dave Brubeck Quartet - Reflections (1986)

Posted By: gribovar
The Dave Brubeck Quartet - Reflections (1986)

The Dave Brubeck Quartet - Reflections (1986)
EAC Rip | WavPack (image+.cue+log) - 222 MB | MP3 CBR 320 kbps (LAME 3.93) - 105 MB | Covers included
Genre: Jazz | RAR 3% Rec. | Label: Concord (K32Y 6100/CCD 4299)

This is one of Dave Brubeck's more obscure recordings but not because of its quality. Somewhat lost in the shuffle, this excellent quartet session with clarinetist Bill Smith, Chris Brubeck (on electric bass and bass trombone) and drummer Randy Jones finds the pianist/leader performing eight of his compositions; only "Blues for Newport" caught on a little. The emphasis is on slower tempos and wistful solos (particularly on the Paul Desmond-tribute "We Will All Remember Paul") but the music is stimulating enough to hold one's interest throughout. Dave Brubeck has never allowed himself to become predictable.
Tracklist:
01. Reflections of You
02. A Misty Morning
03. I'd Walk a Country Mile
04. My One Bad Habit
05. Blues for Newport
06. We Will All Remember Paul
07. Michael, My Second Son
08. Blue Lake Tahoe

Total time: 43:57

Exact Audio Copy V0.99 prebeta 4 from 23. January 2008

EAC extraction logfile from 3. December 2009, 14:21

The Dave Brubeck Quartet / Reflections

Used drive : _NEC DVD_RW ND-3570A Adapter: 4 ID: 0

Read mode : Secure
Utilize accurate stream : Yes
Defeat audio cache : Yes
Make use of C2 pointers : No

Read offset correction : 48
Overread into Lead-In and Lead-Out : No
Fill up missing offset samples with silence : Yes
Delete leading and trailing silent blocks : No
Null samples used in CRC calculations : Yes
Used interface : Installed external ASPI interface

Used output format : User Defined Encoder
Selected bitrate : 1024 kBit/s
Quality : High
Add ID3 tag : No
Command line compressor : D:\Program Files\wavpack\wavpack.exe
Additional command line options : -w "Year=%y" -w "Genre=%m" -hm %s %d


TOC of the extracted CD

Track | Start | Length | Start sector | End sector
––––––––––––––––––––––––––––-
1 | 0:00.00 | 5:27.52 | 0 | 24576
2 | 5:27.52 | 6:27.15 | 24577 | 53616
3 | 11:54.67 | 6:26.33 | 53617 | 82599
4 | 18:21.25 | 5:00.45 | 82600 | 105144
5 | 23:21.70 | 4:48.47 | 105145 | 126791
6 | 28:10.42 | 5:08.20 | 126792 | 149911
7 | 33:18.62 | 5:23.25 | 149912 | 174161
8 | 38:42.12 | 5:14.53 | 174162 | 197764


Range status and errors

Selected range

Filename D:\utorrent\releases\The Dave Brubeck Quartet - Reflections.wav

Peak level 100.0 %
Range quality 100.0 %
Test CRC 7F993D8D
Copy CRC 7F993D8D
Copy OK

No errors occurred


AccurateRip summary

Track 1 accurately ripped (confidence 1) [CC135E6E]
Track 2 accurately ripped (confidence 1) [2C33932E]
Track 3 accurately ripped (confidence 1) [613204DF]
Track 4 accurately ripped (confidence 1) [A3AD4B7B]
Track 5 accurately ripped (confidence 1) [C387D39B]
Track 6 accurately ripped (confidence 1) [23BDEACA]
Track 7 accurately ripped (confidence 1) [084ADF95]
Track 8 accurately ripped (confidence 1) [303DB65F]

All tracks accurately ripped

End of status report

[CUETools log; Date: 25.01.2019 2:13:48; Version: 2.1.4]
[CTDB TOCID: 8ueHCwmNu7ERsY8vBLhBJCzB63o-] found.
Track | CTDB Status
1 | (5/5) Accurately ripped
2 | (5/5) Accurately ripped
3 | (5/5) Accurately ripped
4 | (5/5) Accurately ripped
5 | (5/5) Accurately ripped
6 | (5/5) Accurately ripped
7 | (5/5) Accurately ripped
8 | (5/5) Accurately ripped
[AccurateRip ID: 000df48a-005c4ea8-4a0a4c08] found.
Track [ CRC | V2 ] Status
01 [cc135e6e|49169813] (2+2/4) Accurately ripped
02 [2c33932e|2e1badf2] (2+2/4) Accurately ripped
03 [613204df|d54f1eb7] (2+2/4) Accurately ripped
04 [a3ad4b7b|7f564b48] (2+2/4) Accurately ripped
05 [c387d39b|19ac3d62] (2+2/4) Accurately ripped
06 [23bdeaca|066b5c6e] (2+2/4) Accurately ripped
07 [084adf95|67a436d3] (2+2/4) Accurately ripped
08 [303db65f|a1934c9c] (2+2/4) Accurately ripped

Track Peak [ CRC32 ] [W/O NULL] [ LOG ]
– 100,0 [7F993D8D] [8F6D7F55] CRC32
01 100,0 [2BC2ABDE] [98527DF9]
02 66,2 [B0742132] [45CCA7DD]
03 91,2 [AE5C6274] [CDA0E932]
04 66,9 [5273A26D] [5C1FF4A0]
05 99,9 [BDFC1D98] [16B175AA]
06 43,2 [F0D8616E] [BA869608]
07 61,1 [18D21C2E] [86DF2C5D]
08 64,0 [31764F0E] [BE7C3A66]

Thanks to olblackcat

See also: