Tags
Language
Tags

The Don Ellis Orchestra - Live In 3 ⅔/4 Time (1967) [Reissue 2000]

Posted By: gribovar
The Don Ellis Orchestra - Live In 3 ⅔/4 Time (1967) [Reissue 2000]

The Don Ellis Orchestra - Live In 3 ⅔/4 Time (1967) [Reissue 2000]
EAC Rip | FLAC (tracks+.cue+log) - 455 MB | MP3 CBR 320 kbps (LAME 3.93) - 177 MB | Covers - 11 MB
Genre: Jazz, Big Band, Progressive Jazz | RAR 3% Rec. | Label: Pacific Jazz (7243 5 23996 2 8)

The Don Ellis Orchestra really came into its own during the period covered by this CD (1966-1967), playing perfectly coherent solos in ridiculous time signatures. At the time, the band consisted of five trumpets, three trombones, five reeds, piano, three basses, two drummers, and three percussionists. "Barnum's Revenge" has the ensemble playing a satirical brand of Dixieland in 5/4, "Orientation" goes back and forth between 7/8 and 9/8, and "Upstart" is in 11/8 (three and two-thirds beats to the measure!). Somehow everything swings with Ellis, Ira Schulman (on tenor and clarinet), Dave Mackay (on piano), and Tom Scott (on saxello) being the main soloists. In addition to the original six selections (recorded at the Pacific Jazz Festival in 1966 and at Shelly's Manne-Hole in 1967), there are five additional cuts, including an alternate version of "Freedom Jazz Dance." Fun music.
Tracklist:
01. Orientation
02. Angel Eyes
03. Freedom Jazz Dance
04. Barnum's Revenge
05. Upstart
06. Thetis
07. Bossa Nueva Nova (Bonus track)
08. Opus Five (Bonus track)
09. Seven Up (Bonus track)
10. Johnny One Note (Bonus track)
11. Freedom Jazz Dance (alternate version) (Bonus track)

Total time: 01:15:11

Exact Audio Copy V0.99 prebeta 4 from 23. January 2008

EAC extraction logfile from 11. October 2009, 16:52

Don Ellis Orchestra / Live in 3 2/3 /4 Time

Used drive : HL-DT-STDVD-RAM GH22NP20 Adapter: 0 ID: 0

Read mode : Secure
Utilize accurate stream : Yes
Defeat audio cache : Yes
Make use of C2 pointers : No

Read offset correction : 102
Overread into Lead-In and Lead-Out : No
Fill up missing offset samples with silence : Yes
Delete leading and trailing silent blocks : No
Null samples used in CRC calculations : Yes
Used interface : Installed external ASPI interface
Gap handling : Appended to previous track

Used output format : User Defined Encoder
Selected bitrate : 320 kBit/s
Quality : High
Add ID3 tag : No
Command line compressor : C:\Program Files\Exact Audio Copy\Flac\flac.exe
Additional command line options : -V -8 -T "artist=%a" -T "title=%t" -T "album=%g" -T "date=%y" -T "tracknumber=%n" -T "genre=%m" %s


TOC of the extracted CD

Track | Start | Length | Start sector | End sector
––––––––––––––––––––––––––––-
1 | 0:00.00 | 11:20.02 | 0 | 51001
2 | 11:20.02 | 5:41.43 | 51002 | 76619
3 | 17:01.45 | 5:53.55 | 76620 | 103149
4 | 22:55.25 | 4:37.07 | 103150 | 123931
5 | 27:32.32 | 9:03.45 | 123932 | 164701
6 | 36:36.02 | 8:27.13 | 164702 | 202739
7 | 45:03.15 | 5:30.72 | 202740 | 227561
8 | 50:34.12 | 9:53.00 | 227562 | 272036
9 | 60:27.12 | 4:40.10 | 272037 | 293046
10 | 65:07.22 | 2:25.05 | 293047 | 303926
11 | 67:32.27 | 7:38.65 | 303927 | 338341


Track 1

Filename D:\music\Musicgate's rips\Don Ellis Orchestra - Live in 3 2'3 '4 Time (1967) {2000,Capitol}\01 - Orientation.wav

Pre-gap length 0:00:02.00

Peak level 74.7 %
Track quality 100.0 %
Test CRC 4758F926
Copy CRC 4758F926
Accurately ripped (confidence 2) [3CB1E3D6]
Copy OK

Track 2

Filename D:\music\Musicgate's rips\Don Ellis Orchestra - Live in 3 2'3 '4 Time (1967) {2000,Capitol}\02 - Angel Eyes.wav

Peak level 53.7 %
Track quality 100.0 %
Test CRC 14D6A610
Copy CRC 14D6A610
Accurately ripped (confidence 2) [3BC5A986]
Copy OK

Track 3

Filename D:\music\Musicgate's rips\Don Ellis Orchestra - Live in 3 2'3 '4 Time (1967) {2000,Capitol}\03 - Freedom Jazz Dance.wav

Peak level 80.5 %
Track quality 100.0 %
Test CRC A3861073
Copy CRC A3861073
Accurately ripped (confidence 2) [B64FE213]
Copy OK

Track 4

Filename D:\music\Musicgate's rips\Don Ellis Orchestra - Live in 3 2'3 '4 Time (1967) {2000,Capitol}\04 - Barnum's Revenge.wav

Peak level 84.9 %
Track quality 100.0 %
Test CRC 1AAB796A
Copy CRC 1AAB796A
Accurately ripped (confidence 2) [CFC43425]
Copy OK

Track 5

Filename D:\music\Musicgate's rips\Don Ellis Orchestra - Live in 3 2'3 '4 Time (1967) {2000,Capitol}\05 - Upstart.wav

Peak level 81.1 %
Track quality 99.9 %
Test CRC 082BFC1E
Copy CRC 082BFC1E
Accurately ripped (confidence 2) [41F5842F]
Copy OK

Track 6

Filename D:\music\Musicgate's rips\Don Ellis Orchestra - Live in 3 2'3 '4 Time (1967) {2000,Capitol}\06 - Thetis.wav

Peak level 89.4 %
Track quality 100.0 %
Test CRC 51B28767
Copy CRC 51B28767
Accurately ripped (confidence 2) [C6E3F08B]
Copy OK

Track 7

Filename D:\music\Musicgate's rips\Don Ellis Orchestra - Live in 3 2'3 '4 Time (1967) {2000,Capitol}\07 - Bossa Nueva Nova.wav

Peak level 98.8 %
Track quality 100.0 %
Test CRC B48DD621
Copy CRC B48DD621
Accurately ripped (confidence 2) [B3F255CA]
Copy OK

Track 8

Filename D:\music\Musicgate's rips\Don Ellis Orchestra - Live in 3 2'3 '4 Time (1967) {2000,Capitol}\08 - Opus Five.wav

Peak level 85.1 %
Track quality 100.0 %
Test CRC 6E75FA5F
Copy CRC 6E75FA5F
Accurately ripped (confidence 2) [01B64198]
Copy OK

Track 9

Filename D:\music\Musicgate's rips\Don Ellis Orchestra - Live in 3 2'3 '4 Time (1967) {2000,Capitol}\09 - Seven Up.wav

Peak level 87.4 %
Track quality 100.0 %
Test CRC 1B9624D5
Copy CRC 1B9624D5
Accurately ripped (confidence 2) [CBC036A0]
Copy OK

Track 10

Filename D:\music\Musicgate's rips\Don Ellis Orchestra - Live in 3 2'3 '4 Time (1967) {2000,Capitol}\10 - Johnny One Note.wav

Peak level 82.7 %
Track quality 100.0 %
Test CRC 44FA303F
Copy CRC 44FA303F
Accurately ripped (confidence 2) [E894D8D3]
Copy OK

Track 11

Filename D:\music\Musicgate's rips\Don Ellis Orchestra - Live in 3 2'3 '4 Time (1967) {2000,Capitol}\11 - Freedom Jazz Dance [alternate version].wav

Peak level 98.8 %
Track quality 100.0 %
Test CRC 75296F8D
Copy CRC 75296F8D
Accurately ripped (confidence 2) [3B0D3CDD]
Copy OK


All tracks accurately ripped

No errors occurred

End of status report

[CUETools log; Date: 15.11.2021 18:43:05; Version: 2.1.4]
[CTDB TOCID: 59D0CSeQmdjKan9XQGDsoRpHi2g-] found.
Track | CTDB Status
1 | (39/39) Accurately ripped
2 | (39/39) Accurately ripped
3 | (39/39) Accurately ripped
4 | (39/39) Accurately ripped
5 | (39/39) Accurately ripped
6 | (39/39) Accurately ripped
7 | (39/39) Accurately ripped
8 | (39/39) Accurately ripped
9 | (39/39) Accurately ripped
10 | (39/39) Accurately ripped
11 | (36/39) Accurately ripped
[AccurateRip ID: 0020ea05-01185de5-9e119f0b] found.
Track [ CRC | V2 ] Status
01 [3cb1e3d6|22058c76] (06+11/23) Accurately ripped
02 [3bc5a986|b2c99f16] (06+11/23) Accurately ripped
03 [b64fe213|125970ae] (06+11/23) Accurately ripped
04 [cfc43425|f5a8a3c2] (06+11/23) Accurately ripped
05 [41f5842f|3495cf61] (06+11/23) Accurately ripped
06 [c6e3f08b|b2e8ca64] (06+11/23) Accurately ripped
07 [b3f255ca|f915c273] (06+11/23) Accurately ripped
08 [01b64198|511f276f] (06+11/23) Accurately ripped
09 [cbc036a0|312756ac] (06+11/23) Accurately ripped
10 [e894d8d3|c0a86a83] (06+11/23) Accurately ripped
11 [3b0d3cdd|dc0436c7] (05+09/20) Accurately ripped
Offsetted by -180:
01 [21ab1113] (02/23) Accurately ripped
02 [62321326] (02/23) Accurately ripped
03 [7614cdd7] (02/23) Accurately ripped
04 [65a7e9ad] (02/23) Accurately ripped
05 [9e22d800] (02/23) Accurately ripped
06 [37e57baa] (02/23) Accurately ripped
07 [e7a09417] (02/23) Accurately ripped
08 [ad058136] (02/23) Accurately ripped
09 [9c7809b4] (02/23) Accurately ripped
10 [765d8200] (02/23) Accurately ripped
11 [ade361bc] (02/20) Accurately ripped

Track Peak [ CRC32 ] [W/O NULL] [ LOG ]
– 98,8 [3CF1BAB0] [FC3531C7]
01 74,7 [4758F926] [5E801AD1] CRC32
02 53,7 [14D6A610] [69BAA33A] CRC32
03 80,5 [A3861073] [8375C33A] CRC32
04 84,9 [1AAB796A] [0701CE3E] CRC32
05 81,1 [082BFC1E] [6DD550FC] CRC32
06 89,4 [51B28767] [F7A202FA] CRC32
07 98,8 [B48DD621] [FCD2E8D6] CRC32
08 85,1 [6E75FA5F] [C4404A03] CRC32
09 87,4 [1B9624D5] [ED1ACD31] CRC32
10 82,7 [44FA303F] [B7CEE03E] CRC32
11 98,8 [75296F8D] [1907466A] CRC32

Thanks to Musicgate

See also: