Subcategories

The Mamas & The Papas - Ultimate Anthology [4CD Box Set] (2016)

Posted By: Discograf_man
The Mamas & The Papas - Ultimate Anthology [4CD Box Set] (2016)

The Mamas & The Papas - Ultimate Anthology [4CD Box Set] (2016)
EAC Rip | FLAC (*tracks + .cue,log) | Run Time: 05:10:47 | 2,17 Gb | Full Scans 31.48 Mb
Genre: Folk rock, Psychedelic pop, Sunshine pop | Label: Universal Music

It's been more than 50 years since John Phillips, Michelle Phillips, Denny Doherty and Cass Elliot first joined their voices together in song as The Mamas and The Papas, yet the group's shimmering harmonies, rich melodies and affecting "words of love" are every bit as resonant today as during the turbulent 1960s. This month, the rich legacy of the California dreamers is being celebrated with a remarkable new 4-CD collection from TJ Lubinsky's TJL Productions! TJL (responsible for last year's Carpenters - The Complete Singles and related PBS program) is also bringing the acclaimed documentary California Dreamin': The Songs of The Mamas and The Papas back to public television in newly updated form. Ultimate Anthology boasts ALL OF THE GROUP'S STUDIO RECORDINGS…that means every one of the band's albums, including a revelatory new remix of 1971's People Like Us, and a host of rarities, a whopping 23 new-to-CD tracks (including remixed selections), and previously unreleased outtakes!
Contents:

CD1 - If You Can Believe Your Eyes and Ears (1966)
CD2 - Deliver (1967)
CD3 - People Like Us (1971)
CD4 - Solo Recordings:

The Mamas & The Papas - Ultimate Anthology [4CD Box Set] (2016)


CD1 - If You Can Believe Your Eyes and Ears (1966)

01. Monday, Monday
02. Straight Shooter
03. Got A Feelin'
04. I Call Your Name
05. Do You Wanna Dance
06. Go Where You Wanna Go
07. California Dreamin'
08. Spanish Harlem
09. Somebody Groovy
10. Hey Girl
11. You Baby
12. The In Crowd

- The Mamas & The Papas (1966)

13. No Salt On Her Tail
14. Trip, Stumble & Fall
15. Dancing Bear
16. Words Of Love
17. My Heart Stood Still
18. Dancing In The Street
19. I Saw Her Again
20. Strange Young Girls
21. I Can't Wait
22. Even If I Could
23. That Kind Of Girl
24. Once Was A Time I Thought
25. Glad To Be Unhappy

- Bonus Tracks
26. Creeque Alley (Mono Single)
27. Words Of Love (Mono Single)
28. I Saw Her Again (Mono Single)

CD2 - Deliver (1967)

01. Dedicated To The One I Love
02. My Girl
03. Creeque Alley
04. Sing For Your Supper
05. Twist And Shout
06. Free Advice
07. Look Through My Window
08. Boys And Girls Together
09. String Man
10. Frustration
11. Did You Ever Want To Cry
12. John's Music Box

- The Papas & The Mamas (1968)

13. The Right Somebody To Love
14. Safe In My Garden
15. Meditation Mama (Transcendental Woman Travels)
16. For The Love Of Ivy
17. Dream A Little Dream Of Me
18. Mansions
19. Gemini Childe
20. Nothing's Too Good For My Little Girl
21. Too Late
22. Twelve Thirty (Young Girls Are Coming To The Canyon)
23. Rooms
24. Midnight Voyage

- Bonus Tracks - Outtakes from A Gathering of Flowers (1970)
25. Once Was A Time I Thought (Rehearsal & Studio Chatter)
26. Studio Chatter
27. I Can't Wait (Studio Chatter & Rehearsal)

CD3 - People Like Us (1971)

01. The Mamas & The Papas - People Like Us
02. The Mamas & The Papas - Pacific Coast Highway
03. The Mamas & The Papas - Snowqueen of Texas
04. The Mamas & The Papas - Shooting Star
05. The Mamas & The Papas - Step Out
06. The Mamas & The Papas - Lady Genevieve
07. The Mamas & The Papas - No Dough
08. The Mamas & The Papas - European Blueboy
09. The Mamas & The Papas - Pearl
10. The Mamas & The Papas - I Wanna Be a Star
11. The Mamas & The Papas - Grasshopper
12. The Mamas & The Papas - Blueberries for Breakfast

- This Precious Time - Barry McGuire with The Mamas & The Papas (1965)

13. Barry McGuire with The Mamas & The Papas - This Precious Time
14. Barry McGuire with The Mamas & The Papas - Do You Believe in Magic
15. Barry McGuire with The Mamas & The Papas - Yesterday
16. Barry McGuire with The Mamas & The Papas - You've Got to Hide Your Love Away
17. Barry McGuire with The Mamas & The Papas - Let Me Be
18. Barry McGuire with The Mamas & The Papas - Hang On Sloopy
19. Barry McGuire with The Mamas & The Papas - California Dreamin'

- Rarities
Excerpts from A Gathering of Flowers
20. Papa John - Interview
21. Mama Cass - Interview
Television Performances
22. The Mamas & The Papas - Nowhere Man (mono)
23. The Mamas & The Papas - Here in My Arms (mono)

CD4 - Solo Recordings:

01. Mama Cass Elliot - It's Getting Better
02. Mama Cass Elliot - Make Your Own Kind of Music
03. Mama Cass Elliot - New World Coming
04. Mama Cass Elliot - Different
05. Mama Cass Elliot - The Good Times are Coming
06. Dave Mason & Cass Elliot - Something to Make You Happy
07. Cass Elliot - Here We Go Again
08. Cass Elliot - Baby I'm Yours
09. Cass Elliot - (If You're Gonna) Break Another Heart
10. Cass Elliot - Does Anybody Love You
11. Denny Doherty - Watcha Gonna Do
12. Denny Doherty & Jimmie Haskell - To Claudia on Thursday
13. Denny Doherty - Of All The Things
14. Denny Doherty - Indian Girl
15. Denny Doherty - Baby Catch the Moon
16. Denny Doherty - My Song
17. Denny Doherty - You'll Never Know
18. John Phillips - Mississippi
19. John Phillips - Revolution on Vacation
20. John Phillips - Aloha Louie
21. Michelle Phillips - No Love Today
22. Michelle Phillips - Aching Kind
23. Michelle Phillips - Guerita
24. Michelle Phillips - Practice What You Preach
25. Michelle Phillips - Had a Lot of Love Last Night
26. Michelle Phillips - Forever


Exact Audio Copy V1.1 from 23. June 2015

EAC extraction logfile from 21. September 2016, 13:53

The Mamas & The Papas / Ultimate Anthology (Disc 1)

Used drive : SAMSUNG DVDWBD SH-B083L Adapter: 1 ID: 0

Read mode : Secure
Utilize accurate stream : Yes
Defeat audio cache : Yes
Make use of C2 pointers : No

Read offset correction : 6
Overread into Lead-In and Lead-Out : No
Fill up missing offset samples with silence : Yes
Delete leading and trailing silent blocks : No
Null samples used in CRC calculations : Yes
Used interface : Native Win32 interface for Win NT & 2000
Gap handling : Appended to previous track

Used output format : Internal WAV Routines
Sample format : 44.100 Hz; 16 Bit; Stereo


TOC of the extracted CD

Track | Start | Length | Start sector | End sector
––––––––––––––––––––––––––––-
1 | 0:00.00 | 3:26.27 | 0 | 15476
2 | 3:26.27 | 2:58.16 | 15477 | 28842
3 | 6:24.43 | 2:51.66 | 28843 | 41733
4 | 9:16.34 | 2:38.09 | 41734 | 53592
5 | 11:54.43 | 2:58.68 | 53593 | 67010
6 | 14:53.36 | 2:28.05 | 67011 | 78115
7 | 17:21.41 | 2:40.11 | 78116 | 90126
8 | 20:01.52 | 3:20.10 | 90127 | 105136
9 | 23:21.62 | 3:15.10 | 105137 | 119771
10 | 26:36.72 | 2:28.09 | 119772 | 130880
11 | 29:05.06 | 2:21.10 | 130881 | 141465
12 | 31:26.16 | 3:14.13 | 141466 | 156028
13 | 34:40.29 | 2:42.12 | 156029 | 168190
14 | 37:22.41 | 2:40.02 | 168191 | 180192
15 | 40:02.43 | 4:10.06 | 180193 | 198948
16 | 44:12.49 | 2:15.68 | 198949 | 209141
17 | 46:28.42 | 1:43.33 | 209142 | 216899
18 | 48:12.00 | 3:48.24 | 216900 | 234023
19 | 52:00.24 | 3:13.23 | 234024 | 248521
20 | 55:13.47 | 2:54.04 | 248522 | 261575
21 | 58:07.51 | 2:43.02 | 261576 | 273802
22 | 60:50.53 | 2:42.33 | 273803 | 285985
23 | 63:33.11 | 2:37.28 | 285986 | 297788
24 | 66:10.39 | 1:00.34 | 297789 | 302322
25 | 67:10.73 | 1:42.24 | 302323 | 309996
26 | 68:53.22 | 3:42.72 | 309997 | 326718
27 | 72:36.19 | 2:13.44 | 326719 | 336737
28 | 74:49.63 | 2:53.44 | 336738 | 349756


Track 1

Filename D:\tempshift\01. Monday, Monday.wav

Pre-gap length 0:00:02.00

Peak level 96.5 %
Extraction speed 2.2 X
Track quality 100.0 %
Test CRC 06ED054F
Copy CRC 06ED054F
Track not present in AccurateRip database
Copy OK

Track 2

Filename D:\tempshift\02. Straight Shooter.wav

Peak level 96.5 %
Extraction speed 2.2 X
Track quality 100.0 %
Test CRC ED3A59F5
Copy CRC ED3A59F5
Track not present in AccurateRip database
Copy OK

Track 3

Filename D:\tempshift\03. Got A Feelin'.wav

Peak level 94.7 %
Extraction speed 2.3 X
Track quality 100.0 %
Test CRC FDC447DA
Copy CRC FDC447DA
Track not present in AccurateRip database
Copy OK

Track 4

Filename D:\tempshift\04. I Call Your Name.wav

Peak level 96.5 %
Extraction speed 2.4 X
Track quality 100.0 %
Test CRC 0EE4E902
Copy CRC 0EE4E902
Track not present in AccurateRip database
Copy OK

Track 5

Filename D:\tempshift\05. Do You Wanna Dance.wav

Peak level 96.4 %
Extraction speed 2.6 X
Track quality 100.0 %
Test CRC B87A848B
Copy CRC B87A848B
Track not present in AccurateRip database
Copy OK

Track 6

Filename D:\tempshift\06. Go Where You Wanna Go.wav

Peak level 96.5 %
Extraction speed 2.0 X
Track quality 99.9 %
Test CRC C37A467E
Copy CRC C37A467E
Track not present in AccurateRip database
Copy OK

Track 7

Filename D:\tempshift\07. California Dreamin'.wav

Peak level 96.6 %
Extraction speed 2.7 X
Track quality 100.0 %
Test CRC D2B42C8F
Copy CRC D2B42C8F
Track not present in AccurateRip database
Copy OK

Track 8

Filename D:\tempshift\08. Spanish Harlem.wav

Peak level 96.5 %
Extraction speed 2.9 X
Track quality 100.0 %
Test CRC 230B033B
Copy CRC 230B033B
Track not present in AccurateRip database
Copy OK

Track 9

Filename D:\tempshift\09. Somebody Groovy.wav

Peak level 96.6 %
Extraction speed 3.0 X
Track quality 100.0 %
Test CRC 2C98CCD7
Copy CRC 2C98CCD7
Track not present in AccurateRip database
Copy OK

Track 10

Filename D:\tempshift\10. Hey Girl.wav

Peak level 96.5 %
Extraction speed 3.0 X
Track quality 100.0 %
Test CRC 3A18E615
Copy CRC 3A18E615
Track not present in AccurateRip database
Copy OK

Track 11

Filename D:\tempshift\11. You Baby.wav

Peak level 96.5 %
Extraction speed 3.0 X
Track quality 100.0 %
Test CRC 21253EBF
Copy CRC 21253EBF
Track not present in AccurateRip database
Copy OK

Track 12

Filename D:\tempshift\12. The In Crowd.wav

Peak level 96.5 %
Extraction speed 2.5 X
Track quality 99.9 %
Test CRC 6340A147
Copy CRC 6340A147
Track not present in AccurateRip database
Copy OK

Track 13

Filename D:\tempshift\13. No Salt On Her Tail.wav

Peak level 96.5 %
Extraction speed 3.3 X
Track quality 100.0 %
Test CRC 37F1CBBC
Copy CRC 37F1CBBC
Track not present in AccurateRip database
Copy OK

Track 14

Filename D:\tempshift\14. Trip, Stumble & Fall.wav

Peak level 96.6 %
Extraction speed 2.4 X
Track quality 99.9 %
Test CRC 705948C9
Copy CRC 705948C9
Track not present in AccurateRip database
Copy OK

Track 15

Filename D:\tempshift\15. Dancing Bear.wav

Peak level 96.5 %
Extraction speed 3.7 X
Track quality 100.0 %
Test CRC 60FD204C
Copy CRC 60FD204C
Track not present in AccurateRip database
Copy OK

Track 16

Filename D:\tempshift\16. Words Of Love.wav

Peak level 96.5 %
Extraction speed 3.4 X
Track quality 100.0 %
Test CRC 622AC8EF
Copy CRC 622AC8EF
Track not present in AccurateRip database
Copy OK

Track 17

Filename D:\tempshift\17. My Heart Stood Still.wav

Peak level 96.5 %
Extraction speed 3.3 X
Track quality 100.0 %
Test CRC 69F77C6F
Copy CRC 69F77C6F
Track not present in AccurateRip database
Copy OK

Track 18

Filename D:\tempshift\18. Dancing In The Street.wav

Peak level 96.6 %
Extraction speed 3.9 X
Track quality 100.0 %
Test CRC 8F5E211D
Copy CRC 8F5E211D
Track not present in AccurateRip database
Copy OK

Track 19

Filename D:\tempshift\19. I Saw Her Again.wav

Peak level 96.6 %
Extraction speed 3.9 X
Track quality 100.0 %
Test CRC D0B9DC03
Copy CRC D0B9DC03
Track not present in AccurateRip database
Copy OK

Track 20

Filename D:\tempshift\20. Strange Young Girls.wav

Peak level 96.6 %
Extraction speed 3.9 X
Track quality 100.0 %
Test CRC 14EBE393
Copy CRC 14EBE393
Track not present in AccurateRip database
Copy OK

Track 21

Filename D:\tempshift\21. I Can't Wait.wav

Peak level 96.6 %
Extraction speed 2.7 X
Track quality 99.9 %
Test CRC DB3D9D48
Copy CRC DB3D9D48
Track not present in AccurateRip database
Copy OK

Track 22

Filename D:\tempshift\22. Even If I Could.wav

Peak level 96.5 %
Extraction speed 4.0 X
Track quality 100.0 %
Test CRC C8B8B7DB
Copy CRC C8B8B7DB
Track not present in AccurateRip database
Copy OK

Track 23

Filename D:\tempshift\23. That Kind Of Girl.wav

Peak level 96.6 %
Extraction speed 2.6 X
Track quality 99.9 %
Test CRC 98AF2984
Copy CRC 98AF2984
Track not present in AccurateRip database
Copy OK

Track 24

Filename D:\tempshift\24. Once Was A Time I Thought.wav

Peak level 95.7 %
Extraction speed 3.1 X
Track quality 100.0 %
Test CRC BCE6444E
Copy CRC BCE6444E
Track not present in AccurateRip database
Copy OK

Track 25

Filename D:\tempshift\25. Glad To Be Unhappy.wav

Peak level 96.5 %
Extraction speed 3.7 X
Track quality 100.0 %
Test CRC B8195A5D
Copy CRC B8195A5D
Track not present in AccurateRip database
Copy OK

Track 26

Filename D:\tempshift\26. Creeque Alley (Mono Single).wav

Peak level 96.5 %
Extraction speed 4.4 X
Track quality 100.0 %
Test CRC FFBCEFE6
Copy CRC FFBCEFE6
Track not present in AccurateRip database
Copy OK

Track 27

Filename D:\tempshift\27. Words Of Love (Mono Single).wav

Peak level 96.5 %
Extraction speed 4.1 X
Track quality 100.0 %
Test CRC 7625F39D
Copy CRC 7625F39D
Track not present in AccurateRip database
Copy OK

Track 28

Filename D:\tempshift\28. I Saw Her Again (Mono Single).wav

Peak level 96.5 %
Extraction speed 4.3 X
Track quality 100.0 %
Test CRC F132195B
Copy CRC F132195B
Track not present in AccurateRip database
Copy OK


None of the tracks are present in the AccurateRip database

No errors occurred

End of status report

–– CUETools DB Plugin V2.1.6

[CTDB TOCID: kObCIqXl98AAnPpo58btFxPZujU-] disk not present in database
Submit result: kObCIqXl98AAnPpo58btFxPZujU- has been uploaded


==== Log checksum 0D7D284EFE77E274F443F33E843BA4245358B4BFBC6FCE519C1D8100AEADEC87 ====

===============================

Exact Audio Copy V1.0 beta 3 from 29. August 2011

EAC extraction logfile from 12. October 2016, 22:04

The Mamas & The Papas / Ultimate Anthology (CD2)

Used drive : MATSHITADVD-RAM UJ870BJ Adapter: 0 ID: 1

Read mode : Secure
Utilize accurate stream : Yes
Defeat audio cache : Yes
Make use of C2 pointers : No

Read offset correction : 102
Overread into Lead-In and Lead-Out : No
Fill up missing offset samples with silence : Yes
Delete leading and trailing silent blocks : No
Null samples used in CRC calculations : Yes
Used interface : Native Win32 interface for Win NT & 2000
Gap handling : Appended to previous track

Used output format : User Defined Encoder
Selected bitrate : 1024 kBit/s
Quality : High
Add ID3 tag : No
Command line compressor : C:\Program Files\Exact Audio Copy\Flac\flac.exe
Additional command line options : -8 -V -T "ARTIST=%artist%" -T "TITLE=%title%" -T "ALBUM=%albumtitle%" -T "DATE=%year%" -T "TRACKNUMBER=%tracknr%" -T "GENRE=%genre%" -T "PERFORMER=%albuminterpret%" -T "COMPOSER=%composer%" %haslyrics%–tag-from-file=LYRICS="%lyricsfile%"%haslyrics% -T "ALBUMARTIST=%albumartist%" -T "DISCNUMBER=%cdnumber%" -T "TOTALDISCS=%totalcds%" -T "TOTALTRACKS=%numtracks%" -T "COMMENT=%comment%" %source% -o %dest%


TOC of the extracted CD

Track | Start | Length | Start sector | End sector
––––––––––––––––––––––––––––-
1 | 0:00.00 | 2:58.15 | 0 | 13364
2 | 2:58.15 | 3:33.28 | 13365 | 29367
3 | 6:31.43 | 3:48.72 | 29368 | 46539
4 | 10:20.40 | 2:48.52 | 46540 | 59191
5 | 13:09.17 | 2:53.08 | 59192 | 72174
6 | 16:02.25 | 3:19.70 | 72175 | 87169
7 | 19:22.20 | 3:08.41 | 87170 | 101310
8 | 22:30.61 | 3:16.45 | 101311 | 116055
9 | 25:47.31 | 3:01.45 | 116056 | 129675
10 | 28:49.01 | 2:58.09 | 129676 | 143034
11 | 31:47.10 | 2:55.49 | 143035 | 156208
12 | 34:42.59 | 1:06.11 | 156209 | 161169
13 | 35:48.70 | 0:42.35 | 161170 | 164354
14 | 36:31.30 | 3:13.14 | 164355 | 178843
15 | 39:44.44 | 4:22.56 | 178844 | 198549
16 | 44:07.25 | 3:43.08 | 198550 | 215282
17 | 47:50.33 | 3:15.17 | 215283 | 229924
18 | 51:05.50 | 3:47.01 | 229925 | 246950
19 | 54:52.51 | 4:30.01 | 246951 | 267201
20 | 59:22.52 | 3:09.03 | 267202 | 281379
21 | 62:31.55 | 4:10.74 | 281380 | 300203
22 | 66:42.54 | 3:25.34 | 300204 | 315612
23 | 70:08.13 | 2:49.06 | 315613 | 328293
24 | 72:57.19 | 3:14.01 | 328294 | 342844
25 | 76:11.20 | 1:18.01 | 342845 | 348695
26 | 77:29.21 | 0:43.35 | 348696 | 351955
27 | 78:12.56 | 1:14.61 | 351956 | 357566


Track 1

Filename C:\Backups\01. Dedicated To The One I Love.wav

Pre-gap length 0:00:02.00

Peak level 96.5 %
Extraction speed 1.4 X
Track quality 100.0 %
Test CRC 3D44E5FB
Copy CRC 3D44E5FB
Track not present in AccurateRip database
Copy OK

Track 2

Filename C:\Backups\02. My Girl.wav

Peak level 96.6 %
Extraction speed 1.6 X
Track quality 100.0 %
Test CRC A4ED4E22
Copy CRC A4ED4E22
Track not present in AccurateRip database
Copy OK

Track 3

Filename C:\Backups\03. Creeque Alley.wav

Peak level 96.5 %
Extraction speed 1.7 X
Track quality 100.0 %
Test CRC C8D42ED3
Copy CRC C8D42ED3
Track not present in AccurateRip database
Copy OK

Track 4

Filename C:\Backups\04. Sing For Your Supper.wav

Peak level 96.6 %
Extraction speed 1.8 X
Track quality 100.0 %
Test CRC A7F28DC5
Copy CRC A7F28DC5
Track not present in AccurateRip database
Copy OK

Track 5

Filename C:\Backups\05. Twist And Shout.wav

Peak level 96.5 %
Extraction speed 1.8 X
Track quality 100.0 %
Test CRC F0FA2A01
Copy CRC F0FA2A01
Track not present in AccurateRip database
Copy OK

Track 6

Filename C:\Backups\06. Free Advice.wav

Peak level 96.6 %
Extraction speed 2.0 X
Track quality 100.0 %
Test CRC 380DE758
Copy CRC 380DE758
Track not present in AccurateRip database
Copy OK

Track 7

Filename C:\Backups\07. Look Through My Window.wav

Peak level 96.6 %
Extraction speed 1.8 X
Track quality 99.9 %
Test CRC 95B611DB
Copy CRC 95B611DB
Track not present in AccurateRip database
Copy OK

Track 8

Filename C:\Backups\08. Boys And Girls Together.wav

Peak level 96.5 %
Extraction speed 2.2 X
Track quality 100.0 %
Test CRC 882F49FF
Copy CRC 882F49FF
Track not present in AccurateRip database
Copy OK

Track 9

Filename C:\Backups\09. String Man.wav

Peak level 96.5 %
Extraction speed 1.8 X
Track quality 99.9 %
Test CRC 633C9E8B
Copy CRC 633C9E8B
Track not present in AccurateRip database
Copy OK

Track 10

Filename C:\Backups\10. Frustration.wav

Peak level 96.5 %
Extraction speed 2.2 X
Track quality 100.0 %
Test CRC 792DDF6B
Copy CRC 792DDF6B
Track not present in AccurateRip database
Copy OK

Track 11

Filename C:\Backups\11. Did You Ever Want To Cry.wav

Peak level 96.5 %
Extraction speed 2.3 X
Track quality 100.0 %
Test CRC 7CDFE536
Copy CRC 7CDFE536
Track not present in AccurateRip database
Copy OK

Track 12

Filename C:\Backups\12. John's Music Box.wav

Peak level 41.5 %
Extraction speed 1.8 X
Track quality 100.0 %
Test CRC 1C0FCD24
Copy CRC 1C0FCD24
Track not present in AccurateRip database
Copy OK

Track 13

Filename C:\Backups\13. The Right Somebody To Love.wav

Peak level 88.3 %
Extraction speed 1.0 X
Track quality 99.7 %
Test CRC F2AC2A1D
Copy CRC F2AC2A1D
Track not present in AccurateRip database
Copy OK

Track 14

Filename C:\Backups\14. Safe In My Garden.wav

Peak level 96.6 %
Extraction speed 2.1 X
Track quality 99.9 %
Test CRC BAD24581
Copy CRC BAD24581
Track not present in AccurateRip database
Copy OK

Track 15

Filename C:\Backups\15. Meditation Mama (Transcendental Woman Travels).wav

Peak level 96.5 %
Extraction speed 2.6 X
Track quality 100.0 %
Test CRC 4356EF8C
Copy CRC 4356EF8C
Track not present in AccurateRip database
Copy OK

Track 16

Filename C:\Backups\16. For The Love Of Ivy.wav

Peak level 96.5 %
Extraction speed 2.3 X
Track quality 99.9 %
Test CRC 9866C71A
Copy CRC 9866C71A
Track not present in AccurateRip database
Copy OK

Track 17

Filename C:\Backups\17. Dream A Little Dream Of Me.wav

Peak level 96.6 %
Extraction speed 2.3 X
Track quality 99.9 %
Test CRC 5A64EE86
Copy CRC 5A64EE86
Track not present in AccurateRip database
Copy OK

Track 18

Filename C:\Backups\18. Mansions.wav

Peak level 96.5 %
Extraction speed 2.8 X
Track quality 100.0 %
Test CRC D5F6CCE2
Copy CRC D5F6CCE2
Track not present in AccurateRip database
Copy OK

Track 19

Filename C:\Backups\19. Gemini Childe.wav

Peak level 96.6 %
Extraction speed 2.9 X
Track quality 100.0 %
Test CRC 62E58FB4
Copy CRC 62E58FB4
Track not present in AccurateRip database
Copy OK

Track 20

Filename C:\Backups\20. Nothing's Too Good For My Little Girl.wav

Peak level 96.6 %
Extraction speed 2.9 X
Track quality 100.0 %
Test CRC 6DDCE75B
Copy CRC 6DDCE75B
Track not present in AccurateRip database
Copy OK

Track 21

Filename C:\Backups\21. Too Late.wav

Peak level 96.6 %
Extraction speed 2.7 X
Track quality 99.9 %
Test CRC 4FA63AD4
Copy CRC 4FA63AD4
Track not present in AccurateRip database
Copy OK

Track 22

Filename C:\Backups\22. Twelve Thirty (Young Girls Are Coming To The Canyon).wav

Peak level 96.6 %
Extraction speed 3.0 X
Track quality 100.0 %
Test CRC DEE12529
Copy CRC DEE12529
Track not present in AccurateRip database
Copy OK

Track 23

Filename C:\Backups\23. Rooms.wav

Peak level 96.5 %
Extraction speed 3.0 X
Track quality 100.0 %
Test CRC E56536C8
Copy CRC E56536C8
Track not present in AccurateRip database
Copy OK

Track 24

Filename C:\Backups\24. Midnight Voyage.wav

Peak level 96.6 %
Extraction speed 3.1 X
Track quality 100.0 %
Test CRC 12ABBF87
Copy CRC 12ABBF87
Track not present in AccurateRip database
Copy OK

Track 25

Filename C:\Backups\25. Once Was A Time I Thought (Rehearsal & Studio Chatter).wav

Peak level 78.2 %
Extraction speed 1.9 X
Track quality 99.8 %
Test CRC C5F7BDD9
Copy CRC C5F7BDD9
Track not present in AccurateRip database
Copy OK

Track 26

Filename C:\Backups\26. Studio Chatter.wav

Peak level 89.5 %
Extraction speed 1.3 X
Track quality 99.7 %
Test CRC E572E007
Copy CRC E572E007
Track not present in AccurateRip database
Copy OK

Track 27

Filename C:\Backups\27. I Can't Wait (Studio Chatter & Rehearsal).wav

Peak level 90.4 %
Extraction speed 2.5 X
Track quality 100.0 %
Test CRC 96EF36C7
Copy CRC 96EF36C7
Track not present in AccurateRip database
Copy OK


None of the tracks are present in the AccurateRip database

No errors occurred

End of status report

==== Log checksum 9B2A270253DE7B4AB628E8931972F2A7BC8C2D8E32E3239A582AD0D6A0C52711 ====

=========================

Exact Audio Copy V1.0 beta 3 from 29. August 2011

EAC extraction logfile from 13. October 2016, 20:08

The Mamas & The Papas / Ultimate Anthology (CD3)

Used drive : MATSHITADVD-RAM UJ870BJ Adapter: 0 ID: 1

Read mode : Secure
Utilize accurate stream : Yes
Defeat audio cache : Yes
Make use of C2 pointers : No

Read offset correction : 102
Overread into Lead-In and Lead-Out : No
Fill up missing offset samples with silence : Yes
Delete leading and trailing silent blocks : No
Null samples used in CRC calculations : Yes
Used interface : Native Win32 interface for Win NT & 2000
Gap handling : Appended to previous track

Used output format : User Defined Encoder
Selected bitrate : 1024 kBit/s
Quality : High
Add ID3 tag : No
Command line compressor : C:\Program Files\Exact Audio Copy\Flac\flac.exe
Additional command line options : -8 -V -T "ARTIST=%artist%" -T "TITLE=%title%" -T "ALBUM=%albumtitle%" -T "DATE=%year%" -T "TRACKNUMBER=%tracknr%" -T "GENRE=%genre%" -T "PERFORMER=%albuminterpret%" -T "COMPOSER=%composer%" %haslyrics%–tag-from-file=LYRICS="%lyricsfile%"%haslyrics% -T "ALBUMARTIST=%albumartist%" -T "DISCNUMBER=%cdnumber%" -T "TOTALDISCS=%totalcds%" -T "TOTALTRACKS=%numtracks%" -T "COMMENT=%comment%" %source% -o %dest%


TOC of the extracted CD

Track | Start | Length | Start sector | End sector
––––––––––––––––––––––––––––-
1 | 0:00.00 | 3:30.54 | 0 | 15803
2 | 3:30.54 | 3:19.23 | 15804 | 30751
3 | 6:50.02 | 2:58.16 | 30752 | 44117
4 | 9:48.18 | 2:50.51 | 44118 | 56918
5 | 12:38.69 | 3:17.29 | 56919 | 71722
6 | 15:56.23 | 3:59.20 | 71723 | 89667
7 | 19:55.43 | 3:14.24 | 89668 | 104241
8 | 23:09.67 | 4:16.47 | 104242 | 123488
9 | 27:26.39 | 2:34.56 | 123489 | 135094
10 | 30:01.20 | 2:46.49 | 135095 | 147593
11 | 32:47.69 | 3:34.41 | 147594 | 163684
12 | 36:22.35 | 3:39.19 | 163685 | 180128
13 | 40:01.54 | 2:49.40 | 180129 | 192843
14 | 42:51.19 | 2:18.00 | 192844 | 203193
15 | 45:09.19 | 2:53.64 | 203194 | 216232
16 | 48:03.08 | 2:48.10 | 216233 | 228842
17 | 50:51.18 | 2:35.73 | 228843 | 240540
18 | 53:27.16 | 4:03.17 | 240541 | 258782
19 | 57:30.33 | 2:38.23 | 258783 | 270655
20 | 60:08.56 | 5:41.67 | 270656 | 296297
21 | 65:50.48 | 8:21.30 | 296298 | 333902
22 | 74:12.03 | 1:22.10 | 333903 | 340062
23 | 75:34.13 | 2:23.34 | 340063 | 350821


Track 1

Filename C:\Backups\01. The Mamas & The Papas - People Like Us.wav

Pre-gap length 0:00:02.00

Peak level 100.0 %
Extraction speed 1.5 X
Track quality 100.0 %
Test CRC 7145C8F6
Copy CRC 7145C8F6
Track not present in AccurateRip database
Copy OK

Track 2

Filename C:\Backups\02. The Mamas & The Papas - Pacific Coast Highway.wav

Pre-gap length 0:00:01.00

Peak level 98.8 %
Extraction speed 1.6 X
Track quality 100.0 %
Test CRC 897802CD
Copy CRC 897802CD
Track not present in AccurateRip database
Copy OK

Track 3

Filename C:\Backups\03. The Mamas & The Papas - Snowqueen of Texas.wav

Pre-gap length 0:00:01.00

Peak level 100.0 %
Extraction speed 1.7 X
Track quality 100.0 %
Test CRC 2E37BA81
Copy CRC 2E37BA81
Track not present in AccurateRip database
Copy OK

Track 4

Filename C:\Backups\04. The Mamas & The Papas - Shooting Star.wav

Pre-gap length 0:00:01.00

Peak level 100.0 %
Extraction speed 1.7 X
Track quality 100.0 %
Test CRC 00F96ECF
Copy CRC 00F96ECF
Track not present in AccurateRip database
Copy OK

Track 5

Filename C:\Backups\05. The Mamas & The Papas - Step Out.wav

Pre-gap length 0:00:01.00

Peak level 100.0 %
Extraction speed 1.9 X
Track quality 100.0 %
Test CRC 1719B925
Copy CRC 1719B925
Track not present in AccurateRip database
Copy OK

Track 6

Filename C:\Backups\06. The Mamas & The Papas - Lady Genevieve.wav

Pre-gap length 0:00:01.00

Peak level 100.0 %
Extraction speed 2.1 X
Track quality 100.0 %
Test CRC 65700DDB
Copy CRC 65700DDB
Track not present in AccurateRip database
Copy OK

Track 7

Filename C:\Backups\07. The Mamas & The Papas - No Dough.wav

Pre-gap length 0:00:01.00

Peak level 100.0 %
Extraction speed 2.1 X
Track quality 100.0 %
Test CRC A40DBA92
Copy CRC A40DBA92
Track not present in AccurateRip database
Copy OK

Track 8

Filename C:\Backups\08. The Mamas & The Papas - European Blueboy.wav

Pre-gap length 0:00:01.00

Peak level 100.0 %
Extraction speed 2.0 X
Track quality 99.9 %
Test CRC F0908043
Copy CRC F0908043
Track not present in AccurateRip database
Copy OK

Track 9

Filename C:\Backups\09. The Mamas & The Papas - Pearl.wav

Pre-gap length 0:00:01.00

Peak level 100.0 %
Extraction speed 2.2 X
Track quality 100.0 %
Test CRC 7342537F
Copy CRC 7342537F
Track not present in AccurateRip database
Copy OK

Track 10

Filename C:\Backups\10. The Mamas & The Papas - I Wanna Be a Star.wav

Pre-gap length 0:00:01.00

Peak level 100.0 %
Extraction speed 1.9 X
Track quality 99.9 %
Test CRC F6BE753B
Copy CRC F6BE753B
Track not present in AccurateRip database
Copy OK

Track 11

Filename C:\Backups\11. The Mamas & The Papas - Grasshopper.wav

Pre-gap length 0:00:01.00

Peak level 100.0 %
Extraction speed 2.4 X
Track quality 100.0 %
Test CRC EFC103CD
Copy CRC EFC103CD
Track not present in AccurateRip database
Copy OK

Track 12

Filename C:\Backups\12. The Mamas & The Papas - Blueberries for Breakfast.wav

Pre-gap length 0:00:01.00

Peak level 100.0 %
Extraction speed 2.5 X
Track quality 100.0 %
Test CRC B598F6DB
Copy CRC B598F6DB
Track not present in AccurateRip database
Copy OK

Track 13

Filename C:\Backups\13. Barry McGuire with The Mamas & The Papas - This Precious Time.wav

Pre-gap length 0:00:01.00

Peak level 96.6 %
Extraction speed 2.4 X
Track quality 100.0 %
Test CRC B7A791CF
Copy CRC B7A791CF
Track not present in AccurateRip database
Copy OK

Track 14

Filename C:\Backups\14. Barry McGuire with The Mamas & The Papas - Do You Believe in Magic.wav

Pre-gap length 0:00:01.00

Peak level 96.6 %
Extraction speed 2.4 X
Track quality 100.0 %
Test CRC B567A9A7
Copy CRC B567A9A7
Track not present in AccurateRip database
Copy OK

Track 15

Filename C:\Backups\15. Barry McGuire with The Mamas & The Papas - Yesterday.wav

Peak level 96.5 %
Extraction speed 2.5 X
Track quality 100.0 %
Test CRC 471642C3
Copy CRC 471642C3
Track not present in AccurateRip database
Copy OK

Track 16

Filename C:\Backups\16. Barry McGuire with The Mamas & The Papas - You've Got to Hide Your Love Away.wav

Peak level 96.6 %
Extraction speed 2.6 X
Track quality 100.0 %
Test CRC 325973D1
Copy CRC 325973D1
Track not present in AccurateRip database
Copy OK

Track 17

Filename C:\Backups\17. Barry McGuire with The Mamas & The Papas - Let Me Be.wav

Pre-gap length 0:00:01.00

Peak level 96.6 %
Extraction speed 2.6 X
Track quality 100.0 %
Test CRC BCF34F80
Copy CRC BCF34F80
Track not present in AccurateRip database
Copy OK

Track 18

Filename C:\Backups\18. Barry McGuire with The Mamas & The Papas - Hang On Sloopy.wav

Peak level 96.6 %
Extraction speed 2.9 X
Track quality 100.0 %
Test CRC 601BDDA1
Copy CRC 601BDDA1
Track not present in AccurateRip database
Copy OK

Track 19

Filename C:\Backups\19. Barry McGuire with The Mamas & The Papas - California Dreamin'.wav

Peak level 96.6 %
Extraction speed 2.8 X
Track quality 100.0 %
Test CRC B2E12515
Copy CRC B2E12515
Track not present in AccurateRip database
Copy OK

Track 20

Filename C:\Backups\20. Papa John - Interview.wav

Peak level 98.8 %
Extraction speed 3.2 X
Track quality 100.0 %
Test CRC 2D27DBCA
Copy CRC 2D27DBCA
Track not present in AccurateRip database
Copy OK

Track 21

Filename C:\Backups\21. Mama Cass - Interview.wav

Peak level 99.9 %
Extraction speed 3.4 X
Track quality 100.0 %
Test CRC 28809B10
Copy CRC 28809B10
Track not present in AccurateRip database
Copy OK

Track 22

Filename C:\Backups\22. The Mamas & The Papas - Nowhere Man.wav

Pre-gap length 0:00:01.00

Peak level 96.5 %
Extraction speed 2.5 X
Track quality 100.0 %
Test CRC 2C876F25
Copy CRC 2C876F25
Track not present in AccurateRip database
Copy OK

Track 23

Filename C:\Backups\23. The Mamas & The Papas - Here in My Arms.wav

Peak level 96.5 %
Extraction speed 2.5 X
Track quality 99.9 %
Test CRC 3D7C49A8
Copy CRC 3D7C49A8
Track not present in AccurateRip database
Copy OK


None of the tracks are present in the AccurateRip database

No errors occurred

End of status report

==== Log checksum 92D0484A113791C43452E4F370D9CC082ABC923A41D7EB5E03183533FD7A93CC ====

=================================

Exact Audio Copy V1.0 beta 3 from 29. August 2011

EAC extraction logfile from 15. October 2016, 9:12

The Mamas & The Papas / Ultimate Anthology (CD4)

Used drive : MATSHITADVD-RAM UJ870BJ Adapter: 0 ID: 1

Read mode : Secure
Utilize accurate stream : Yes
Defeat audio cache : Yes
Make use of C2 pointers : No

Read offset correction : 102
Overread into Lead-In and Lead-Out : No
Fill up missing offset samples with silence : Yes
Delete leading and trailing silent blocks : No
Null samples used in CRC calculations : Yes
Used interface : Native Win32 interface for Win NT & 2000
Gap handling : Appended to previous track

Used output format : User Defined Encoder
Selected bitrate : 1024 kBit/s
Quality : High
Add ID3 tag : No
Command line compressor : C:\Program Files\Exact Audio Copy\Flac\flac.exe
Additional command line options : -8 -V -T "ARTIST=%artist%" -T "TITLE=%title%" -T "ALBUM=%albumtitle%" -T "DATE=%year%" -T "TRACKNUMBER=%tracknr%" -T "GENRE=%genre%" -T "PERFORMER=%albuminterpret%" -T "COMPOSER=%composer%" %haslyrics%–tag-from-file=LYRICS="%lyricsfile%"%haslyrics% -T "ALBUMARTIST=%albumartist%" -T "DISCNUMBER=%cdnumber%" -T "TOTALDISCS=%totalcds%" -T "TOTALTRACKS=%numtracks%" -T "COMMENT=%comment%" %source% -o %dest%


TOC of the extracted CD

Track | Start | Length | Start sector | End sector
––––––––––––––––––––––––––––-
1 | 0:00.00 | 3:12.21 | 0 | 14420
2 | 3:12.21 | 2:37.04 | 14421 | 26199
3 | 5:49.25 | 2:13.36 | 26200 | 36210
4 | 8:02.61 | 2:11.67 | 36211 | 46102
5 | 10:14.53 | 2:54.44 | 46103 | 59196
6 | 13:09.22 | 2:18.57 | 59197 | 69603
7 | 15:28.04 | 2:50.30 | 69604 | 82383
8 | 18:18.34 | 2:31.13 | 82384 | 93721
9 | 20:49.47 | 2:26.08 | 93722 | 104679
10 | 23:15.55 | 2:54.04 | 104680 | 117733
11 | 26:09.59 | 2:23.61 | 117734 | 128519
12 | 28:33.45 | 3:11.15 | 128520 | 142859
13 | 31:44.60 | 3:24.30 | 142860 | 158189
14 | 35:09.15 | 3:17.47 | 158190 | 173011
15 | 38:26.62 | 2:49.73 | 173012 | 185759
16 | 41:16.60 | 2:42.02 | 185760 | 197911
17 | 43:58.62 | 2:56.37 | 197912 | 211148
18 | 46:55.24 | 3:36.05 | 211149 | 227353
19 | 50:31.29 | 2:45.43 | 227354 | 239771
20 | 53:16.72 | 2:44.10 | 239772 | 252081
21 | 56:01.07 | 3:06.20 | 252082 | 266051
22 | 59:07.27 | 3:19.33 | 266052 | 281009
23 | 62:26.60 | 4:25.63 | 281010 | 300947
24 | 66:52.48 | 2:45.71 | 300948 | 313393
25 | 69:38.44 | 3:57.48 | 313394 | 331216
26 | 73:36.17 | 2:44.14 | 331217 | 343530


Track 1

Filename C:\Backups\01. Mama Cass Elliot - It's Getting Better.wav

Pre-gap length 0:00:02.00

Peak level 96.6 %
Extraction speed 1.5 X
Track quality 100.0 %
Test CRC 5876FCBC
Copy CRC 5876FCBC
Track not present in AccurateRip database
Copy OK

Track 2

Filename C:\Backups\02. Mama Cass Elliot - Make Your Own Kind of Music.wav

Pre-gap length 0:00:01.00

Peak level 96.5 %
Extraction speed 1.2 X
Track quality 99.9 %
Test CRC 21542AE7
Copy CRC 21542AE7
Track not present in AccurateRip database
Copy OK

Track 3

Filename C:\Backups\03. Mama Cass Elliot - New World Coming.wav

Peak level 95.5 %
Extraction speed 1.5 X
Track quality 100.0 %
Test CRC 7BAC7672
Copy CRC 7BAC7672
Track not present in AccurateRip database
Copy OK

Track 4

Filename C:\Backups\04. Mama Cass Elliot - Different.wav

Pre-gap length 0:00:01.00

Peak level 96.6 %
Extraction speed 1.6 X
Track quality 100.0 %
Test CRC 9C8AADF4
Copy CRC 9C8AADF4
Track not present in AccurateRip database
Copy OK

Track 5

Filename C:\Backups\05. Mama Cass Elliot - The Good Times are Coming.wav

Pre-gap length 0:00:01.00

Peak level 96.5 %
Extraction speed 1.5 X
Track quality 99.9 %
Test CRC A5CEBD86
Copy CRC A5CEBD86
Track not present in AccurateRip database
Copy OK

Track 6

Filename C:\Backups\06. Dve Mason & Cass Elliot - Something to Make You Happy.wav

Pre-gap length 0:00:01.00

Peak level 96.6 %
Extraction speed 1.4 X
Track quality 99.9 %
Test CRC A59861B6
Copy CRC A59861B6
Track not present in AccurateRip database
Copy OK

Track 7

Filename C:\Backups\07. Cass Elliot - Here We Go Again.wav

Peak level 96.5 %
Extraction speed 1.9 X
Track quality 100.0 %
Test CRC 18413D10
Copy CRC 18413D10
Track not present in AccurateRip database
Copy OK

Track 8

Filename C:\Backups\08. Cass Elliot - Baby I'm Yours.wav

Peak level 96.6 %
Extraction speed 1.9 X
Track quality 100.0 %
Test CRC DC3332E2
Copy CRC DC3332E2
Track not present in AccurateRip database
Copy OK

Track 9

Filename C:\Backups\09. Cass Elliot - (If You're Gonna) Break Another Heart.wav

Peak level 96.6 %
Extraction speed 2.0 X
Track quality 100.0 %
Test CRC DCA28BAA
Copy CRC DCA28BAA
Track not present in AccurateRip database
Copy OK

Track 10

Filename C:\Backups\10. Cass Elliot - Does Anybody Love You.wav

Peak level 96.5 %
Extraction speed 2.1 X
Track quality 100.0 %
Test CRC 7DAB5285
Copy CRC 7DAB5285
Track not present in AccurateRip database
Copy OK

Track 11

Filename C:\Backups\11. Denny Doherty - Watcha Gonna Do.wav

Peak level 96.6 %
Extraction speed 2.1 X
Track quality 100.0 %
Test CRC 2F729DB7
Copy CRC 2F729DB7
Track not present in AccurateRip database
Copy OK

Track 12

Filename C:\Backups\12. Denny Doherty & Jimmie Haskell - To Claudia on Thursday.wav

Peak level 96.6 %
Extraction speed 2.0 X
Track quality 99.9 %
Test CRC 89FCB7E2
Copy CRC 89FCB7E2
Track not present in AccurateRip database
Copy OK

Track 13

Filename C:\Backups\13. Denny Doherty - Of All The Things.wav

Peak level 99.9 %
Extraction speed 2.4 X
Track quality 100.0 %
Test CRC 30F423D2
Copy CRC 30F423D2
Track not present in AccurateRip database
Copy OK

Track 14

Filename C:\Backups\14. Denny Doherty - Indian Girl.wav

Pre-gap length 0:00:01.00

Peak level 96.6 %
Extraction speed 2.4 X
Track quality 100.0 %
Test CRC 7DDAEB54
Copy CRC 7DDAEB54
Track not present in AccurateRip database
Copy OK

Track 15

Filename C:\Backups\15. Denny Doherty - Baby Catch the Moon.wav

Pre-gap length 0:00:01.00

Peak level 96.5 %
Extraction speed 2.1 X
Track quality 99.9 %
Test CRC 32151DEF
Copy CRC 32151DEF
Track not present in AccurateRip database
Copy OK

Track 16

Filename C:\Backups\16. Denny Doherty - My Song.wav

Pre-gap length 0:00:01.00

Peak level 100.0 %
Extraction speed 2.1 X
Track quality 99.9 %
Test CRC 9FA5AEBB
Copy CRC 9FA5AEBB
Track not present in AccurateRip database
Copy OK

Track 17

Filename C:\Backups\17. Denny Doherty - You'll Never Know.wav

Peak level 96.6 %
Extraction speed 2.6 X
Track quality 100.0 %
Test CRC DE6D3954
Copy CRC DE6D3954
Track not present in AccurateRip database
Copy OK

Track 18

Filename C:\Backups\18. John Phillips - Mississippi.wav

Pre-gap length 0:00:01.00

Peak level 96.5 %
Extraction speed 2.7 X
Track quality 100.0 %
Test CRC B03E8FD2
Copy CRC B03E8FD2
Track not present in AccurateRip database
Copy OK

Track 19

Filename C:\Backups\19. John Phillips - Revolution on Vacation.wav

Pre-gap length 0:00:01.00

Peak level 96.6 %
Extraction speed 2.7 X
Track quality 100.0 %
Test CRC C417450E
Copy CRC C417450E
Track not present in AccurateRip database
Copy OK

Track 20

Filename C:\Backups\20. John Phillips - Aloha Louie.wav

Pre-gap length 0:00:01.00

Peak level 96.6 %
Extraction speed 2.7 X
Track quality 100.0 %
Test CRC 9BDF3A51
Copy CRC 9BDF3A51
Track not present in AccurateRip database
Copy OK

Track 21

Filename C:\Backups\21. Michelle Phillips - No Love Today.wav

Pre-gap length 0:00:01.00

Peak level 93.8 %
Extraction speed 2.4 X
Track quality 99.9 %
Test CRC 25C8E6D6
Copy CRC 25C8E6D6
Track not present in AccurateRip database
Copy OK

Track 22

Filename C:\Backups\22. Michelle Phillips - Aching Kind.wav

Peak level 96.6 %
Extraction speed 2.9 X
Track quality 100.0 %
Test CRC 004D5E3B
Copy CRC 004D5E3B
Track not present in AccurateRip database
Copy OK

Track 23

Filename C:\Backups\23. Michelle Phillips - Guerita.wav

Pre-gap length 0:00:01.00

Peak level 96.6 %
Extraction speed 3.1 X
Track quality 100.0 %
Test CRC 2643B5EF
Copy CRC 2643B5EF
Track not present in AccurateRip database
Copy OK

Track 24

Filename C:\Backups\24. Michelle Phillips - Practice What You Preach.wav

Pre-gap length 0:00:01.00

Peak level 96.6 %
Extraction speed 3.0 X
Track quality 100.0 %
Test CRC 9926206F
Copy CRC 9926206F
Track not present in AccurateRip database
Copy OK

Track 25

Filename C:\Backups\25. Michelle Phillips - Had a Lot of Love Last Night.wav

Pre-gap length 0:00:01.00

Peak level 81.7 %
Extraction speed 3.2 X
Track quality 100.0 %
Test CRC C6DE47B5
Copy CRC C6DE47B5
Track not present in AccurateRip database
Copy OK

Track 26

Filename C:\Backups\26. Michelle Phillips - Forever.wav

Peak level 96.6 %
Extraction speed 3.1 X
Track quality 100.0 %
Test CRC 9B58249C
Copy CRC 9B58249C
Track not present in AccurateRip database
Copy OK


None of the tracks are present in the AccurateRip database

No errors occurred

End of status report

==== Log checksum 592F69B9A27A9C63C292F7BAFE8A7DCF9F3B40EB7D769F6A01C90CF40B3E04E2 ====

===================================