Tags
Language
Tags

The Stylistics - Sun & Soul (1977) [2018, Reissue]

Posted By: BlondStyle
The Stylistics - Sun & Soul (1977) [2018, Reissue]

The Stylistics - Sun & Soul (1977) [2018, Reissue]
R&B, Soul/Funk, Philly Soul | EAC Rip | FLAC, Tracks+CUE+LOG+Scans (PNG) | 34:47 | 303,25 Mb
Label: H & L Records/Unidisc (Canada) | Cat.# HLK-69019 | Released: 2018 (1977)

"Sun & Soul" is the 10th studio album by American R&B/soul group The Stylistics, released in 1977. During the early 1970s, the group frequently collaborated with notable R&B/soul producer Thom Bell (The Delfonics, The Spinners, Deniece Williams) on their way to earning twelve consecutive R&B top ten hits, 5 Gold singles, and 3 Gold albums.
~Unidisc Music

The Stylistics - Sun & Soul (1977) [2018, Reissue]

The Stylistics - Sun & Soul (1977) [2018, Reissue]


Release of the album: 1977 [LP H & L Records, Cat.# HL-69019-698, USA]
Release of this CD: 2018 [CD H & L Records/Unidisc (Canada), Cat.# HLK-69019 / UPC: 057362690196]
℗ 1977 Unidisc Music Inc.
Made in Canada

Credits:

Arranged By, Conductor – Horace Ott
Art Direction [Album] – Michael Mendel
Engineer – Bob Clearmountain, Michael Delugg
Lead Vocals – Russell Thompkins, Jr.
Mastered By – Gilbert Kong
Performer – Airrion Love, Herb Murrell, James Dunn, James Smith
Photography By – Mario Algaze
Producer – Hugo & Luigi


Tracklist:

01. Shame And Scandal In The Family (03:15)
02. I'm Coming Home (03:27)
03. So What (03:15)
04. Put A Little Love Away (04:00)
05. Our Love Will Never Die (03:29)
06. I Plead Guilty (03:10)
07. $7000 And You (03:19)
08. My Love, Come Live With Me (03:26)
09. I Run To You (03:36)
10. I'm Sorry (03:52)

Exact Audio Copy V1.5 from 20. February 2020

EAC extraction logfile from 30. December 2020, 20:46

The Stylistics / Sun & Soul

Used drive : ASUS SDRW-08D2S-U Adapter: 1 ID: 1

Read mode : Secure
Utilize accurate stream : Yes
Defeat audio cache : Yes
Make use of C2 pointers : No

Read offset correction : 6
Overread into Lead-In and Lead-Out : No
Fill up missing offset samples with silence : Yes
Delete leading and trailing silent blocks : No
Null samples used in CRC calculations : Yes
Used interface : Native Win32 interface for Win NT & 2000
Gap handling : Appended to previous track

Used output format : User Defined Encoder
Selected bitrate : 1024 kBit/s
Quality : High
Add ID3 tag : Yes
Command line compressor : C:\Program Files (x86)\Exact Audio Copy\FLAC\FLAC.EXE
Additional command line options : -8 -V -T "ARTIST=%artist%" -T "TITLE=%title%" -T "ALBUM=%albumtitle%" -T "DATE=%year%" -T "TRACKNUMBER=%tracknr%" -T "GENRE=%genre%" -T "COMMENT=%comment%" -T "BAND=%albuminterpret%" -T "ALBUMARTIST=%albuminterpret%" -T "COMPOSER=%composer%" %haslyrics%–tag-from-file=LYRICS="%lyricsfile%"%haslyrics% -T "DISCNUMBER=%cdnumber%" -T "TOTALDISCS=%totalcds%" -T "TOTALTRACKS=%numtracks%" %hascover%–picture="%coverfile%"%hascover% %source% -o %dest%


TOC of the extracted CD

Track | Start | Length | Start sector | End sector
––––––––––––––––––––––––––––-
1 | 0:00.00 | 3:15.06 | 0 | 14630
2 | 3:15.06 | 3:26.66 | 14631 | 30146
3 | 6:41.72 | 3:14.68 | 30147 | 44764
4 | 9:56.65 | 3:59.51 | 44765 | 62740
5 | 13:56.41 | 3:28.45 | 62741 | 78385
6 | 17:25.11 | 3:10.16 | 78386 | 92651
7 | 20:35.27 | 3:19.26 | 92652 | 107602
8 | 23:54.53 | 3:25.53 | 107603 | 123030
9 | 27:20.31 | 3:35.53 | 123031 | 139208
10 | 30:56.09 | 3:51.59 | 139209 | 156592


Track 1

Filename F:\EAC\01.Shame And Scandal In The Family – The Stylistics.wav

Pre-gap length 0:00:02.00

Peak level 93.6 %
Extraction speed 2.8 X
Track quality 100.0 %
Test CRC 8A6F2192
Copy CRC 8A6F2192
Track not present in AccurateRip database
Copy OK

Track 2

Filename F:\EAC\02.I'm Coming Home – The Stylistics.wav

Peak level 94.2 %
Extraction speed 3.0 X
Track quality 100.0 %
Test CRC 698741EE
Copy CRC 698741EE
Track not present in AccurateRip database
Copy OK

Track 3

Filename F:\EAC\03.So What – The Stylistics.wav

Peak level 94.6 %
Extraction speed 3.2 X
Track quality 100.0 %
Test CRC 9F315163
Copy CRC 9F315163
Track not present in AccurateRip database
Copy OK

Track 4

Filename F:\EAC\04.Put A Little Love Away – The Stylistics.wav

Peak level 95.2 %
Extraction speed 3.0 X
Track quality 99.9 %
Test CRC 667BA2C5
Copy CRC 667BA2C5
Track not present in AccurateRip database
Copy OK

Track 5

Filename F:\EAC\05.Our Love Will Never Die – The Stylistics.wav

Peak level 95.7 %
Extraction speed 3.7 X
Track quality 100.0 %
Test CRC 46694948
Copy CRC 46694948
Track not present in AccurateRip database
Copy OK

Track 6

Filename F:\EAC\06.I Plead Guilty – The Stylistics.wav

Peak level 93.6 %
Extraction speed 3.1 X
Track quality 99.9 %
Test CRC 8E8FCAB9
Copy CRC 8E8FCAB9
Track not present in AccurateRip database
Copy OK

Track 7

Filename F:\EAC\07.$7000 And You – The Stylistics.wav

Peak level 94.3 %
Extraction speed 4.0 X
Track quality 100.0 %
Test CRC 47674B1D
Copy CRC 47674B1D
Track not present in AccurateRip database
Copy OK

Track 8

Filename F:\EAC\08.My Love, Come Live With Me – The Stylistics.wav

Peak level 93.8 %
Extraction speed 4.1 X
Track quality 100.0 %
Test CRC 105FCCA2
Copy CRC 105FCCA2
Track not present in AccurateRip database
Copy OK

Track 9

Filename F:\EAC\09.I Run To You – The Stylistics.wav

Peak level 96.8 %
Extraction speed 4.3 X
Track quality 100.0 %
Test CRC AABEFF3D
Copy CRC AABEFF3D
Track not present in AccurateRip database
Copy OK

Track 10

Filename F:\EAC\10.I'm Sorry – The Stylistics.wav

Peak level 94.8 %
Extraction speed 4.4 X
Track quality 100.0 %
Test CRC 18C47CD2
Copy CRC 18C47CD2
Track not present in AccurateRip database
Copy OK


None of the tracks are present in the AccurateRip database

No errors occurred

End of status report

–– CUETools DB Plugin V2.1.6

[CTDB TOCID: 3dz78I422Yw1yz.Lpv_eyodfokM-] disk not present in database
Submit result: 3dz78I422Yw1yz.Lpv_eyodfokM- has been uploaded


==== Log checksum EAE88391C3F4B6324EA8AB1971021850D52D6F68DB6CE5978ADD9244C3F90EA3 ====

––––––––––––––––––––––––––––––––––––––––
Analyzed: The Stylistics / Sun & Soul
––––––––––––––––––––––––––––––––––––––––

DR Peak RMS Duration Track
––––––––––––––––––––––––––––––––––––––––
DR6 -0.57 dB -7.41 dB 3:15 01-Shame And Scandal In The Family
DR8 -0.52 dB -11.01 dB 3:27 02-I'm Coming Home
DR7 -0.47 dB -8.52 dB 3:15 03-So What
DR7 -0.42 dB -9.13 dB 4:00 04-Put A Little Love Away
DR6 -0.38 dB -7.98 dB 3:29 05-Our Love Will Never Die
DR6 -0.57 dB -9.00 dB 3:10 06-I Plead Guilty
DR6 -0.51 dB -8.01 dB 3:19 07-$7, 000 and You
DR9 -0.55 dB -10.86 dB 3:26 08-My Love, Come Live With Me
DR8 -0.27 dB -9.69 dB 3:36 09-I Run To You
DR8 -0.46 dB -9.66 dB 3:52 10-I'm Sorry
––––––––––––––––––––––––––––––––––––––––

Number of tracks: 10
Official DR value: DR7

Samplerate: 44100 Hz
Channels: 2
Bits per sample: 16
Bitrate: 921 kbps
Codec: FLAC
================================================================================

Thanks to original releaser

See also:
The Stylistics - Heavy (1974) [2017, Remastered with Bonus Tracks]

♫~Welcome To My Blog~♫

password: BlondStyle