Tags
Language
Tags

Thierry Lang - Lyoba Revisited (2010) {ACT}

Posted By: tiburon
Thierry Lang - Lyoba Revisited (2010) {ACT}

Thierry Lang - Lyoba Revisited (2010) {ACT}
EAC 0.99pb5 | FLAC tracks level 8 | Cue+Log+M3U | Full Scans 600dpi | 315MB + 5% Recovery
Genre: Jazz

Swiss pianist Thierry Lang combines jazz, folk and classical influences on this, his recording debut for ACT. This is defiantly Swiss music but as the album’s liner notes explain label boss Siegfried Loch envisages this often beautiful music reaching out to a wider constituency. The word “Lyoba” is a dialect word for “cow herder’s chant” and comes from the Fribourg region in the West of Switzerland, the area from which Lang hails. The pianist had released two previous “Lyoba” albums locally before being discovered by Loch but the ACT deal has given him the opportunity to present his ideas to an international audience.
Track List
01. Le Ranz des Vaches 7:30
02. L'Immortelle de Jean 10:12
03. Le Vieux Chalet 6:26
04. Rever 6:02
05. Chante en mon coeur pays aime 5:45
06. Adyu mon bi payi 7:35
07. A Star To My Father 4:46
08. NAN 4:56
09. Nouthra Dona di Maortse 7:27
10. La Montagne 5:44
11. A Moleson 2:16

musicians
Thierry Lang - piano
Matthieu Michel - flugelhorn
Heiri Kangiz - double bass
Daniel Pezzoti - cello
Andi Plattner - cello
Daniel Schaerer - cello
Ambrosius Huber - cello

Produced by Thierry Lang


Exact Audio Copy V0.99 prebeta 5 from 4. May 2009

EAC extraction logfile from 28. February 2010, 10:07

Thierry Lang / Lyoba Revisited

Used drive : PHILIPS SPD3400CC Adapter: 1 ID: 0

Read mode : Secure
Utilize accurate stream : Yes
Defeat audio cache : Yes
Make use of C2 pointers : No

Read offset correction : 6
Overread into Lead-In and Lead-Out : No
Fill up missing offset samples with silence : Yes
Delete leading and trailing silent blocks : No
Null samples used in CRC calculations : Yes
Used interface : Installed external ASPI interface
Gap handling : Appended to previous track

Used output format : User Defined Encoder
Selected bitrate : 768 kBit/s
Quality : High
Add ID3 tag : No
Command line compressor : C:\Program Files (x86)\Exact Audio Copy\Flac\flac.exe
Additional command line options : -8 -V -T "ARTIST=%a" -T "TITLE=%t" -T "ALBUM=%g" -T "DATE=%y" -T "TRACKNUMBER=%n" -T "TOTALTRACKS=%x" -T "GENRE=%m" -T "ALBUM ARTIST=%v" -T "ALBUMARTIST=%v" -T "COMMENT=EAC V0.99 prebeta 5, Secure Mode, Test & Copy, Accurat


TOC of the extracted CD

Track | Start | Length | Start sector | End sector
––––––––––––––––––––––––––––-
1 | 0:00.00 | 7:34.63 | 0 | 34112
2 | 7:34.63 | 10:15.21 | 34113 | 80258
3 | 17:50.09 | 6:29.07 | 80259 | 109440
4 | 24:19.16 | 6:05.67 | 109441 | 136882
5 | 30:25.08 | 5:48.61 | 136883 | 163043
6 | 36:13.69 | 7:38.56 | 163044 | 197449
7 | 43:52.50 | 4:49.66 | 197450 | 219190
8 | 48:42.41 | 4:58.35 | 219191 | 241575
9 | 53:41.01 | 7:29.35 | 241576 | 275285
10 | 61:10.36 | 5:48.38 | 275286 | 301423
11 | 66:58.74 | 2:16.24 | 301424 | 311647


Track 1

Filename C:\Rips\Thierry Lang - Lyoba Revisited\01 - Le ranz des vaches.wav

Pre-gap length 0:00:02.00

Peak level 92.8 %
Track quality 100.0 %
Test CRC B164AF69
Copy CRC B164AF69
Track not present in AccurateRip database
Copy OK

Track 2

Filename C:\Rips\Thierry Lang - Lyoba Revisited\02 - L'Immortelle de Jean.wav

Pre-gap length 0:00:03.90

Peak level 96.4 %
Track quality 99.9 %
Test CRC 50BBAE86
Copy CRC 50BBAE86
Track not present in AccurateRip database
Copy OK

Track 3

Filename C:\Rips\Thierry Lang - Lyoba Revisited\03 - Le vieux chalet.wav

Pre-gap length 0:00:02.85

Peak level 96.3 %
Track quality 100.0 %
Test CRC E771E0D3
Copy CRC E771E0D3
Track not present in AccurateRip database
Copy OK

Track 4

Filename C:\Rips\Thierry Lang - Lyoba Revisited\04 - Rever.wav

Pre-gap length 0:00:02.49

Peak level 96.5 %
Track quality 99.8 %
Test CRC 569D3C58
Copy CRC 569D3C58
Track not present in AccurateRip database
Copy OK

Track 5

Filename C:\Rips\Thierry Lang - Lyoba Revisited\05 - Chante en mon coeur pays aime.wav

Pre-gap length 0:00:03.16

Peak level 96.7 %
Track quality 100.0 %
Test CRC DF507F5A
Copy CRC DF507F5A
Track not present in AccurateRip database
Copy OK

Track 6

Filename C:\Rips\Thierry Lang - Lyoba Revisited\06 - Adyu mon bi payi.wav

Pre-gap length 0:00:03.17

Peak level 97.3 %
Track quality 100.0 %
Test CRC 1960A37F
Copy CRC 1960A37F
Track not present in AccurateRip database
Copy OK

Track 7

Filename C:\Rips\Thierry Lang - Lyoba Revisited\07 - A star to my father.wav

Pre-gap length 0:00:03.76

Peak level 96.1 %
Track quality 99.9 %
Test CRC D2097580
Copy CRC D2097580
Track not present in AccurateRip database
Copy OK

Track 8

Filename C:\Rips\Thierry Lang - Lyoba Revisited\08 - NAN.wav

Pre-gap length 0:00:03.56

Peak level 96.8 %
Track quality 100.0 %
Test CRC 75D0693C
Copy CRC 75D0693C
Track not present in AccurateRip database
Copy OK

Track 9

Filename C:\Rips\Thierry Lang - Lyoba Revisited\09 - Nouthra dona di Maortse.wav

Pre-gap length 0:00:01.68

Peak level 96.3 %
Track quality 100.0 %
Test CRC 5549993C
Copy CRC 5549993C
Track not present in AccurateRip database
Copy OK

Track 10

Filename C:\Rips\Thierry Lang - Lyoba Revisited\10 - La Montagne.wav

Pre-gap length 0:00:02.02

Peak level 95.9 %
Track quality 100.0 %
Test CRC 929C43BD
Copy CRC 929C43BD
Track not present in AccurateRip database
Copy OK

Track 11

Filename C:\Rips\Thierry Lang - Lyoba Revisited\11 - A Moleson.wav

Pre-gap length 0:00:04.49

Peak level 96.3 %
Track quality 100.0 %
Test CRC A16EEBD3
Copy CRC A16EEBD3
Track not present in AccurateRip database
Copy OK


None of the tracks are present in the AccurateRip database

No errors occurred

End of status report


––––––––––––––––––––––––––––––––––––––––
Analyzed: Thierry Lang / Lyoba Revisited
––––––––––––––––––––––––––––––––––––––––

DR Peak RMS Duration Track
––––––––––––––––––––––––––––––––––––––––
DR10 -0.65 dB -15.12 dB 7:35 01-Le ranz des vaches
DR11 -0.31 dB -14.88 dB 10:15 02-L'Immortelle de Jean
DR10 -0.32 dB -13.19 dB 6:29 03-Le vieux chalet
DR10 -0.31 dB -12.85 dB 6:06 04-Rever
DR10 -0.29 dB -13.56 dB 5:49 05-Chante en mon coeur pays aime
DR12 -0.24 dB -14.96 dB 7:39 06-Adyu mon bi payi
DR11 -0.34 dB -14.82 dB 4:50 07-A star to my father
DR9 -0.28 dB -11.83 dB 4:58 08-NAN
DR11 -0.33 dB -14.74 dB 7:29 09-Nouthra dona di Maortse
DR12 -0.36 dB -16.36 dB 5:49 10-La Montagne
DR9 -0.32 dB -11.57 dB 2:16 11-A Moleson
––––––––––––––––––––––––––––––––––––––––

Number of tracks: 11
Official DR value: DR11

Samplerate: 44100 Hz
Channels: 2
Bits per sample: 16
Bitrate: 699 kbps
Codec: FLAC
================================================================================

Thierry Lang - Lyoba Revisited (2010) {ACT}
Thierry Lang - Lyoba Revisited (2010) {ACT}
Thierry Lang - Lyoba Revisited (2010) {ACT}


Rip by tdelyon