Tags
Language
Tags
June 2024
Su Mo Tu We Th Fr Sa
26 27 28 29 30 31 1
2 3 4 5 6 7 8
9 10 11 12 13 14 15
16 17 18 19 20 21 22
23 24 25 26 27 28 29
30 1 2 3 4 5 6

Thin Lizzy: Collection. Part 2 (1979-1983) [4LP, Vinyl Rip 16/44 & mp3-320 + DVD] Re-up

Posted By: v3122
Thin Lizzy: Collection. Part 2 (1979-1983) [4LP, Vinyl Rip 16/44 & mp3-320 + DVD] Re-up

Thin Lizzy: Collection. Part 2 (1979-1983)
Vinyl Rip 16/44 | Flac(Image + Cue) > 1221 Mb
MP3 CBR 320Kbps > 530 Mb | Artwork(jpg) > 9.12 Mb
DVD-9: NTSC 4:3 (720x480) VBR | LPCM, 2 ch, 24 bit, 96 kHz > 6.62 Gb
Label: Various | Hard Rock

Despite a huge hit single in the mid-'70s ("The Boys Are Back in Town") and becoming a popular act with hard rock/heavy metal fans, Thin Lizzy are still, in the pantheon of '70s rock bands, underappreciated. Formed in the late '60s by Irish singer/songwriter/bassist Phil Lynott, Lizzy, though not the first band to do so, combined romanticized working-class sentiments with their ferocious, twin-lead guitar attack. As the band's creative force, Lynott was a more insightful and intelligent writer than many of his ilk, preferring slice-of-life working-class dramas of love and hate influenced by Bob Dylan, Bruce Springsteen, and virtually all of the Irish literary tradition. Also, as a black man, Lynott was an anomaly in the nearly all-white world of hard rock, and as such imbued much of his work with a sense of alienation; he was the outsider, the romantic guy from the other side of the tracks, a self-styled poet of the lovelorn and downtrodden. His sweeping vision and writerly impulses at times gave way to pretentious songs aspiring to clichéd notions of literary significance, but Lynott's limitless charisma made even the most misguided moments worth hearing.

After a few early records that hinted at the band's potential, Lizzy released Fighting in 1975, and the band (Lynott, guitarists Brian Robertson and Scott Gorham, and drummer Brian Downey) had molded itself into a pretty tight recording and performing unit. Lynott's thick, soulful vocals were the perfect vehicle for his tightly written melodic lines. Gorham and Robertson generally played lead lines in harmonic tandem, while Downey (a great drummer who had equal amounts of power and style) drove the engine. Lizzy's big break came with their next album, Jailbreak, and the record's first single, "The Boys Are Back in Town." A paean to the joys of working-class guys letting loose, the song resembled similar odes by Bruce Springsteen, with the exception of the Who-like power chords in the chorus. With the support of radio and every frat boy in America, "Boys" became a huge hit, enough of a hit as to ensure record contracts and media attention for the next decade ("Boys" is now used in beer advertising).
Never the toast of critics (the majority writing in the '70s hated hard rock and heavy metal), Lizzy toured relentlessly, building an unassailable reputation as a terrific live band, despite the lead guitar spot becoming a revolving door (Eric Bell, Gary Moore, Brian Robertson, Snowy White, and John Sykes all stood next to Scott Gorham). The records came fast and furious, and despite attempts to repeat the formula that worked like a charm with "Boys," Lynott began writing more ambitious songs and wrapping them up in vaguely articulated concept albums. The large fan base the band had built as a result of "Boys" turned into a smaller, yet still enthusiastic bunch of hard rockers. Adding insult to injury was the rise of punk rock, which Lynott vigorously supported, but made Lizzy look too traditional and too much like tired old rock stars.

By the mid-'80s, resembling the dinosaur that punk rock wanted to annihilate, Thin Lizzy called it a career. Lynott recorded solo records that more explicitly examined issues of class and race, published a now-out-of-print book of poetry, and sadly, became a victim of his longtime abuse of heroin, cocaine, and alcohol, dying in 1986 at age 35. Since the mega-popular alternative rock bands of the mid-'90s appropriated numerous musical messages from their '70s forebears, the work of Phil Lynott and Thin Lizzy will hopefully continue to be seen for the influential rock & roll it is.

In 1999, Thin Lizzy reunited with a lineup featuring guitarists Scott Gorman and John Sykes, and keyboardist Darren Wharton, which was rounded out by a journeyman rhythm section of bassist Marco Mendoza and drummer Tommy Aldridge. The quintet's ensuing European tour produced the live album One Night Only, which was released in the summer of 2000 to set the stage for a subsequent American concert tour.

by John Dougan, allmusic
Thin Lizzy: Collection. Part 2 (1979-1983):

Thin Lizzy: Collection. Part 2 (1979-1983) [4LP, Vinyl Rip 16/44 & mp3-320 + DVD] Re-up

Tracklist LP01 - Black Rose (A Rock Legend) 1979:
Warner Bros. Records – BSK 3338, US

A1 - Do Anything You Want To 3:53
A2 - Toughest Street In Town 4:01
A3 - S & M 4:02
A4 - Waiting For An Alibi 4:12
A5 - My Sarah 3:27

B1 - Got To Give It Up 4:23
B2 - Get Out Of Here 3:39
B3 - With Love 4:39
B4 - Roisin Dubh (Black Rose) A Rock Legend 7:03

foobar2000 1.4 / Dynamic Range Meter 1.1.1
log date: 2018-11-19 22:08:40

––––––––––––––––––––––––––––––––––––––––
Analyzed: Thin Lizzy / Black Rose (A Rock Legend)
––––––––––––––––––––––––––––––––––––––––

DR Peak RMS Duration Track
––––––––––––––––––––––––––––––––––––––––
DR10 -0.56 dB -12.69 dB 3:53 01-Do Anything You Want To
DR11 -1.63 dB -14.15 dB 4:01 02-Toughest Street In Town
DR12 -0.94 dB -13.94 dB 4:05 03-S & M
DR11 -1.36 dB -13.58 dB 3:32 04-Waiting For An Alibi
DR12 -1.40 dB -15.29 dB 3:33 05-My Sarah
DR11 -0.27 dB -14.06 dB 4:26 06-Got To Give It Up
DR11 -0.33 dB -12.29 dB 3:35 07-Get Out Of Here
DR10 -0.47 dB -11.91 dB 4:41 08-With Love
DR11 -0.31 dB -13.20 dB 7:09 09-Roisin Dubh (Black Rose) A Rock Legend
––––––––––––––––––––––––––––––––––––––––

Number of tracks: 9
Official DR value: DR11

Samplerate: 44100 Hz
Channels: 2
Bits per sample: 16
Bitrate: 906 kbps
Codec: FLAC
================================================================================



Thin Lizzy: Collection. Part 2 (1979-1983) [4LP, Vinyl Rip 16/44 & mp3-320 + DVD] Re-up

Tracklist LP02 - The Continuing Saga Of The Ageing Orphans 1979:
London Records – LAX 160, Japan

A1 - Things Ain't Working Out Down At The Farm 3:47
A2 - Buffalo Gal 5:00
A3 - Sarah 2:40
A4 - Here I Go Again 3:55
A5 - Honesty Is No Excuse 2:36
A6 - Look What The Wind Blew In 3:13
A7 - Mama Nature Said 4:34

B1 - The Hero And The Madman 5:38
B2 - Slow Blues 4:40
B3 - Dublin 2:22
B4 - Brought Down 2:59
B5 - Broken Dreams 4:28
B6 - Vagabond Of The Western World 4:07

foobar2000 1.4 / Dynamic Range Meter 1.1.1
log date: 2018-11-19 22:09:00

––––––––––––––––––––––––––––––––––––––––
Analyzed: Thin Lizzy / The Continuing Saga Of The Ageing Orphans
––––––––––––––––––––––––––––––––––––––––

DR Peak RMS Duration Track
––––––––––––––––––––––––––––––––––––––––
DR11 -1.62 dB -15.06 dB 4:00 01-Things Ain't Working Out Down At The Farm
DR12 -1.41 dB -15.42 dB 5:15 02-Buffalo Gal
DR12 -4.49 dB -19.53 dB 2:48 03-Sarah
DR12 -1.29 dB -15.72 dB 3:55 04-Here I Go Again
DR11 -1.50 dB -15.94 dB 2:47 05-Honesty Is No Excuse
DR12 -2.70 dB -16.18 dB 3:23 06-Look What The Wind Blew In
DR12 -2.58 dB -17.48 dB 4:48 07-Mama Nature Said
DR12 -1.85 dB -15.95 dB 5:57 08-The Hero And The Madman
DR11 -2.10 dB -15.64 dB 4:44 09-Slow Blues
DR10 -3.02 dB -15.46 dB 2:30 10-Dublin
DR10 -2.61 dB -15.54 dB 3:07 11-Brought Down
DR11 -1.52 dB -15.18 dB 4:28 12-Broken Dreams
DR11 -3.05 dB -17.06 dB 4:22 13-Vagabond Of The Western World
––––––––––––––––––––––––––––––––––––––––

Number of tracks: 13
Official DR value: DR11

Samplerate: 44100 Hz
Channels: 2
Bits per sample: 16
Bitrate: 819 kbps
Codec: FLAC
================================================================================



Thin Lizzy: Collection. Part 2 (1979-1983) [4LP, Vinyl Rip 16/44 & mp3-320 + DVD] Re-up

Tracklist LP03-04 - Life - Live 1983:
Vertigo – VERD 6, Vertigo – 812 882-1, UK

A-1 - Thunder & Lightning 5:11
A-2 - Waiting For An Alibi 3:16
A-3 - Jailbreak 4:08
A-4 - Baby Please Don't Go 5:02
A-5 - Holy War 4:52

B-1 - Renegade 6:14
Lead Guitar, Guitar [Harmony] – Snowy White
B-2 - Hollywood (Down On Your Luck) 4:10
B-3 - Got To Give It Up 7:04
B-4 - Angel Of Death 5:56
B-5 - Are You Ready 3:00

C-1 - The Boys Are Back In Town 4:53
C-2 - Cold Sweat 3:07
C-3 - Don't Believe A Word 5:11
C-4 - Killer On The Loose 4:59
C-5 - The Sun Goes Down 6:44

D-1 - Emerald 3:56
D-2 - Black Rose 6:40
D-3 - Still In Love With You 8:57
D-4 - The Rocker 4:46

foobar2000 1.4 / Dynamic Range Meter 1.1.1
log date: 2018-11-19 22:09:23

––––––––––––––––––––––––––––––––––––––––
Analyzed: Thin Lizzy / Life - Live
––––––––––––––––––––––––––––––––––––––––

DR Peak RMS Duration Track
––––––––––––––––––––––––––––––––––––––––
DR11 -0.58 dB -13.38 dB 5:10 01-Thunder & Lightning
DR12 -2.11 dB -15.18 dB 3:20 02-Waiting For An Alibi
DR12 -0.97 dB -14.15 dB 4:04 03-Jailbreak
DR11 -0.34 dB -13.30 dB 5:05 04-Baby Please Don't Go
DR11 -0.02 dB -13.12 dB 4:57 05-Holy War
DR11 -0.71 dB -14.01 dB 6:18 06-Renegade
DR12 0.00 dB -14.12 dB 4:11 07-Hollywood (Down On Your Luck)
DR12 -2.42 dB -17.84 dB 6:55 08-Got To Give It Up
DR12 -0.84 dB -16.08 dB 6:06 09-Angel Of Death
DR11 -1.98 dB -14.93 dB 2:52 10-Are You Ready
DR11 -1.25 dB -13.64 dB 4:51 11-The Boys Are Back In Town
DR11 -0.82 dB -14.39 dB 3:07 12-Cold Sweat
DR11 -0.09 dB -15.66 dB 5:15 13-Don't Believe A Word
DR10 -0.39 dB -12.88 dB 5:00 14-Killer On The Loose
DR13 -3.68 dB -18.57 dB 6:25 15-The Sun Goes Down
DR10 -2.56 dB -15.90 dB 3:56 16-Emerald
DR10 -1.23 dB -14.34 dB 6:39 17-Black Rose
DR13 -3.04 dB -19.29 dB 9:03 18-Still In Love With You
DR11 -0.66 dB -13.79 dB 4:55 19-The Rocker
––––––––––––––––––––––––––––––––––––––––

Number of tracks: 19
Official DR value: DR11

Samplerate: 44100 Hz
Channels: 2
Bits per sample: 16
Bitrate: 894 kbps
Codec: FLAC
================================================================================



Title: AudioDVD
Size: 6.27 Gb ( 6 574 292,00 KBytes ) - DVD-9
Enabled regions: 1, 2, 3, 4, 5, 6, 7, 8

VTS_01 :
Play Length: 00:38:51+00:51:59+01:38:04
Video: NTSC 4:3 (720x480) VBR
Audio:
Not specified (LinearPCM, 2 ch)



Original ripper: 1atamay
Original format: 32/192
Vinyl Condition: NM
Cleaning:
Direct Drive Turntable: Pioneer PL30L
Cartridge: ADC MC
Amplifier: yamaha С4
ADC: Xonar STX

Downsampled to 24/96 & 16/44

Thin Lizzy: Collection. Part 2 (1979-1983) [4LP, Vinyl Rip 16/44 & mp3-320 + DVD] Re-up

Thin Lizzy: Collection. Part 2 (1979-1983) [4LP, Vinyl Rip 16/44 & mp3-320 + DVD] Re-up

Thin Lizzy in my Blog

Download Thin Lizzy: Collection. Part 1 (1972-1976):