Subcategories

Tim Deluxe - The Little Ginger Club Kid (2003) [Japanese Edition 2010]

Posted By: gribovar
Tim Deluxe - The Little Ginger Club Kid (2003) [Japanese Edition 2010]

Tim Deluxe - The Little Ginger Club Kid (2003) [Japanese Edition 2010]
EAC Rip | FLAC (tracks+.cue+log) - 531 MB | MP3 CBR 320 kbps (LAME 3.93) - 178 MB | Covers - 293 MB
Genre: Progressive House | RAR 3% Rec. | Label: Beat Records (BRC-281)

Well preceded by a pair of killer singles ("It Just Won't Do" and "Less Talk More Action!"), The Little Ginger Club Kid aims to be an audacious debut full-length for Tim Deluxe. And indeed this colorful release by Darren Emerson's generally on-point Underwater Records label largely hits the mark, bundling those killer singles with nine similarly fun-spirited tracks that should delight anyone who'd already taken note of this talented Brit and his exuberant style of vocal-driven house music. If you're not one of those people who'd already taken note of Deluxe when "It Just Won't Do" and "Less Talk More Action!" were burning up dancefloors from London to Ibiza during 2002-2003, it's helpful to think of Basement Jaxx, who not only share a similar style of music-making but also embarked on a similar career path - brewing interest with a few club anthems before leaping out of the gate with an endlessly pleasing debut album of flavorful house tracks, each with a unique edge to it, many of them vocally highlighted. Granted, Deluxe is no Basement Jaxx (few are), and The Little Ginger Club Kid is no Remedy (again, few are), but still, the music here transcends the traditional boundaries of house. It does so not by being particularly experimental or forward-thinking; in fact, these tracks are quite the opposite - they're simple and fetching all at once, without ever once rolling the dice or pushing the envelope. Deluxe has a very keen sense of style, for sure, and melds that sense into every track here, giving each its own character and its own appeal. Above all, he leans heavily toward Latin inflections (but not outright Latin motifs per se) and also his charismatic stable of vocalists (Sam Obernik, Terra Deva, Ben Onono, all of whom make multiple appearances here), and he never drifts too far from good old-fashioned pop-song structure, making these tracks undoubtedly dancefloor-ready yet sufficiently palatable to even the most casual dance-music listeners. Audacious debut albums this on-the-mark don't come around too often, much to Deluxe's deserved credit.
Tracklist:
01. Intro
02. Heavy Weather
03. Less Talk More Action!
04. What A Life (Amsterdam)
05. 2 Kool 4 Skool
06. It Just Won't Do
07. Story Of You And Me
08. Battle
09. Mundaya (The Boy)
10. Little White Ship
11. A Trip To The Record Store
12. We All Love Sax
13. Choose Something Like A Star
14. Just Won't Do (Vocal Edit) (Bonus track)
15. Just Won't Do (diskJokke Handy Dandy Remix) (Bonus track)

Total time: 01:15:40

Exact Audio Copy V1.0 beta 3 from 29. August 2011

EAC extraction logfile from 29. March 2015, 13:21

Tim Deluxe / The Little Ginger Club Kid

Used drive : PLDS DVD+-RW DU-8A4SH Adapter: 0 ID: 1

Read mode : Secure
Utilize accurate stream : Yes
Defeat audio cache : Yes
Make use of C2 pointers : No

Read offset correction : 6
Overread into Lead-In and Lead-Out : No
Fill up missing offset samples with silence : Yes
Delete leading and trailing silent blocks : No
Null samples used in CRC calculations : Yes
Used interface : Native Win32 interface for Win NT & 2000
Gap handling : Appended to previous track

Used output format : User Defined Encoder
Selected bitrate : 1024 kBit/s
Quality : High
Add ID3 tag : No
Command line compressor : C:\Program Files (x86)\FLAC\flac.exe
Additional command line options : -T "artist=%artist%" -T "title=%title%" -T "album=%albumtitle%" -T "date=%year%" -T "tracknumber=%tracknr%" -T "genre=%genre%" -5 %source%


TOC of the extracted CD

Track | Start | Length | Start sector | End sector
––––––––––––––––––––––––––––-
1 | 0:00.00 | 0:14.00 | 0 | 1049
2 | 0:14.00 | 5:01.62 | 1050 | 23686
3 | 5:15.62 | 3:30.73 | 23687 | 39509
4 | 8:46.60 | 4:38.35 | 39510 | 60394
5 | 13:25.20 | 5:48.02 | 60395 | 86496
6 | 19:13.22 | 5:11.73 | 86497 | 109894
7 | 24:25.20 | 4:18.55 | 109895 | 129299
8 | 28:44.00 | 7:06.10 | 129300 | 161259
9 | 35:50.10 | 5:36.57 | 161260 | 186516
10 | 41:26.67 | 4:04.08 | 186517 | 204824
11 | 45:31.00 | 0:34.05 | 204825 | 207379
12 | 46:05.05 | 4:51.72 | 207380 | 229276
13 | 50:57.02 | 9:00.25 | 229277 | 269801
14 | 59:57.27 | 6:57.41 | 269802 | 301117
15 | 66:54.68 | 8:45.56 | 301118 | 340548


Track 1

Filename C:\Rips\01 - Intro.wav

Pre-gap length 0:00:02.00

Peak level 43.8 %
Extraction speed 0.3 X
Track quality 100.0 %
Test CRC 4C5B0F7E
Copy CRC 4C5B0F7E
Track not present in AccurateRip database
Copy OK

Track 2

Filename C:\Rips\02 - Heavy Weather.wav

Peak level 98.0 %
Extraction speed 1.2 X
Track quality 100.0 %
Test CRC 3BF35EC3
Copy CRC 3BF35EC3
Track not present in AccurateRip database
Copy OK

Track 3

Filename C:\Rips\03 - Less Talk More Action!.wav

Peak level 100.0 %
Extraction speed 1.3 X
Track quality 100.0 %
Test CRC 25E52562
Copy CRC 25E52562
Track not present in AccurateRip database
Copy OK

Track 4

Filename C:\Rips\04 - What A Life (Amsterdam).wav

Peak level 98.0 %
Extraction speed 1.5 X
Track quality 100.0 %
Test CRC 1A48DEAC
Copy CRC 1A48DEAC
Track not present in AccurateRip database
Copy OK

Track 5

Filename C:\Rips\05 - 2 Kool 4 Skool.wav

Peak level 98.0 %
Extraction speed 1.6 X
Track quality 100.0 %
Test CRC 7D81463B
Copy CRC 7D81463B
Track not present in AccurateRip database
Copy OK

Track 6

Filename C:\Rips\06 - It Just Won't Do.wav

Peak level 98.0 %
Extraction speed 1.8 X
Track quality 100.0 %
Test CRC 8D67632F
Copy CRC 8D67632F
Track not present in AccurateRip database
Copy OK

Track 7

Filename C:\Rips\07 - Story Of You And Me.wav

Peak level 98.0 %
Extraction speed 1.8 X
Track quality 100.0 %
Test CRC 0137A18E
Copy CRC 0137A18E
Track not present in AccurateRip database
Copy OK

Track 8

Filename C:\Rips\08 - Battle.wav

Peak level 98.0 %
Extraction speed 2.0 X
Track quality 100.0 %
Test CRC 17F9C922
Copy CRC 17F9C922
Track not present in AccurateRip database
Copy OK

Track 9

Filename C:\Rips\09 - Mundaya (The Boy).wav

Pre-gap length 0:00:01.66

Peak level 98.0 %
Extraction speed 2.1 X
Track quality 100.0 %
Test CRC FC693FF1
Copy CRC FC693FF1
Track not present in AccurateRip database
Copy OK

Track 10

Filename C:\Rips\10 - Little White Ship.wav

Peak level 98.0 %
Extraction speed 2.1 X
Track quality 100.0 %
Test CRC 16CBA05F
Copy CRC 16CBA05F
Track not present in AccurateRip database
Copy OK

Track 11

Filename C:\Rips\11 - Record Shop.wav

Peak level 71.4 %
Extraction speed 1.2 X
Track quality 100.0 %
Test CRC C6F791BF
Copy CRC C6F791BF
Track not present in AccurateRip database
Copy OK

Track 12

Filename C:\Rips\12 - We All Love Sax.wav

Peak level 98.0 %
Extraction speed 2.3 X
Track quality 100.0 %
Test CRC 06404972
Copy CRC 06404972
Track not present in AccurateRip database
Copy OK

Track 13

Filename C:\Rips\13 - Choose Something Like A Star.wav

Peak level 98.0 %
Extraction speed 2.5 X
Track quality 100.0 %
Test CRC 5843C842
Copy CRC 5843C842
Track not present in AccurateRip database
Copy OK

Track 14

Filename C:\Rips\14 - Just Won't Do (Vocal Edit).wav

Pre-gap length 0:00:01.33

Peak level 95.4 %
Extraction speed 2.6 X
Track quality 100.0 %
Test CRC 57F4558F
Copy CRC 57F4558F
Track not present in AccurateRip database
Copy OK

Track 15

Filename C:\Rips\15 - Just Won't Do (diskJokke Handy Dandy Remix).wav

Pre-gap length 0:00:00.06

Peak level 97.7 %
Extraction speed 2.8 X
Track quality 100.0 %
Test CRC 9FBCD4DE
Copy CRC 9FBCD4DE
Track not present in AccurateRip database
Copy OK


None of the tracks are present in the AccurateRip database

No errors occurred

End of status report

–– CUETools DB Plugin V2.1.3

[CTDB TOCID: xMwmCaOtaw5koo7MPdmIHmg7eWI-] disk not present in database, Submit result: xMwmCaOtaw5koo7MPdmIHmg7eWI- has been uploaded


==== Log checksum C12A0612BB4C4F9B5AFB57DBAA3981D61AB5A80CBF168015D93A754A07CC2A3E ====

[CUETools log; Date: 09.04.2020 17:27:44; Version: 2.1.4]
[CTDB TOCID: xMwmCaOtaw5koo7MPdmIHmg7eWI-] found.
Track | CTDB Status
1 | (2/2) Accurately ripped
2 | (2/2) Accurately ripped
3 | (2/2) Accurately ripped
4 | (2/2) Accurately ripped
5 | (2/2) Accurately ripped
6 | (2/2) Accurately ripped
7 | (2/2) Accurately ripped
8 | (2/2) Accurately ripped
9 | (2/2) Accurately ripped
10 | (2/2) Accurately ripped
11 | (2/2) Accurately ripped
12 | (2/2) Accurately ripped
13 | (2/2) Accurately ripped
14 | (2/2) Accurately ripped
15 | (2/2) Accurately ripped
[AccurateRip ID: 0023dfd6-01a5b668-db11bc0f] disk not present in database.

Track Peak [ CRC32 ] [W/O NULL] [ LOG ]
– 100,0 [981EB092] [6A3101A0]
01 43,8 [4C5B0F7E] [5DC59875] CRC32
02 98,0 [3BF35EC3] [AAF41079] CRC32
03 100,0 [25E52562] [8C809889] CRC32
04 98,0 [1A48DEAC] [868EAB8E] CRC32
05 98,0 [7D81463B] [5B84D8F1] CRC32
06 98,0 [8D67632F] [F38D5008] CRC32
07 98,0 [0137A18E] [BBF702DE] CRC32
08 98,0 [17F9C922] [C9A9D9F8] CRC32
09 98,0 [FC693FF1] [265F4E17] CRC32
10 98,0 [16CBA05F] [9B215CE2] CRC32
11 71,4 [C6F791BF] [262AD9BB] CRC32
12 98,0 [06404972] [738384A5] CRC32
13 98,0 [5843C842] [B5B9D59D] CRC32
14 95,4 [57F4558F] [1DC0D9F6] CRC32
15 97,7 [9FBCD4DE] [EC89F39D] CRC32

Thanks to thezabs

See also:
Tim Deluxe - Fluid Moments (2010) [Japanese Edition]
Tim Deluxe - The Radicle (2014) [Japanese Edition]