Subcategories
Tags
Language
Tags

Tom Harrell - Sail Away (1989) {Original Jazz Classics}

Posted By: tiburon
Tom Harrell - Sail Away (1989) {Original Jazz Classics}

Tom Harrell - Sail Away (1989) {Original Jazz Classics}
X Lossless Decoder | FLAC tracks | Cue+Log+M3U | Scans 300dpi | 485MB + 5% Recovery
MP3 CBR 320 Kbps | 182MB + 5% Recovery
Genre: Jazz, Post-Bop

Recorded in 1989 and re-released on Original Jazz Classics in 2003, Sail Away is a fine outing by trumpeter Tom Harrell. He's joined by pianist James Williams, bassist Ray Drummond, and drummer Adam Nussbaum. A handful of guests – flutist Cheryl Pyle, guitarist John Abercrombie, tenor Joe Lovano, and soprano Dave Liebman – fill out the arrangements on ten instrumentals (two are bonus cuts from Visions). Together, Harrell and company add a contemporary spin to mainstream jazz. The ten-minute track "Dream in June" takes a number of adventurous flights of fancy without ever losing track of its base. Both Harrell and Abercrombie's solos build complex, forceful ideas against a backdrop of Nussbaum's powerful drumming, creating a dense sound that belies predictability. Harrell and Lovano's horns entwine on "Glass Mystery"'s intro, concocting a late-night mood for this lovely piece, while Pyle's flute adds the right touch to the meditative "Dancing Trees." Each track of Sail Away unfolds like an impressionistic canvas, bursting with color and light, with every brush stroke working toward the sum total of the painting.
Track List
01 Eons 06:51
02 Glass Mystery 08:37
03 Dream in June 10:53
04 Sail Away 05:14
05 Buffalo Wings 09:50
06 It Always Is 08:16
07 Dancing Trees 06:12
08 Hope St. 07:50
09 April Mist 06:23
10 Visions of Gaudi 09:05

musicians
Tom Harrell - trumpet
Dave Liebman - soprano saxophone
Joe Lovano - tenor saxophone
Cheryl Pyle - flute
James Williams - piano
John Abercrombie - guitar, guitar synthesizer
Ray Drummond - bass
Adam Nussbaum - drums

Produced by Bill Goodwin


X Lossless Decoder version 20100711 (120.5)

XLD extraction logfile from 2010-07-27 09:34:03 +0400

Tom Harrell / Sail Away

Used drive : HL-DT-ST DVDRW GS23N (revision SB00)

Use cdparanoia mode : YES (CDParanoia III 10.2 engine)
Disable audio cache : OK for the drive with cache less than 2750KB
Make use of C2 pointers : NO
Read offset correction : 667
Max retry count : 10
Gap status : Analyzed, Appended

TOC of the extracted CD
Track | Start | Length | Start sector | End sector
––––––––––––––––––––––––––––-
1 | 00:00:00 | 06:51:60 | 0 | 30884
2 | 06:51:60 | 08:37:34 | 30885 | 69693
3 | 15:29:19 | 10:53:67 | 69694 | 118735
4 | 26:23:11 | 05:14:25 | 118736 | 142310
5 | 31:37:36 | 09:50:59 | 142311 | 186619
6 | 41:28:20 | 08:16:31 | 186620 | 223850
7 | 49:44:51 | 06:12:28 | 223851 | 251778
8 | 55:57:04 | 07:50:61 | 251779 | 287089
9 | 63:47:65 | 06:23:68 | 287090 | 315882
10 | 70:11:58 | 09:05:65 | 315883 | 356822

Track 01
Filename : /Users/olegbelov/Downloads/Tom Harrell - Sail Away (1989)/01 Tom Harrell - Eons.flac

Pre-gap length : 00:02:00

CRC32 hash (test run) : 9859C3A1
CRC32 hash : 9859C3A1
CRC32 hash (skip zero) : 124E4845
AccurateRip signature : 8956D850
->Track not present in AccurateRip database.
Statistics
Read error : 0
Skipped (treated as error) : 0
Edge jitter error (maybe fixed) : 0
Atom jitter error (maybe fixed) : 0
Drift error (maybe fixed) : 0
Dropped bytes error (maybe fixed) : 0
Duplicated bytes error (maybe fixed) : 0
Inconsistency in error sectors : 0

Track 02
Filename : /Users/olegbelov/Downloads/Tom Harrell - Sail Away (1989)/02 Tom Harrell - Glass Mystery.flac

CRC32 hash (test run) : 93D27593
CRC32 hash : 93D27593
CRC32 hash (skip zero) : 8CBCE6BC
AccurateRip signature : 913BB5C1
->Track not present in AccurateRip database.
Statistics
Read error : 0
Skipped (treated as error) : 0
Edge jitter error (maybe fixed) : 0
Atom jitter error (maybe fixed) : 0
Drift error (maybe fixed) : 0
Dropped bytes error (maybe fixed) : 0
Duplicated bytes error (maybe fixed) : 0
Inconsistency in error sectors : 0

Track 03
Filename : /Users/olegbelov/Downloads/Tom Harrell - Sail Away (1989)/03 Tom Harrell - Dream in June.flac

CRC32 hash (test run) : B4CC3843
CRC32 hash : B4CC3843
CRC32 hash (skip zero) : 9C75FC75
AccurateRip signature : 501A4399
->Track not present in AccurateRip database.
Statistics
Read error : 0
Skipped (treated as error) : 0
Edge jitter error (maybe fixed) : 0
Atom jitter error (maybe fixed) : 0
Drift error (maybe fixed) : 0
Dropped bytes error (maybe fixed) : 0
Duplicated bytes error (maybe fixed) : 0
Inconsistency in error sectors : 0

Track 04
Filename : /Users/olegbelov/Downloads/Tom Harrell - Sail Away (1989)/04 Tom Harrell - Sail Away.flac

CRC32 hash (test run) : 4EE351CE
CRC32 hash : 4EE351CE
CRC32 hash (skip zero) : A8CAF441
AccurateRip signature : 5139F88D
->Track not present in AccurateRip database.
Statistics
Read error : 0
Skipped (treated as error) : 0
Edge jitter error (maybe fixed) : 0
Atom jitter error (maybe fixed) : 0
Drift error (maybe fixed) : 0
Dropped bytes error (maybe fixed) : 0
Duplicated bytes error (maybe fixed) : 0
Inconsistency in error sectors : 0

Track 05
Filename : /Users/olegbelov/Downloads/Tom Harrell - Sail Away (1989)/05 Tom Harrell - Buffalo Wings.flac

CRC32 hash (test run) : 387E3DCB
CRC32 hash : 387E3DCB
CRC32 hash (skip zero) : EBDC530B
AccurateRip signature : 65E9E6B3
->Track not present in AccurateRip database.
Statistics
Read error : 0
Skipped (treated as error) : 0
Edge jitter error (maybe fixed) : 0
Atom jitter error (maybe fixed) : 0
Drift error (maybe fixed) : 0
Dropped bytes error (maybe fixed) : 0
Duplicated bytes error (maybe fixed) : 0
Inconsistency in error sectors : 0

Track 06
Filename : /Users/olegbelov/Downloads/Tom Harrell - Sail Away (1989)/06 Tom Harrell - It Always Is.flac

CRC32 hash (test run) : 4FCB7F63
CRC32 hash : 4FCB7F63
CRC32 hash (skip zero) : 6EE785D8
AccurateRip signature : 56D2FD7A
->Track not present in AccurateRip database.
Statistics
Read error : 0
Skipped (treated as error) : 0
Edge jitter error (maybe fixed) : 0
Atom jitter error (maybe fixed) : 0
Drift error (maybe fixed) : 0
Dropped bytes error (maybe fixed) : 0
Duplicated bytes error (maybe fixed) : 0
Inconsistency in error sectors : 0

Track 07
Filename : /Users/olegbelov/Downloads/Tom Harrell - Sail Away (1989)/07 Tom Harrell - Dancing Trees.flac

CRC32 hash (test run) : 51EDBF41
CRC32 hash : 51EDBF41
CRC32 hash (skip zero) : 58DFC5F7
AccurateRip signature : EB6F3156
->Track not present in AccurateRip database.
Statistics
Read error : 0
Skipped (treated as error) : 0
Edge jitter error (maybe fixed) : 0
Atom jitter error (maybe fixed) : 0
Drift error (maybe fixed) : 0
Dropped bytes error (maybe fixed) : 0
Duplicated bytes error (maybe fixed) : 0
Inconsistency in error sectors : 0

Track 08
Filename : /Users/olegbelov/Downloads/Tom Harrell - Sail Away (1989)/08 Tom Harrell - Hope St..flac

CRC32 hash (test run) : B21BFE63
CRC32 hash : B21BFE63
CRC32 hash (skip zero) : C3E6D94C
AccurateRip signature : 15814990
->Track not present in AccurateRip database.
Statistics
Read error : 0
Skipped (treated as error) : 0
Edge jitter error (maybe fixed) : 0
Atom jitter error (maybe fixed) : 0
Drift error (maybe fixed) : 0
Dropped bytes error (maybe fixed) : 0
Duplicated bytes error (maybe fixed) : 0
Inconsistency in error sectors : 0

Track 09
Filename : /Users/olegbelov/Downloads/Tom Harrell - Sail Away (1989)/09 Tom Harrell - April Mist.flac

CRC32 hash (test run) : 2167E552
CRC32 hash : 2167E552
CRC32 hash (skip zero) : C4120095
AccurateRip signature : 8EF2442D
->Track not present in AccurateRip database.
Statistics
Read error : 0
Skipped (treated as error) : 0
Edge jitter error (maybe fixed) : 0
Atom jitter error (maybe fixed) : 0
Drift error (maybe fixed) : 0
Dropped bytes error (maybe fixed) : 0
Duplicated bytes error (maybe fixed) : 0
Inconsistency in error sectors : 0

Track 10
Filename : /Users/olegbelov/Downloads/Tom Harrell - Sail Away (1989)/10 Tom Harrell - Visions of Gaudi.flac

CRC32 hash (test run) : 7D5D4722
CRC32 hash : 7D5D4722
CRC32 hash (skip zero) : 6030296D
AccurateRip signature : 72609E88
->Track not present in AccurateRip database.
Statistics
Read error : 0
Skipped (treated as error) : 0
Edge jitter error (maybe fixed) : 0
Atom jitter error (maybe fixed) : 0
Drift error (maybe fixed) : 0
Dropped bytes error (maybe fixed) : 0
Duplicated bytes error (maybe fixed) : 0
Inconsistency in error sectors : 0

No errors occurred

End of status report

Tom Harrell - Sail Away (1989) {Original Jazz Classics}
Tom Harrell - Sail Away (1989) {Original Jazz Classics}


Thanks to the original ripper