Subcategories
Tags
Language
Tags

Toni Braxton - Ultimate Toni Braxton (2003) 2CD Edition [Re-Up]

Posted By: Designol
Toni Braxton - Ultimate Toni Braxton (2003) 2CD Edition [Re-Up]

Toni Braxton - Ultimate Toni Braxton (2003) 2CD Edition
EAC | FLAC | Tracks (Cue&Log) ~ 835 Mb | Mp3 (CBR320) ~ 276 Mb | Scans included
R&B, Adult Contemporary, Dance-Pop | Label: Arista | # 82876 576252 | 01:58:25

Most modern-day female pop singers start their careers doing their sexy, stylish dance-oriented material then settle into a career as an adult contemporary crooner. Toni Braxton didn't follow that route. She started the '90s singing elegant, refined quiet storm ballads and ended it singing sleek dance-pop tunes as she slinked around in skimpy outfits. She wasn't the only one of her peers to follow this trajectory – Mariah Carey pretty much did the same thing, only to the extreme – but it's a little odd to listen to Braxton evolve from the sophisticated urban contemporary crooner to oversexed R&B thrush, even if it's not a bad thing at all. One thing that elevated Braxton above her peers is that she was a controlled, powerful singer who rarely oversang, and she had a good selection of material, much of it written or co-written by Babyface. That's why her 18-track hits collection Ultimate Toni Braxton works well even through her shifts in style – she is a confident enough performer to sell both the slow romantic ballads and material that swings harder. That's not to say that there aren't some slow spots here – the previously unreleased cuts are no great shakes, and sometimes the abundance of slow numbers makes things sound too samey – but she was one of the top urban soul singers of the '90s, and this is the album that illustrates why.

Review by Stephen Thomas Erlewine, Allmusic.com

Toni Braxton - Ultimate Toni Braxton (2003) 2CD Edition [Re-Up]



Tracklist:

CD:1

01. Give U My Heart (04:00)
02. Love Shoulda Brought You Home (04:51)
03. Another Sad Love Song (03:49)
04. Breathe Again (04:15)
05. Seven Whole Days (Live) (04:40)
06. You Mean The World To Me (03:59)
07. How Many Ways (04:26)
08. You're Makin' Me High (04:06)
09. Let It Flow (Radio Edit) (04:09)
10. Un-Break My Heart (04:28)
11. I Love Me Some Him (04:36)
12. I Don't Want To (04:17)
13. He Wasn't Man Enough (04:00)
14. Just Be A Man About It (04:16)
15. Hit The Freeway (feat. Loon) (03:47)
16. Watchu Need (Previously Unreleased) (03:38)
17. The Little Things (Previously Unreleased) (04:31)
18. Un-Break My Heart (Soul-Hex Anthem Radio Edit) (03:35)

CD:2

01. Un-Break My Heart (Frunkie Kunckles Franktidrama Club Mix) (08:38)
02. You're Making Me High (Salaam Remi's Northside Mix) (04:20)
03. How Many Ways (R.Kelly Mix) (05:47)
04. I Don't Want To (Frankie Knuckles Franktified Club Mix) (10:59)
05. Hit The Freeway (Goldtrix Mix) (07:19)
06. He Wasn't Man Enough (Forces Of Nature Mix) (05:50)


Exact Audio Copy V1.0 beta 3 from 29. August 2011

EAC extraction logfile from 13. August 2014, 9:10

Toni Braxton / Ultimate Toni Braxton CD01

Used drive : HL-DT-STDVDRAM GSA-T50L Adapter: 1 ID: 0

Read mode : Secure
Utilize accurate stream : Yes
Defeat audio cache : No
Make use of C2 pointers : No

Read offset correction : 667
Overread into Lead-In and Lead-Out : No
Fill up missing offset samples with silence : Yes
Delete leading and trailing silent blocks : No
Null samples used in CRC calculations : Yes
Used interface : Native Win32 interface for Win NT & 2000
Gap handling : Appended to previous track

Used output format : User Defined Encoder
Selected bitrate : 1024 kBit/s
Quality : High
Add ID3 tag : No
Command line compressor : C:\Program Files\Exact Audio Copy\Flac\flac.exe
Additional command line options : -8 -V -T "ARTIST=%artist%" -T "TITLE=%title%" -T "ALBUM=%albumtitle%" -T "DATE=%year%" -T "TRACKNUMBER=%tracknr%" -T "GENRE=%genre%" -T "PERFORMER=%albuminterpret%" -T "COMPOSER=%composer%" %haslyrics%–tag-from-file=LYRICS="%lyricsfile%"%haslyrics% -T "ALBUMARTIST=%albumartist%" -T "DISCNUMBER=%cdnumber%" -T "TOTALDISCS=%totalcds%" -T "TOTALTRACKS=%numtracks%" -T "COMMENT=%comment%" %source% -o %dest%


TOC of the extracted CD

Track | Start | Length | Start sector | End sector
––––––––––––––––––––––––––––-
1 | 0:00.00 | 4:00.47 | 0 | 18046
2 | 4:00.47 | 4:51.18 | 18047 | 39889
3 | 8:51.65 | 3:49.62 | 39890 | 57126
4 | 12:41.52 | 4:15.03 | 57127 | 76254
5 | 16:56.55 | 4:40.15 | 76255 | 97269
6 | 21:36.70 | 3:59.05 | 97270 | 115199
7 | 25:36.00 | 4:26.30 | 115200 | 135179
8 | 30:02.30 | 4:06.12 | 135180 | 153641
9 | 34:08.42 | 4:09.28 | 153642 | 172344
10 | 38:17.70 | 4:28.35 | 172345 | 192479
11 | 42:46.30 | 4:36.60 | 192480 | 213239
12 | 47:23.15 | 4:17.07 | 213240 | 232521
13 | 51:40.22 | 4:00.00 | 232522 | 250521
14 | 55:40.22 | 4:16.15 | 250522 | 269736
15 | 59:56.37 | 3:47.43 | 269737 | 286804
16 | 63:44.05 | 3:38.30 | 286805 | 303184
17 | 67:22.35 | 4:31.22 | 303185 | 323531
18 | 71:53.57 | 3:35.43 | 323532 | 339699
19 | 78:01.25 | 1:21.54 | 351100 | 357228


Track 1

Filename C:\FLAC\01 - Toni Braxton & Babyface - Give U My Heart.wav

Pre-gap length 0:00:02.00

Peak level 99.9 %
Extraction speed 4.3 X
Track quality 100.0 %
Test CRC AE99A82E
Copy CRC AE99A82E
Track not present in AccurateRip database
Copy OK

Track 2

Filename C:\FLAC\02 - Toni Braxton - Love Shoulda Brought You Home.wav

Peak level 99.9 %
Extraction speed 4.8 X
Track quality 100.0 %
Test CRC 478E2A36
Copy CRC 478E2A36
Track not present in AccurateRip database
Copy OK

Track 3

Filename C:\FLAC\03 - Toni Braxton - Another Sad Love Song.wav

Peak level 100.0 %
Extraction speed 5.2 X
Track quality 100.0 %
Test CRC 68A0E15E
Copy CRC 68A0E15E
Track not present in AccurateRip database
Copy OK

Track 4

Filename C:\FLAC\04 - Toni Braxton - Breathe Again.wav

Peak level 99.9 %
Extraction speed 5.6 X
Track quality 100.0 %
Test CRC FE992928
Copy CRC FE992928
Track not present in AccurateRip database
Copy OK

Track 5

Filename C:\FLAC\05 - Toni Braxton - Seven Whole Days (Live).wav

Peak level 99.9 %
Extraction speed 5.8 X
Track quality 99.9 %
Test CRC 1B1A990D
Copy CRC 1B1A990D
Track not present in AccurateRip database
Copy OK

Track 6

Filename C:\FLAC\06 - Toni Braxton - You Mean The World To Me.wav

Peak level 99.9 %
Extraction speed 6.3 X
Track quality 100.0 %
Test CRC 18973E52
Copy CRC 18973E52
Track not present in AccurateRip database
Copy OK

Track 7

Filename C:\FLAC\07 - Toni Braxton - How Many Ways.wav

Peak level 99.9 %
Extraction speed 6.4 X
Track quality 100.0 %
Test CRC 312C2879
Copy CRC 312C2879
Track not present in AccurateRip database
Copy OK

Track 8

Filename C:\FLAC\08 - Toni Braxton - You're Makin' Me High.wav

Peak level 99.9 %
Extraction speed 6.7 X
Track quality 100.0 %
Test CRC 93B06FCA
Copy CRC 93B06FCA
Track not present in AccurateRip database
Copy OK

Track 9

Filename C:\FLAC\09 - Toni Braxton - Let It Flow (Radio Edit).wav

Peak level 99.8 %
Extraction speed 7.1 X
Track quality 100.0 %
Test CRC 7242603D
Copy CRC 7242603D
Track not present in AccurateRip database
Copy OK

Track 10

Filename C:\FLAC\10 - Toni Braxton - Un-Break My Heart.wav

Peak level 99.9 %
Extraction speed 7.2 X
Track quality 100.0 %
Test CRC F641CDC6
Copy CRC F641CDC6
Track not present in AccurateRip database
Copy OK

Track 11

Filename C:\FLAC\11 - Toni Braxton - I Love Me Some Him.wav

Peak level 99.9 %
Extraction speed 7.4 X
Track quality 100.0 %
Test CRC A7A5F937
Copy CRC A7A5F937
Track not present in AccurateRip database
Copy OK

Track 12

Filename C:\FLAC\12 - Toni Braxton - I Don't Want To.wav

Peak level 99.9 %
Extraction speed 7.9 X
Track quality 100.0 %
Test CRC 2F24D6B2
Copy CRC 2F24D6B2
Track not present in AccurateRip database
Copy OK

Track 13

Filename C:\FLAC\13 - Toni Braxton - He Wasn't Man Enough.wav

Peak level 91.5 %
Extraction speed 7.9 X
Track quality 99.9 %
Test CRC 44ED3495
Copy CRC 44ED3495
Track not present in AccurateRip database
Copy OK

Track 14

Filename C:\FLAC\14 - Toni Braxton - Just Be A Man About It.wav

Peak level 99.9 %
Extraction speed 8.2 X
Track quality 100.0 %
Test CRC 981BA167
Copy CRC 981BA167
Track not present in AccurateRip database
Copy OK

Track 15

Filename C:\FLAC\15 - Toni Braxton Featuring Loon - Hit The Freeway (feat. Loon).wav

Peak level 97.1 %
Extraction speed 8.3 X
Track quality 100.0 %
Test CRC 35EA7A19
Copy CRC 35EA7A19
Track not present in AccurateRip database
Copy OK

Track 16

Filename C:\FLAC\16 - Toni Braxton - Watchu Need (Previously Unreleased).wav

Peak level 95.8 %
Extraction speed 8.4 X
Track quality 100.0 %
Test CRC 52B1AC2F
Copy CRC 52B1AC2F
Track not present in AccurateRip database
Copy OK

Track 17

Filename C:\FLAC\17 - Toni Braxton - The Little Things (Previously Unreleased).wav

Peak level 99.8 %
Extraction speed 9.0 X
Track quality 100.0 %
Test CRC 3B31D6B5
Copy CRC 3B31D6B5
Track not present in AccurateRip database
Copy OK

Track 18

Filename C:\FLAC\18 - Toni Braxton - Un-Break My Heart (Soul-Hex Anthem Radio Edit).wav

Peak level 99.9 %
Extraction speed 9.2 X
Track quality 100.0 %
Test CRC F11B6654
Copy CRC F11B6654
Track not present in AccurateRip database
Copy OK


None of the tracks are present in the AccurateRip database

No errors occurred

End of status report

–– CUETools DB Plugin V2.1.3

[CTDB TOCID: WLEGqoZ.7revgnBwUh8VNUrx6nE-] found, Submit result: WLEGqoZ.7revgnBwUh8VNUrx6nE- has been confirmed
[e7f74a95] (1/1) Accurately ripped


==== Log checksum 80C2542BB3B147E972B9074CB67316AD942A93D44B8E0560D346C26E0DD13A7E ====

––––––––––––––––––––––––––––––

Exact Audio Copy V1.0 beta 3 from 29. August 2011

EAC extraction logfile from 13. August 2014, 9:10

Toni Braxton / Ultimate Toni Braxton CD01

Used drive : HL-DT-STDVDRAM GSA-T50L Adapter: 1 ID: 0

Read mode : Secure
Utilize accurate stream : Yes
Defeat audio cache : No
Make use of C2 pointers : No

Read offset correction : 667
Overread into Lead-In and Lead-Out : No
Fill up missing offset samples with silence : Yes
Delete leading and trailing silent blocks : No
Null samples used in CRC calculations : Yes
Used interface : Native Win32 interface for Win NT & 2000
Gap handling : Appended to previous track

Used output format : User Defined Encoder
Selected bitrate : 1024 kBit/s
Quality : High
Add ID3 tag : No
Command line compressor : C:\Program Files\Exact Audio Copy\Flac\flac.exe
Additional command line options : -8 -V -T "ARTIST=%artist%" -T "TITLE=%title%" -T "ALBUM=%albumtitle%" -T "DATE=%year%" -T "TRACKNUMBER=%tracknr%" -T "GENRE=%genre%" -T "PERFORMER=%albuminterpret%" -T "COMPOSER=%composer%" %haslyrics%–tag-from-file=LYRICS="%lyricsfile%"%haslyrics% -T "ALBUMARTIST=%albumartist%" -T "DISCNUMBER=%cdnumber%" -T "TOTALDISCS=%totalcds%" -T "TOTALTRACKS=%numtracks%" -T "COMMENT=%comment%" %source% -o %dest%


TOC of the extracted CD

Track | Start | Length | Start sector | End sector
––––––––––––––––––––––––––––-
1 | 0:00.00 | 4:00.47 | 0 | 18046
2 | 4:00.47 | 4:51.18 | 18047 | 39889
3 | 8:51.65 | 3:49.62 | 39890 | 57126
4 | 12:41.52 | 4:15.03 | 57127 | 76254
5 | 16:56.55 | 4:40.15 | 76255 | 97269
6 | 21:36.70 | 3:59.05 | 97270 | 115199
7 | 25:36.00 | 4:26.30 | 115200 | 135179
8 | 30:02.30 | 4:06.12 | 135180 | 153641
9 | 34:08.42 | 4:09.28 | 153642 | 172344
10 | 38:17.70 | 4:28.35 | 172345 | 192479
11 | 42:46.30 | 4:36.60 | 192480 | 213239
12 | 47:23.15 | 4:17.07 | 213240 | 232521
13 | 51:40.22 | 4:00.00 | 232522 | 250521
14 | 55:40.22 | 4:16.15 | 250522 | 269736
15 | 59:56.37 | 3:47.43 | 269737 | 286804
16 | 63:44.05 | 3:38.30 | 286805 | 303184
17 | 67:22.35 | 4:31.22 | 303185 | 323531
18 | 71:53.57 | 3:35.43 | 323532 | 339699
19 | 78:01.25 | 1:21.54 | 351100 | 357228


Track 1

Filename C:\FLAC\01 - Toni Braxton & Babyface - Give U My Heart.wav

Pre-gap length 0:00:02.00

Peak level 99.9 %
Extraction speed 4.3 X
Track quality 100.0 %
Test CRC AE99A82E
Copy CRC AE99A82E
Track not present in AccurateRip database
Copy OK

Track 2

Filename C:\FLAC\02 - Toni Braxton - Love Shoulda Brought You Home.wav

Peak level 99.9 %
Extraction speed 4.8 X
Track quality 100.0 %
Test CRC 478E2A36
Copy CRC 478E2A36
Track not present in AccurateRip database
Copy OK

Track 3

Filename C:\FLAC\03 - Toni Braxton - Another Sad Love Song.wav

Peak level 100.0 %
Extraction speed 5.2 X
Track quality 100.0 %
Test CRC 68A0E15E
Copy CRC 68A0E15E
Track not present in AccurateRip database
Copy OK

Track 4

Filename C:\FLAC\04 - Toni Braxton - Breathe Again.wav

Peak level 99.9 %
Extraction speed 5.6 X
Track quality 100.0 %
Test CRC FE992928
Copy CRC FE992928
Track not present in AccurateRip database
Copy OK

Track 5

Filename C:\FLAC\05 - Toni Braxton - Seven Whole Days (Live).wav

Peak level 99.9 %
Extraction speed 5.8 X
Track quality 99.9 %
Test CRC 1B1A990D
Copy CRC 1B1A990D
Track not present in AccurateRip database
Copy OK

Track 6

Filename C:\FLAC\06 - Toni Braxton - You Mean The World To Me.wav

Peak level 99.9 %
Extraction speed 6.3 X
Track quality 100.0 %
Test CRC 18973E52
Copy CRC 18973E52
Track not present in AccurateRip database
Copy OK

Track 7

Filename C:\FLAC\07 - Toni Braxton - How Many Ways.wav

Peak level 99.9 %
Extraction speed 6.4 X
Track quality 100.0 %
Test CRC 312C2879
Copy CRC 312C2879
Track not present in AccurateRip database
Copy OK

Track 8

Filename C:\FLAC\08 - Toni Braxton - You're Makin' Me High.wav

Peak level 99.9 %
Extraction speed 6.7 X
Track quality 100.0 %
Test CRC 93B06FCA
Copy CRC 93B06FCA
Track not present in AccurateRip database
Copy OK

Track 9

Filename C:\FLAC\09 - Toni Braxton - Let It Flow (Radio Edit).wav

Peak level 99.8 %
Extraction speed 7.1 X
Track quality 100.0 %
Test CRC 7242603D
Copy CRC 7242603D
Track not present in AccurateRip database
Copy OK

Track 10

Filename C:\FLAC\10 - Toni Braxton - Un-Break My Heart.wav

Peak level 99.9 %
Extraction speed 7.2 X
Track quality 100.0 %
Test CRC F641CDC6
Copy CRC F641CDC6
Track not present in AccurateRip database
Copy OK

Track 11

Filename C:\FLAC\11 - Toni Braxton - I Love Me Some Him.wav

Peak level 99.9 %
Extraction speed 7.4 X
Track quality 100.0 %
Test CRC A7A5F937
Copy CRC A7A5F937
Track not present in AccurateRip database
Copy OK

Track 12

Filename C:\FLAC\12 - Toni Braxton - I Don't Want To.wav

Peak level 99.9 %
Extraction speed 7.9 X
Track quality 100.0 %
Test CRC 2F24D6B2
Copy CRC 2F24D6B2
Track not present in AccurateRip database
Copy OK

Track 13

Filename C:\FLAC\13 - Toni Braxton - He Wasn't Man Enough.wav

Peak level 91.5 %
Extraction speed 7.9 X
Track quality 99.9 %
Test CRC 44ED3495
Copy CRC 44ED3495
Track not present in AccurateRip database
Copy OK

Track 14

Filename C:\FLAC\14 - Toni Braxton - Just Be A Man About It.wav

Peak level 99.9 %
Extraction speed 8.2 X
Track quality 100.0 %
Test CRC 981BA167
Copy CRC 981BA167
Track not present in AccurateRip database
Copy OK

Track 15

Filename C:\FLAC\15 - Toni Braxton Featuring Loon - Hit The Freeway (feat. Loon).wav

Peak level 97.1 %
Extraction speed 8.3 X
Track quality 100.0 %
Test CRC 35EA7A19
Copy CRC 35EA7A19
Track not present in AccurateRip database
Copy OK

Track 16

Filename C:\FLAC\16 - Toni Braxton - Watchu Need (Previously Unreleased).wav

Peak level 95.8 %
Extraction speed 8.4 X
Track quality 100.0 %
Test CRC 52B1AC2F
Copy CRC 52B1AC2F
Track not present in AccurateRip database
Copy OK

Track 17

Filename C:\FLAC\17 - Toni Braxton - The Little Things (Previously Unreleased).wav

Peak level 99.8 %
Extraction speed 9.0 X
Track quality 100.0 %
Test CRC 3B31D6B5
Copy CRC 3B31D6B5
Track not present in AccurateRip database
Copy OK

Track 18

Filename C:\FLAC\18 - Toni Braxton - Un-Break My Heart (Soul-Hex Anthem Radio Edit).wav

Peak level 99.9 %
Extraction speed 9.2 X
Track quality 100.0 %
Test CRC F11B6654
Copy CRC F11B6654
Track not present in AccurateRip database
Copy OK


None of the tracks are present in the AccurateRip database

No errors occurred

End of status report

–– CUETools DB Plugin V2.1.3

[CTDB TOCID: WLEGqoZ.7revgnBwUh8VNUrx6nE-] found, Submit result: WLEGqoZ.7revgnBwUh8VNUrx6nE- has been confirmed
[e7f74a95] (1/1) Accurately ripped


==== Log checksum 80C2542BB3B147E972B9074CB67316AD942A93D44B8E0560D346C26E0DD13A7E ====

foobar2000 1.2 / Dynamic Range Meter 1.1.1
log date: 2014-08-16 00:36:15

––––––––––––––––––––––––––––––––––––––––
Analyzed: Toni Braxton & Babyface / Ultimate Toni Braxton CD01 (1)
Toni Braxton Featuring Loon / Ultimate Toni Braxton CD01 (2)
Toni Braxton / Ultimate Toni Braxton CD01 (3-18)
––––––––––––––––––––––––––––––––––––––––

DR Peak RMS Duration Track
––––––––––––––––––––––––––––––––––––––––
DR8 0.00 dB -8.73 dB 4:01 01-Give U My Heart
DR7 -0.25 dB -8.08 dB 3:48 15-Hit The Freeway (feat. Loon)
DR7 0.00 dB -8.01 dB 4:51 02-Love Shoulda Brought You Home
DR8 0.00 dB -9.09 dB 3:50 03-Another Sad Love Song
DR8 0.00 dB -8.32 dB 4:15 04-Breathe Again
DR8 0.00 dB -9.13 dB 4:40 05-Seven Whole Days (Live)
DR8 0.00 dB -9.01 dB 3:59 06-You Mean The World To Me
DR8 0.00 dB -9.87 dB 4:26 07-How Many Ways
DR8 0.00 dB -9.89 dB 4:06 08-You're Makin' Me High
DR8 -0.02 dB -9.87 dB 4:09 09-Let It Flow (Radio Edit)
DR7 0.00 dB -9.68 dB 4:28 10-Un-Break My Heart
DR9 0.00 dB -10.95 dB 4:37 11-I Love Me Some Him
DR8 0.00 dB -9.51 dB 4:17 12-I Don't Want To
DR6 -0.77 dB -7.58 dB 4:00 13-He Wasn't Man Enough
DR9 0.00 dB -10.82 dB 4:16 14-Just Be A Man About It
DR7 -0.37 dB -9.14 dB 3:38 16-Watchu Need (Previously Unreleased)
DR7 -0.01 dB -8.90 dB 4:31 17-The Little Things (Previously Unreleased)
DR8 0.00 dB -9.73 dB 3:36 18-Un-Break My Heart (Soul-Hex Anthem Radio Edit)
––––––––––––––––––––––––––––––––––––––––

Number of tracks: 18
Official DR value: DR8

Samplerate: 44100 Hz
Channels: 2
Bits per sample: 16
Bitrate: 989 kbps
Codec: FLAC
================================================================================


Exact Audio Copy V1.0 beta 3 from 29. August 2011

EAC extraction logfile from 13. August 2014, 9:58

Toni Braxton / Ultimate Toni Braxton CD02

Used drive : HL-DT-STDVDRAM GSA-T50L Adapter: 1 ID: 0

Read mode : Secure
Utilize accurate stream : Yes
Defeat audio cache : No
Make use of C2 pointers : No

Read offset correction : 667
Overread into Lead-In and Lead-Out : No
Fill up missing offset samples with silence : Yes
Delete leading and trailing silent blocks : No
Null samples used in CRC calculations : Yes
Used interface : Native Win32 interface for Win NT & 2000
Gap handling : Appended to previous track

Used output format : User Defined Encoder
Selected bitrate : 1024 kBit/s
Quality : High
Add ID3 tag : No
Command line compressor : C:\Program Files\Exact Audio Copy\Flac\flac.exe
Additional command line options : -8 -V -T "ARTIST=%artist%" -T "TITLE=%title%" -T "ALBUM=%albumtitle%" -T "DATE=%year%" -T "TRACKNUMBER=%tracknr%" -T "GENRE=%genre%" -T "PERFORMER=%albuminterpret%" -T "COMPOSER=%composer%" %haslyrics%–tag-from-file=LYRICS="%lyricsfile%"%haslyrics% -T "ALBUMARTIST=%albumartist%" -T "DISCNUMBER=%cdnumber%" -T "TOTALDISCS=%totalcds%" -T "TOTALTRACKS=%numtracks%" -T "COMMENT=%comment%" %source% -o %dest%


TOC of the extracted CD

Track | Start | Length | Start sector | End sector
––––––––––––––––––––––––––––-
1 | 0:00.00 | 8:38.32 | 0 | 38881
2 | 8:38.32 | 4:20.27 | 38882 | 58408
3 | 12:58.59 | 5:47.62 | 58409 | 84495
4 | 18:46.46 | 10:59.18 | 84496 | 133938
5 | 29:45.64 | 7:19.18 | 133939 | 166881
6 | 37:05.07 | 5:50.22 | 166882 | 193153


Track 1

Filename C:\FLAC\01 Un-Break My Heart (Frunkie Kunckles Franktidrama Club Mix).wav

Pre-gap length 0:00:02.00

Peak level 100.0 %
Extraction speed 4.6 X
Track quality 100.0 %
Test CRC 4E072BF5
Copy CRC 4E072BF5
Cannot be verified as accurate (confidence 3) [BA4AE9B7], AccurateRip returned [22848D34] (AR v2)
Copy OK

Track 2

Filename C:\FLAC\02 You're Making Me High (Salaam Remi's Northside Mix).wav

Pre-gap length 0:00:01.68

Peak level 97.7 %
Extraction speed 5.4 X
Track quality 100.0 %
Test CRC BD31F201
Copy CRC BD31F201
Cannot be verified as accurate (confidence 4) [2C43466B], AccurateRip returned [85EEA289] (AR v2)
Copy OK

Track 3

Filename C:\FLAC\03 How Many Ways (R.Kelly Mix).wav

Pre-gap length 0:00:01.68

Peak level 100.0 %
Extraction speed 5.8 X
Track quality 100.0 %
Test CRC FC71D913
Copy CRC FC71D913
Cannot be verified as accurate (confidence 4) [56C1271F], AccurateRip returned [2D400AA4] (AR v2)
Copy OK

Track 4

Filename C:\FLAC\04 I Don't Want To (Frankie Knuckles Franktified Club Mix).wav

Pre-gap length 0:00:01.68

Peak level 98.8 %
Extraction speed 6.6 X
Track quality 100.0 %
Test CRC A76D00F0
Copy CRC A76D00F0
Cannot be verified as accurate (confidence 3) [23CC07DD], AccurateRip returned [38B0DDE4] (AR v2)
Copy OK

Track 5

Filename C:\FLAC\05 Hit The Freeway (Goldtrix Mix).wav

Pre-gap length 0:00:01.68

Peak level 94.4 %
Extraction speed 7.2 X
Track quality 99.9 %
Test CRC DF3E37E1
Copy CRC DF3E37E1
Cannot be verified as accurate (confidence 4) [522C109E], AccurateRip returned [2F0F0678] (AR v2)
Copy OK

Track 6

Filename C:\FLAC\06 He Wasn't Man Enough (Forces Of Nature Mix).wav

Pre-gap length 0:00:01.68

Peak level 98.8 %
Extraction speed 7.8 X
Track quality 99.9 %
Test CRC F130C0A6
Copy CRC F130C0A6
Cannot be verified as accurate (confidence 4) [DECA5397], AccurateRip returned [96213E50] (AR v2)
Copy OK


No tracks could be verified as accurate
You may have a different pressing from the one(s) in the database

No errors occurred

End of status report

–– CUETools DB Plugin V2.1.3

[CTDB TOCID: HFkIQhmzWjHw.y__BWSKiz8wxMQ-] found, Submit result: HFkIQhmzWjHw.y__BWSKiz8wxMQ- has been confirmed
[fa095d4c] (3/3) Accurately ripped


==== Log checksum 801E995A756AA8EFEF62EA50E1D6342E803BB23DF0F94D668D8AFF8C5A4DF0EE ====

––––––––––––––––––––––––––––––

Exact Audio Copy V1.0 beta 3 from 29. August 2011

EAC extraction logfile from 13. August 2014, 9:58

Toni Braxton / Ultimate Toni Braxton CD02

Used drive : HL-DT-STDVDRAM GSA-T50L Adapter: 1 ID: 0

Read mode : Secure
Utilize accurate stream : Yes
Defeat audio cache : No
Make use of C2 pointers : No

Read offset correction : 667
Overread into Lead-In and Lead-Out : No
Fill up missing offset samples with silence : Yes
Delete leading and trailing silent blocks : No
Null samples used in CRC calculations : Yes
Used interface : Native Win32 interface for Win NT & 2000
Gap handling : Appended to previous track

Used output format : User Defined Encoder
Selected bitrate : 1024 kBit/s
Quality : High
Add ID3 tag : No
Command line compressor : C:\Program Files\Exact Audio Copy\Flac\flac.exe
Additional command line options : -8 -V -T "ARTIST=%artist%" -T "TITLE=%title%" -T "ALBUM=%albumtitle%" -T "DATE=%year%" -T "TRACKNUMBER=%tracknr%" -T "GENRE=%genre%" -T "PERFORMER=%albuminterpret%" -T "COMPOSER=%composer%" %haslyrics%–tag-from-file=LYRICS="%lyricsfile%"%haslyrics% -T "ALBUMARTIST=%albumartist%" -T "DISCNUMBER=%cdnumber%" -T "TOTALDISCS=%totalcds%" -T "TOTALTRACKS=%numtracks%" -T "COMMENT=%comment%" %source% -o %dest%


TOC of the extracted CD

Track | Start | Length | Start sector | End sector
––––––––––––––––––––––––––––-
1 | 0:00.00 | 8:38.32 | 0 | 38881
2 | 8:38.32 | 4:20.27 | 38882 | 58408
3 | 12:58.59 | 5:47.62 | 58409 | 84495
4 | 18:46.46 | 10:59.18 | 84496 | 133938
5 | 29:45.64 | 7:19.18 | 133939 | 166881
6 | 37:05.07 | 5:50.22 | 166882 | 193153


Track 1

Filename C:\FLAC\01 Un-Break My Heart (Frunkie Kunckles Franktidrama Club Mix).wav

Pre-gap length 0:00:02.00

Peak level 100.0 %
Extraction speed 4.6 X
Track quality 100.0 %
Test CRC 4E072BF5
Copy CRC 4E072BF5
Cannot be verified as accurate (confidence 3) [BA4AE9B7], AccurateRip returned [22848D34] (AR v2)
Copy OK

Track 2

Filename C:\FLAC\02 You're Making Me High (Salaam Remi's Northside Mix).wav

Pre-gap length 0:00:01.68

Peak level 97.7 %
Extraction speed 5.4 X
Track quality 100.0 %
Test CRC BD31F201
Copy CRC BD31F201
Cannot be verified as accurate (confidence 4) [2C43466B], AccurateRip returned [85EEA289] (AR v2)
Copy OK

Track 3

Filename C:\FLAC\03 How Many Ways (R.Kelly Mix).wav

Pre-gap length 0:00:01.68

Peak level 100.0 %
Extraction speed 5.8 X
Track quality 100.0 %
Test CRC FC71D913
Copy CRC FC71D913
Cannot be verified as accurate (confidence 4) [56C1271F], AccurateRip returned [2D400AA4] (AR v2)
Copy OK

Track 4

Filename C:\FLAC\04 I Don't Want To (Frankie Knuckles Franktified Club Mix).wav

Pre-gap length 0:00:01.68

Peak level 98.8 %
Extraction speed 6.6 X
Track quality 100.0 %
Test CRC A76D00F0
Copy CRC A76D00F0
Cannot be verified as accurate (confidence 3) [23CC07DD], AccurateRip returned [38B0DDE4] (AR v2)
Copy OK

Track 5

Filename C:\FLAC\05 Hit The Freeway (Goldtrix Mix).wav

Pre-gap length 0:00:01.68

Peak level 94.4 %
Extraction speed 7.2 X
Track quality 99.9 %
Test CRC DF3E37E1
Copy CRC DF3E37E1
Cannot be verified as accurate (confidence 4) [522C109E], AccurateRip returned [2F0F0678] (AR v2)
Copy OK

Track 6

Filename C:\FLAC\06 He Wasn't Man Enough (Forces Of Nature Mix).wav

Pre-gap length 0:00:01.68

Peak level 98.8 %
Extraction speed 7.8 X
Track quality 99.9 %
Test CRC F130C0A6
Copy CRC F130C0A6
Cannot be verified as accurate (confidence 4) [DECA5397], AccurateRip returned [96213E50] (AR v2)
Copy OK


No tracks could be verified as accurate
You may have a different pressing from the one(s) in the database

No errors occurred

End of status report

–– CUETools DB Plugin V2.1.3

[CTDB TOCID: HFkIQhmzWjHw.y__BWSKiz8wxMQ-] found, Submit result: HFkIQhmzWjHw.y__BWSKiz8wxMQ- has been confirmed
[fa095d4c] (3/3) Accurately ripped


==== Log checksum 801E995A756AA8EFEF62EA50E1D6342E803BB23DF0F94D668D8AFF8C5A4DF0EE ====

foobar2000 1.2 / Dynamic Range Meter 1.1.1
log date: 2014-08-16 00:36:32

––––––––––––––––––––––––––––––––––––––––
Analyzed: Toni Braxton / Ultimate Toni Braxton CD02
––––––––––––––––––––––––––––––––––––––––

DR Peak RMS Duration Track
––––––––––––––––––––––––––––––––––––––––
DR8 0.00 dB -9.20 dB 8:38 01-Un-Break My Heart (Frunkie Kunckles Franktidrama Club Mix)
DR8 -0.20 dB -10.36 dB 4:20 02-You're Making Me High (Salaam Remi's Northside Mix)
DR11 0.00 dB -12.60 dB 5:48 03-How Many Ways (R.Kelly Mix)
DR9 -0.10 dB -11.04 dB 10:59 04-I Don't Want To (Frankie Knuckles Franktified Club Mix)
DR6 -0.50 dB -8.19 dB 7:19 05-Hit The Freeway (Goldtrix Mix)
DR6 -0.10 dB -8.12 dB 5:50 06-He Wasn't Man Enough (Forces Of Nature Mix)
––––––––––––––––––––––––––––––––––––––––

Number of tracks: 6
Official DR value: DR8

Samplerate: 44100 Hz
Channels: 2
Bits per sample: 16
Bitrate: 871 kbps
Codec: FLAC
================================================================================

Toni Braxton - Ultimate Toni Braxton (2003) 2CD Edition [Re-Up]

All thanks to original releaser

More interesting music in My Blog