Tags
Language
Tags
February 2024
Su Mo Tu We Th Fr Sa
28 29 30 31 1 2 3
4 5 6 7 8 9 10
11 12 13 14 15 16 17
18 19 20 21 22 23 24
25 26 27 28 29 1 2
Attention❗ To save your time, in order to download anything on this site, you must be registered 👉 HERE. If you do not have a registration yet, it is better to do it right away. ✌

( • )( • ) ( ͡⚆ ͜ʖ ͡⚆ ) (‿ˠ‿)
SpicyMags.xyz

Tony Carey's Planet P Project - G.O.D.B.O.X. (2014) [4CD Box Set] Repost

Posted By: v3122
Tony Carey's Planet P Project - G.O.D.B.O.X. (2014) [4CD Box Set] Repost

Tony Carey's Planet P Project - G.O.D.B.O.X. (2014)
EAC | Flac(Image) + Cue + Log & MP3 CBR 320Kbps
T-Toons Music | ~ 1714 or 745 Mb | Scans(jpg) -> 75 Mb
Progressive Rock, Art Rock

~ Limited Edition 4xCD Box Set of the 'Go Out Dancing Trilogy' offered through Tony Carey's website. All copies were autographed. The release was limited to 300 copies. ~

Tony Carey's Planet P Project - G.O.D.B.O.X. (2014):

Tony Carey's Planet P Project - G.O.D.B.O.X. (2014) [4CD Box Set] Repost

Tracklist CD1 - G.O.D I - 1931:

01. My Radio Talks To Me - 06:43
02. Join The Parade - 04:33
03. Good Little Soldiers - 05:15
04. Work (Will Make You Free) - 04:47
05. The Judge And The Jury - 05:05
06. The Other Side Of The Mountain - 05:53
07. Waiting For The Winter - 04:57
08. Believe It - 04:07
09. The Things They Never Told Me - 04:39
10. Where Does It Go - 05:05
Bonus Tracks:
11. The Red Rock - 04:45
12. Artic When We Need You - 05:48
13. Join The Parade (Rock Remix) - 05:03

Exact Audio Copy V1.0 beta 3 from 29. August 2011

Отчёт EAC об извлечении, выполненном 10. января 2015, 13:07

Tony Carey's Planet P Project / 1931 (Go Out Dancing Part.1)

Дисковод: hp DVD-RAM UJ8B1 Adapter: 0 ID: 0

Режим чтения : Достоверность
Использование точного потока : Да
Отключение кэша аудио : Да
Использование указателей C2 : Нет

Коррекция смещения при чтении : 6
Способность читать области Lead-in и Lead-out : Нет
Заполнение пропущенных сэмплов тишиной : Да
Удаление блоков с тишиной в начале и конце : Нет
При вычислениях CRC использовались нулевые сэмплы : Да
Интерфейс : Встроенный Win32-интерфейс для Win NT/2000

Выходной формат : Пользовательский кодировщик
Выбранный битрейт : 128 kBit/s
Качество : Высокий
Добавление ID3-тега : Нет
Утилита сжатия : C:\Program Files (x86)\Exact Audio Copy\Flac\flac.exe
Дополнительные параметры : -V -8 -T "Date=%year%" -T "Genre=%genre%" %source%


TOC извлечённого CD

Трек | Старт | Длительность | Начальный сектор | Конечный сектор
––––––––––––––––––––––––––––––––––-
1 | 0:00.00 | 6:42.73 | 0 | 30222
2 | 6:42.73 | 4:32.35 | 30223 | 50657
3 | 11:15.33 | 5:14.38 | 50658 | 74245
4 | 16:29.71 | 4:47.00 | 74246 | 95770
5 | 21:16.71 | 5:04.37 | 95771 | 118607
6 | 26:21.33 | 5:52.73 | 118608 | 145080
7 | 32:14.31 | 4:57.00 | 145081 | 167355
8 | 37:11.31 | 4:06.38 | 167356 | 185843
9 | 41:17.69 | 4:39.00 | 185844 | 206768
10 | 45:56.69 | 5:05.00 | 206769 | 229643
11 | 51:01.69 | 4:45.00 | 229644 | 251018
12 | 55:46.69 | 5:47.37 | 251019 | 277080
13 | 61:34.31 | 5:03.00 | 277081 | 299805


Характеристики диапазона извлечения и сообщения об ошибках

Выбранный диапазон

Имя файла E:\РАЗДАЧИ\Папки\Tony Carey's Planet P Project\1931 (Go Out Dancing Part.I)\Tony Carey's Planet P Project - 1931 (Go Out Dancing Part.1).wav

Пиковый уровень 98.1 %
Скорость извлечения 3.1 X
Качество диапазона 99.9 %
CRC теста 66827249
CRC копии 66827249
Копирование… OK

Ошибок не произошло


AccurateRip: сводка

Трек 1 : извлечено точно (доверие 5) [FD410C17] (AR v2)
Трек 2 : извлечено точно (доверие 5) [E0DA30DA] (AR v2)
Трек 3 : извлечено точно (доверие 5) [35CFADF2] (AR v2)
Трек 4 : извлечено точно (доверие 5) [A87039A1] (AR v2)
Трек 5 : извлечено точно (доверие 5) [02B738B5] (AR v2)
Трек 6 : извлечено точно (доверие 5) [1CCF06B3] (AR v2)
Трек 7 : извлечено точно (доверие 5) [E79A05C9] (AR v2)
Трек 8 : извлечено точно (доверие 5) [AD4A7624] (AR v2)
Трек 9 : извлечено точно (доверие 5) [968211EA] (AR v2)
Трек 10 : извлечено точно (доверие 5) [8C7D595F] (AR v2)
Трек 11 : извлечено точно (доверие 5) [FB466C93] (AR v2)
Трек 12 : извлечено точно (доверие 5) [883C38FE] (AR v2)
Трек 13 : извлечено точно (доверие 5) [D84F11E6] (AR v2)

Все треки извлечены точно

Конец отчёта

==== Контрольная сумма отчёта EECD21AB3C3FD12E8675D303E20DD0CD166B02EF91938805F61E296206ACFD76 ====


[CUETools log; Date: 15.06.2015 18:17:59; Version: 2.1.4]
[CTDB TOCID: 9pj7YKp4ZZxv9NLiACC_71Zo_IA-] found.
Track | CTDB Status
1 | (1/1) Accurately ripped
2 | (1/1) Accurately ripped
3 | (1/1) Accurately ripped
4 | (1/1) Accurately ripped
5 | (1/1) Accurately ripped
6 | (1/1) Accurately ripped
7 | (1/1) Accurately ripped
8 | (1/1) Accurately ripped
9 | (1/1) Accurately ripped
10 | (1/1) Accurately ripped
11 | (1/1) Accurately ripped
12 | (1/1) Accurately ripped
13 | (1/1) Accurately ripped
[AccurateRip ID: 0020888a-014273e2-d30f9d0d] found.
Track [ CRC | V2 ] Status
01 [3ea3ee00|fd410c17] (0+5/5) Accurately ripped
02 [5921c5ab|e0da30da] (0+5/5) Accurately ripped
03 [03ea0de5|35cfadf2] (0+5/5) Accurately ripped
04 [64de34e1|a87039a1] (0+5/5) Accurately ripped
05 [afee1d09|02b738b5] (0+5/5) Accurately ripped
06 [c125febf|1ccf06b3] (0+5/5) Accurately ripped
07 [8d4a471e|e79a05c9] (0+5/5) Accurately ripped
08 [1c8005bf|ad4a7624] (0+5/5) Accurately ripped
09 [40151ff6|968211ea] (0+5/5) Accurately ripped
10 [33c7063e|8c7d595f] (0+5/5) Accurately ripped
11 [f4219242|fb466c93] (0+5/5) Accurately ripped
12 [9fda9073|883c38fe] (0+5/5) Accurately ripped
13 [8db28ae9|d84f11e6] (0+5/5) Accurately ripped

Track Peak [ CRC32 ] [W/O NULL] [ LOG ]
– 98,1 [66827249] [207D1AFD] CRC32
01 96,1 [68C1788A] [CB500EA3]
02 88,1 [79293EF3] [79017A3B]
03 97,0 [77D47899] [A5E21748]
04 96,1 [CA08F6E4] [4A6460F4]
05 97,0 [AF0ED42B] [704B5B6B]
06 96,0 [36FD3CB8] [B213F1B9]
07 97,0 [2D6EB990] [F5AB0D25]
08 97,0 [35B17D68] [D653D761]
09 96,7 [55C8C495] [AF75611A]
10 98,1 [4198AF34] [ACD3EF27]
11 97,0 [5EC54684] [F6174ADE]
12 97,0 [C9535C96] [E92B3101]
13 89,5 [E915D66E] [7594FCD3]


Tony Carey's Planet P Project - G.O.D.B.O.X. (2014) [4CD Box Set] Repost

Tracklist CD2 - G.O.D II - Levittown:

01. New Frontier - 05:03
02. Levittown - 04:49
03. White Sands - 06:56
04. Saw A Satellite - 04:14
05. This Is Heaven - 04:01
06. In Babylon - 05:40
07. Fremont Street - 06:15
08. Where We Want You - 05:35
09. All God's Children - 05:11
10. Waiting For You - 05:29
11. Your Eyes - 05:00
12. What We Did - 05:46
13. Go Out Dancing - 04:20
Bonus Track:
14. Tailgunner Joe - 05:12

Exact Audio Copy V1.0 beta 3 from 29. August 2011

Отчёт EAC об извлечении, выполненном 10. января 2015, 14:29

Tony Carey's Planet P Project / Levittown (Go Out Dancing - Part II)

Дисковод: hp DVD-RAM UJ8B1 Adapter: 0 ID: 0

Режим чтения : Достоверность
Использование точного потока : Да
Отключение кэша аудио : Да
Использование указателей C2 : Нет

Коррекция смещения при чтении : 6
Способность читать области Lead-in и Lead-out : Нет
Заполнение пропущенных сэмплов тишиной : Да
Удаление блоков с тишиной в начале и конце : Нет
При вычислениях CRC использовались нулевые сэмплы : Да
Интерфейс : Встроенный Win32-интерфейс для Win NT/2000

Выходной формат : Пользовательский кодировщик
Выбранный битрейт : 128 kBit/s
Качество : Высокий
Добавление ID3-тега : Нет
Утилита сжатия : C:\Program Files (x86)\Exact Audio Copy\Flac\flac.exe
Дополнительные параметры : -V -8 -T "Date=%year%" -T "Genre=%genre%" %source%


TOC извлечённого CD

Трек | Старт | Длительность | Начальный сектор | Конечный сектор
––––––––––––––––––––––––––––––––––-
1 | 0:00.00 | 5:03.08 | 0 | 22732
2 | 5:03.08 | 4:48.36 | 22733 | 44368
3 | 9:51.44 | 6:56.00 | 44369 | 75568
4 | 16:47.44 | 4:13.36 | 75569 | 94579
5 | 21:01.05 | 4:00.61 | 94580 | 112640
6 | 25:01.66 | 5:40.00 | 112641 | 138140
7 | 30:41.66 | 6:14.38 | 138141 | 166228
8 | 36:56.29 | 5:34.28 | 166229 | 191306
9 | 42:30.57 | 5:10.17 | 191307 | 214573
10 | 47:40.74 | 5:29.05 | 214574 | 239253
11 | 53:10.04 | 4:59.48 | 239254 | 261726
12 | 58:09.52 | 5:45.70 | 261727 | 287671
13 | 63:55.47 | 4:20.00 | 287672 | 307171
14 | 68:15.47 | 5:12.00 | 307172 | 330571


Характеристики диапазона извлечения и сообщения об ошибках

Выбранный диапазон

Имя файла E:\РАЗДАЧИ\Папки\Tony Carey's Planet P Project\Levittown (Go Out Dancing - Part II)\Tony Carey's Planet P Project - Levittown (Go Out Dancing - Part II).wav

Пиковый уровень 100.0 %
Скорость извлечения 2.2 X
Качество диапазона 99.9 %
CRC теста 26CBF8E5
CRC копии 26CBF8E5
Копирование… OK

Ошибок не произошло


AccurateRip: сводка

Трек 1 : извлечено точно (доверие 3) [95EC11E6] (AR v2)
Трек 2 : извлечено точно (доверие 3) [980E1646] (AR v2)
Трек 3 : извлечено точно (доверие 4) [2881D47B] (AR v2)
Трек 4 : извлечено точно (доверие 4) [FB429EBA] (AR v2)
Трек 5 : извлечено точно (доверие 4) [254289C5] (AR v2)
Трек 6 : извлечено точно (доверие 4) [AAED3962] (AR v2)
Трек 7 : извлечено точно (доверие 4) [D643AB76] (AR v2)
Трек 8 : извлечено точно (доверие 4) [A2B2A1F1] (AR v2)
Трек 9 : извлечено точно (доверие 4) [4BD34B4E] (AR v2)
Трек 10 : извлечено точно (доверие 4) [D18F414C] (AR v2)
Трек 11 : извлечено точно (доверие 4) [4A3BC633] (AR v2)
Трек 12 : извлечено точно (доверие 4) [BA45903F] (AR v2)
Трек 13 : извлечено точно (доверие 4) [79EF0814] (AR v2)
Трек 14 : извлечено точно (доверие 5) [DC156644] (AR v2)

Все треки извлечены точно

Конец отчёта

==== Контрольная сумма отчёта 0851898DA69A4D4ECC08111EECF659DBE1C8E5188F772F37BF03324E9FF6DA9A ====


[CUETools log; Date: 15.06.2015 18:18:52; Version: 2.1.4]
[CTDB TOCID: yBuU7umSaM.tAP.kuBhn8H8m1eM-] found.
Track | CTDB Status
1 | (1/1) Accurately ripped
2 | (1/1) Accurately ripped
3 | (1/1) Accurately ripped
4 | (1/1) Accurately ripped
5 | (1/1) Accurately ripped
6 | (1/1) Accurately ripped
7 | (1/1) Accurately ripped
8 | (1/1) Accurately ripped
9 | (1/1) Accurately ripped
10 | (1/1) Accurately ripped
11 | (1/1) Accurately ripped
12 | (1/1) Accurately ripped
13 | (1/1) Accurately ripped
14 | (1/1) Accurately ripped
[AccurateRip ID: 0025f10c-01955a28-c011370e] found.
Track [ CRC | V2 ] Status
01 [51e59568|95ec11e6] (0+3/3) Accurately ripped
02 [a509d3cc|980e1646] (0+3/3) Accurately ripped
03 [c860cdc0|2881d47b] (0+4/4) Accurately ripped
04 [559e175b|fb429eba] (0+4/4) Accurately ripped
05 [42f160f1|254289c5] (0+4/4) Accurately ripped
06 [16b4927b|aaed3962] (0+4/4) Accurately ripped
07 [1235a9f3|d643ab76] (0+4/4) Accurately ripped
08 [9e4447db|a2b2a1f1] (0+4/4) Accurately ripped
09 [f8daa847|4bd34b4e] (0+4/4) Accurately ripped
10 [1a69c937|d18f414c] (0+4/4) Accurately ripped
11 [38f05314|4a3bc633] (0+4/4) Accurately ripped
12 [f03a07ed|ba45903f] (0+4/4) Accurately ripped
13 [4e5e953f|79ef0814] (0+4/4) Accurately ripped
14 [4ef060de|dc156644] (0+5/5) Accurately ripped

Track Peak [ CRC32 ] [W/O NULL] [ LOG ]
– 100,0 [26CBF8E5] [B49B1D6D] CRC32
01 100,0 [7E8081BC] [67AD2C2A]
02 100,0 [71D3EEBB] [89AAF8D7]
03 98,2 [5FFC2631] [B753DBDD]
04 100,0 [77412D92] [BDE5C3AA]
05 100,0 [78B47658] [F2945897]
06 98,8 [C185E8D8] [F05149C9]
07 95,2 [BBECCAD7] [A4675754]
08 100,0 [32844833] [A186238B]
09 100,0 [4A541897] [96AA7924]
10 100,0 [FEEC705A] [2C144C5C]
11 100,0 [BD8714A9] [BE35BB66]
12 100,0 [7329317E] [43C79CCB]
13 98,1 [176BEA67] [B16155CD]
14 96,9 [4CF4EA25] [1C816188]


Tony Carey's Planet P Project - G.O.D.B.O.X. (2014) [4CD Box Set] Repost

Tracklist CD3 - G.O.D III - Out In The Rain:

01. Hallelujah - 04:49
02. Out In The Rain - 04:27
03. The Border Town - 05:29
04. Peace In The Valley - 03:34
05. This Is Your Life - 04:49
06. A New Country - 04:04
07. Rainmaker - 05:00
08. Who Would Have Thought - 04:12
09. Ransom Me - 04:05
10. What I Did - 05:07
11. We Will Be With You - 03:42
12. Down On Me - 04:26

Exact Audio Copy V1.0 beta 3 from 29. August 2011

Отчёт EAC об извлечении, выполненном 10. января 2015, 15:42

Tony Carey's Planet P Project / Out In The Rain (Go Out Dancing - Part III)

Дисковод: hp DVD-RAM UJ8B1 Adapter: 0 ID: 0

Режим чтения : Достоверность
Использование точного потока : Да
Отключение кэша аудио : Да
Использование указателей C2 : Нет

Коррекция смещения при чтении : 6
Способность читать области Lead-in и Lead-out : Нет
Заполнение пропущенных сэмплов тишиной : Да
Удаление блоков с тишиной в начале и конце : Нет
При вычислениях CRC использовались нулевые сэмплы : Да
Интерфейс : Встроенный Win32-интерфейс для Win NT/2000

Выходной формат : Пользовательский кодировщик
Выбранный битрейт : 128 kBit/s
Качество : Высокий
Добавление ID3-тега : Нет
Утилита сжатия : C:\Program Files (x86)\Exact Audio Copy\Flac\flac.exe
Дополнительные параметры : -V -8 -T "Date=%year%" -T "Genre=%genre%" %source%


TOC извлечённого CD

Трек | Старт | Длительность | Начальный сектор | Конечный сектор
––––––––––––––––––––––––––––––––––-
1 | 0:00.00 | 4:48.17 | 0 | 21616
2 | 4:48.17 | 4:26.45 | 21617 | 41611
3 | 9:14.62 | 5:28.35 | 41612 | 66246
4 | 14:43.22 | 3:34.15 | 66247 | 82311
5 | 18:17.37 | 4:48.48 | 82312 | 103959
6 | 23:06.10 | 4:03.28 | 103960 | 122212
7 | 27:09.38 | 4:59.49 | 122213 | 144686
8 | 32:09.12 | 4:11.30 | 144687 | 163541
9 | 36:20.42 | 4:04.27 | 163542 | 181868
10 | 40:24.69 | 5:06.15 | 181869 | 204833
11 | 45:31.09 | 3:41.38 | 204834 | 221446
12 | 49:12.47 | 4:25.31 | 221447 | 241352


Характеристики диапазона извлечения и сообщения об ошибках

Выбранный диапазон

Имя файла E:\РАЗДАЧИ\Папки\Tony Carey's Planet P Project\Out In The Rain (Go Out Dancing - Part III)\Tony Carey's Planet P Project - Out In The Rain (Go Out Dancing - Part III).wav

Пиковый уровень 100.0 %
Скорость извлечения 2.0 X
Качество диапазона 100.0 %
CRC теста 0D9D5B09
CRC копии 0D9D5B09
Копирование… OK

Ошибок не произошло


AccurateRip: сводка

Трек 1 : извлечено точно (доверие 4) [79E25FA5] (AR v2)
Трек 2 : извлечено точно (доверие 4) [6636B558] (AR v2)
Трек 3 : извлечено точно (доверие 4) [0220B96E] (AR v2)
Трек 4 : извлечено точно (доверие 4) [C52ED867] (AR v2)
Трек 5 : извлечено точно (доверие 4) [68F5A220] (AR v2)
Трек 6 : извлечено точно (доверие 4) [7E261037] (AR v2)
Трек 7 : извлечено точно (доверие 4) [A447D517] (AR v2)
Трек 8 : извлечено точно (доверие 4) [C7766D60] (AR v2)
Трек 9 : извлечено точно (доверие 4) [76D622C3] (AR v2)
Трек 10 : извлечено точно (доверие 4) [A2CC19E6] (AR v2)
Трек 11 : извлечено точно (доверие 4) [CA6D4EF5] (AR v2)
Трек 12 : извлечено точно (доверие 4) [1E407ED5] (AR v2)

Все треки извлечены точно

Конец отчёта

==== Контрольная сумма отчёта 6FA3027F8D1D83169E8CAC029733E222053381EE8B2447814DA63F350DC8D3DC ====


[CUETools log; Date: 15.06.2015 18:19:26; Version: 2.1.4]
[CTDB TOCID: BMQrnOi9ebjqW0KQFlDwdoDePKk-] found.
Track | CTDB Status
1 | (1/1) Accurately ripped
2 | (1/1) Accurately ripped
3 | (1/1) Accurately ripped
4 | (1/1) Accurately ripped
5 | (1/1) Accurately ripped
6 | (1/1) Accurately ripped
7 | (1/1) Accurately ripped
8 | (1/1) Accurately ripped
9 | (1/1) Accurately ripped
10 | (1/1) Accurately ripped
11 | (1/1) Accurately ripped
12 | (1/1) Accurately ripped
[AccurateRip ID: 0018592d-00e222dd-b00c920c] found.
Track [ CRC | V2 ] Status
01 [b924876a|79e25fa5] (0+4/4) Accurately ripped
02 [c01d1cf3|6636b558] (0+4/4) Accurately ripped
03 [eb5df3b6|0220b96e] (0+4/4) Accurately ripped
04 [e323682b|c52ed867] (0+4/4) Accurately ripped
05 [5f90fe08|68f5a220] (0+4/4) Accurately ripped
06 [df721a14|7e261037] (0+4/4) Accurately ripped
07 [559026c9|a447d517] (0+4/4) Accurately ripped
08 [4c30c53a|c7766d60] (0+4/4) Accurately ripped
09 [80a67d92|76d622c3] (0+4/4) Accurately ripped
10 [4813e052|a2cc19e6] (0+4/4) Accurately ripped
11 [e8f2c7a0|ca6d4ef5] (0+4/4) Accurately ripped
12 [c4f03cfb|1e407ed5] (0+4/4) Accurately ripped

Track Peak [ CRC32 ] [W/O NULL] [ LOG ]
– 100,0 [0D9D5B09] [B1824A00] CRC32
01 88,1 [4D194574] [8218F305]
02 95,9 [807CDCDB] [083CC96F]
03 100,0 [21958239] [A3FD97D4]
04 79,8 [75BC6172] [7DE24AE0]
05 100,0 [EF676DEC] [CFBA02B2]
06 97,0 [72F95574] [285B7D5E]
07 100,0 [291B740F] [5F7AC579]
08 100,0 [F5818054] [C77E0DFD]
09 100,0 [1C584E41] [C8CB8DE4]
10 97,0 [C7BDA5EE] [EA6F4D22]
11 87,8 [7E83629C] [F2D20E39]
12 100,0 [4770C2E4] [0072A4A3]


Tony Carey's Planet P Project - G.O.D.B.O.X. (2014) [4CD Box Set] Repost

Tracklist CD4 - G.O.D IV - The Bootleg:

01. 1931 (believe it) - 05:42
02. My Radio Talks To Me - 04:27
03. A Sanitation Problem - 00:38
04. The Other Side Of The Mountain - 03:56
05. Good Little Soldiers - 05:23
06. A Long Way From Home - 04:35
07. My Radio (reprise) - 01:54
08. The New Frontier - 04:43
09. Levittown - 04:24
10. This Is Heaven - 04:00
11. Tears - 04:46
12. Out In The Rain - 04:36
13. The Sins Of The Fathers - 04:41
14. Go Out Dancing - 05:07

Exact Audio Copy V1.0 beta 3 from 29. August 2011

Отчёт EAC об извлечении, выполненном 10. января 2015, 16:57

Tony Carey's Planet P Project / Go Out Dancing-PartIV

Дисковод: hp DVD-RAM UJ8B1 Adapter: 0 ID: 0

Режим чтения : Достоверность
Использование точного потока : Да
Отключение кэша аудио : Да
Использование указателей C2 : Нет

Коррекция смещения при чтении : 6
Способность читать области Lead-in и Lead-out : Нет
Заполнение пропущенных сэмплов тишиной : Да
Удаление блоков с тишиной в начале и конце : Нет
При вычислениях CRC использовались нулевые сэмплы : Да
Интерфейс : Встроенный Win32-интерфейс для Win NT/2000

Выходной формат : Пользовательский кодировщик
Выбранный битрейт : 128 kBit/s
Качество : Высокий
Добавление ID3-тега : Нет
Утилита сжатия : C:\Program Files (x86)\Exact Audio Copy\Flac\flac.exe
Дополнительные параметры : -V -8 -T "Date=%year%" -T "Genre=%genre%" %source%


TOC извлечённого CD

Трек | Старт | Длительность | Начальный сектор | Конечный сектор
––––––––––––––––––––––––––––––––––-
1 | 0:00.00 | 5:41.35 | 0 | 25609
2 | 5:41.35 | 4:26.38 | 25610 | 45597
3 | 10:07.73 | 0:37.37 | 45598 | 48409
4 | 10:45.35 | 3:55.38 | 48410 | 66072
5 | 14:40.73 | 5:22.56 | 66073 | 90278
6 | 20:03.54 | 4:34.47 | 90279 | 110875
7 | 24:38.26 | 1:53.65 | 110876 | 119415
8 | 26:32.16 | 4:42.38 | 119416 | 140603
9 | 31:14.54 | 4:23.28 | 140604 | 160356
10 | 35:38.07 | 4:00.00 | 160357 | 178356
11 | 39:38.07 | 4:46.00 | 178357 | 199806
12 | 44:24.07 | 4:35.38 | 199807 | 220469
13 | 48:59.45 | 4:41.00 | 220470 | 241544
14 | 53:40.45 | 5:06.28 | 241545 | 264522


Характеристики диапазона извлечения и сообщения об ошибках

Выбранный диапазон

Имя файла E:\РАЗДАЧИ\Папки\Tony Carey's Planet P Project\The Bootleg (Go Out Dancing - Part IV)\Tony Carey's Planet P Project - Go Out Dancing-PartIV.wav

Пиковый уровень 97.0 %
Скорость извлечения 2.1 X
Качество диапазона 100.0 %
CRC теста B50A7882
CRC копии B50A7882
Копирование… OK

Ошибок не произошло


AccurateRip: сводка

Трек 1 : извлечено точно (доверие 4) [3E08F2B3] (AR v2)
Трек 2 : извлечено точно (доверие 4) [ACA5012B] (AR v2)
Трек 3 : извлечено точно (доверие 4) [7E1F4F05] (AR v2)
Трек 4 : извлечено точно (доверие 4) [FDC4C406] (AR v2)
Трек 5 : извлечено точно (доверие 4) [231018AB] (AR v2)
Трек 6 : извлечено точно (доверие 4) [E0813F80] (AR v2)
Трек 7 : извлечено точно (доверие 4) [9CFC7EF9] (AR v2)
Трек 8 : извлечено точно (доверие 4) [B53E74E0] (AR v2)
Трек 9 : извлечено точно (доверие 4) [0B65D490] (AR v2)
Трек 10 : извлечено точно (доверие 4) [342041FF] (AR v2)
Трек 11 : извлечено точно (доверие 4) [BF83AA2D] (AR v2)
Трек 12 : извлечено точно (доверие 4) [4E08FDC6] (AR v2)
Трек 13 : извлечено точно (доверие 4) [88295A11] (AR v2)
Трек 14 : извлечено точно (доверие 4) [509D912C] (AR v2)

Все треки извлечены точно

Конец отчёта

==== Контрольная сумма отчёта DBA71ECDD4C6A5FC9FEC09AFD0E2B123A8DBCC0CF13C49D523361084E703FD97 ====


[CUETools log; Date: 15.06.2015 18:20:00; Version: 2.1.4]
[CTDB TOCID: zW9p7g0dMkJ1.mmavAP1R2tfw9M-] found.
Track | CTDB Status
1 | (1/1) Accurately ripped
2 | (1/1) Accurately ripped
3 | (1/1) Accurately ripped
4 | (1/1) Accurately ripped
5 | (1/1) Accurately ripped
6 | (1/1) Accurately ripped
7 | (1/1) Accurately ripped
8 | (1/1) Accurately ripped
9 | (1/1) Accurately ripped
10 | (1/1) Accurately ripped
11 | (1/1) Accurately ripped
12 | (1/1) Accurately ripped
13 | (1/1) Accurately ripped
14 | (1/1) Accurately ripped
[AccurateRip ID: 001d2c75-0137ba2c-bd0dc60e] found.
Track [ CRC | V2 ] Status
01 [245a4cf1|3e08f2b3] (0+4/4) Accurately ripped
02 [f19705e7|aca5012b] (0+4/4) Accurately ripped
03 [289ff455|7e1f4f05] (0+4/4) Accurately ripped
04 [ff3d91ad|fdc4c406] (0+4/4) Accurately ripped
05 [91206347|231018ab] (0+4/4) Accurately ripped
06 [84818214|e0813f80] (0+4/4) Accurately ripped
07 [02a7b62f|9cfc7ef9] (0+4/4) Accurately ripped
08 [b85275be|b53e74e0] (0+4/4) Accurately ripped
09 [cffcc79b|0b65d490] (0+4/4) Accurately ripped
10 [b941ef3f|342041ff] (0+4/4) Accurately ripped
11 [3f8b34a4|bf83aa2d] (0+4/4) Accurately ripped
12 [5133ef6c|4e08fdc6] (0+4/4) Accurately ripped
13 [a6a48de5|88295a11] (0+4/4) Accurately ripped
14 [43eb4672|509d912c] (0+4/4) Accurately ripped

Track Peak [ CRC32 ] [W/O NULL] [ LOG ]
– 97,0 [B50A7882] [D979BB60] CRC32
01 97,0 [F642BF81] [F7A3E8AB]
02 97,0 [8EC7327C] [B1230BBA]
03 97,0 [87D5C49E] [997DBF4A]
04 97,0 [D002362E] [83CCC8D4]
05 97,0 [DEAAD6F6] [C38A5594]
06 97,0 [650750A8] [666EB804]
07 63,0 [3E756CC1] [DA0DB54D]
08 97,0 [3793AA2E] [0570C3DF]
09 97,0 [80E83971] [B65D8AE7]
10 97,0 [FE9C0704] [147D1C03]
11 97,0 [81A34049] [8AADB966]
12 97,0 [27C53186] [08E7A282]
13 97,0 [0318D0AF] [505B0547]
14 97,0 [A5E243FB] [34F2DAD0]


Tony Carey's Planet P Project - G.O.D.B.O.X. (2014) [4CD Box Set] Repost

All thanks go to eloychik

Tony Carey's Planet P Project or Tony Carey's Planet P Project in my Blog

Download Tony Carey's Planet P Project - G.O.D.B.O.X. (2014):