Subcategories

Tony Joe White - Hard To Handle (2005)

Posted By: Designol
Tony Joe White - Hard To Handle (2005)

Tony Joe White - Hard To Handle (2005)
EAC | FLAC | Image (Cue&Log) ~ 258 Mb (incl 5%) | Mp3 (CBR320) ~ 128 Mb (incl 5%) | Scans included
Genre: Blues Rock, Soul | Label: Fruit Tree | # FT 836 | Time: 00:32:58

Tony Joe White's Hard to Handle album is built around a concert recording made in 1969 or 1970. It features White swaggering through a clutch of tough-as-rock blues and soul covers like Big Joe Williams' "Baby Please Don't Go," Otis Redding's "Hard to Handle" and Jimmy Reed's "You Got Me Runnin'," as well as some originals. "I Want You" is a sludgy, nasty groover that has some truly scuzzy guitar solos and sounds like it could have come off a Jon Spencer Blues Explosion record, one of White's trademark swampy story songs "Roosevelt & Ira Lee (Night of the Moccasin)," and "When You Touch Me," a slight and uninteresting jam. Too bad the whole concert sounds like it was recorded through a wall of steel wool. The vocals are muffled at times; the sound cuts in and out and generally sounds no better than a hastily made bootleg. A couple of the songs ("I Want You" in particular) show White to be a dynamic performer with a lot more guts than one might imagine. As a dubious bonus, the record kicks off with a version of "Polk Salad Annie" that sounds like it was taped off the radio. It might be an alternate take, maybe a demo, more likely it is exactly what it sounds like. It shouldn't be here regardless. Too bad a live version of the song isn't. Fruit Tree's release of the set is one of the better packaged releases of this material, which has been released four or five times by various labels.

Review by Tim Sendra, Allmusic.com

Tony Joe White at Allmusic
Tony Joe White Website
Tony Joe White at Wiki

Tracklist:

01. Polk Salad Annie (03:34)
02. Baby Please Don't Go (03:34)
03. I Want You (07:32)
04. Roosevelt & Ira Lee (Night Of The Moccasin) (04:41)
05. Hard To Handle (03:57)
06. When You Touch Me (05:12)
07. You Got Me Running (02:57)
08. You Got Me Running (Part 2) (01:28)Exact Audio Copy V1.0 beta 3 from 29. August 2011


EAC extraction logfile from 1. February 2015, 14:18

Tony Joe White / Hard To Handle

Used drive : PLEXTOR DVDR PX-891SA Adapter: 0 ID: 2

Read mode : Secure
Utilize accurate stream : Yes
Defeat audio cache : Yes
Make use of C2 pointers : No

Read offset correction : 6
Overread into Lead-In and Lead-Out : No
Fill up missing offset samples with silence : Yes
Delete leading and trailing silent blocks : No
Null samples used in CRC calculations : Yes
Used interface : Installed external ASPI interface

Used output format : User Defined Encoder
Selected bitrate : 320 kBit/s
Quality : High
Add ID3 tag : No
Command line compressor : C:\Program Files\Exact Audio Copy 1.0\Flac\flac.exe
Additional command line options : -V -8 -T "Date=%year%" -T "Genre=%genre%" %source%


TOC of the extracted CD

Track | Start | Length | Start sector | End sector
––––––––––––––––––––––––––––-
1 | 0:00.00 | 3:34.65 | 0 | 16114
2 | 3:34.65 | 3:34.55 | 16115 | 32219
3 | 7:09.45 | 7:32.39 | 32220 | 66158
4 | 14:42.09 | 4:41.66 | 66159 | 87299
5 | 19:24.00 | 3:57.01 | 87300 | 105075
6 | 23:21.01 | 5:12.17 | 105076 | 128492
7 | 28:33.18 | 2:57.34 | 128493 | 141801
8 | 31:30.52 | 1:28.07 | 141802 | 148408


Range status and errors

Selected range

Filename L:\Lossless Temp\Tony Joe White\Tony Joe White - Hard To Handle - 2002 (2005 Fruit Tree, FT 836, Italy)\Tony Joe White - Hard To Handle.wav

Peak level 99.4 %
Extraction speed 7.3 X
Range quality 100.0 %
Test CRC 95D4C13F
Copy CRC 95D4C13F
Copy OK

No errors occurred


AccurateRip summary

Track 1 not present in database
Track 2 not present in database
Track 3 not present in database
Track 4 not present in database
Track 5 not present in database
Track 6 not present in database
Track 7 not present in database
Track 8 not present in database

None of the tracks are present in the AccurateRip database

End of status report

==== Log checksum 8BA82FBCD05F33EE8D83B41DB5C46B800C2A57A10609F0D66EABE4A8A2A120FD ====

foobar2000 1.2 / Dynamic Range Meter 1.1.1
log date: 2015-10-01 22:02:27

––––––––––––––––––––––––––––––––––––––––
Analyzed: Tony Joe White / Hard To Handle
––––––––––––––––––––––––––––––––––––––––

DR Peak RMS Duration Track
––––––––––––––––––––––––––––––––––––––––
DR12 -0.78 dB -15.27 dB 3:35 01-Polk Salad Annie
DR12 -0.05 dB -16.95 dB 3:35 02-Baby Please Don't Go
DR13 -6.80 dB -22.45 dB 7:33 03-I Want You
DR13 -0.05 dB -15.00 dB 4:42 04-Roosevelt & Ira Lee (Night Of The Moccasin)
DR12 -0.05 dB -13.78 dB 3:57 05-Hard To Handle
DR13 -0.05 dB -15.30 dB 5:12 06-When You Touch Me
DR11 -0.05 dB -13.51 dB 2:57 07-You Got Me Running
DR11 -0.05 dB -13.14 dB 1:28 08-You Got Me Running (Part 2)
––––––––––––––––––––––––––––––––––––––––

Number of tracks: 8
Official DR value: DR12

Samplerate: 44100 Hz
Channels: 2
Bits per sample: 16
Bitrate: 844 kbps
Codec: FLAC
================================================================================

Tony Joe White - Hard To Handle (2005)

Tony Joe White - Hard To Handle (2005)