Subcategories

Yves Prin, Karl-Anton Rickenbacher - Tristan Murail: Gondwana, Desintegrations, Time and Again (2003)

Posted By: Designol
Yves Prin, Karl-Anton Rickenbacher - Tristan Murail: Gondwana, Desintegrations, Time and Again (2003)

Tristan Murail: Gondwana, Désintégrations, Time and Again (2003)
Orchestre National De France; Ensemble De L'Itinéraire; Yves Prin, conductor
Orchestre Du Beethovenhalle De Bonn; Karl-Anton Rickenbacher, conductor

EAC | FLAC | Tracks (Cue&Log) ~ 255 Mb | Mp3 (CBR320) ~ 128 Mb | Scans ~ 53 Mb | 00:55:59
Classical, Contemporary, Avant-Garde, Spectral Music | Label: MO 782175 | # MO 782175

Known for his scientific explorations of timbre and his innovative syntheses of acoustic and electronic techniques, Tristan Murail is regarded as a composer of the "spectral school." He accepts untempered sound as the basis for his expansive musical language, far removed from tonality, serialism, and aleatoric procedures. Gondwana was developed from electronic music concepts, and its expanding and contracting bands of complex sounds are analogous to those generated through a synthesizer. Shimmering clusters, washes of color, and massed, low sonorities evoke the slow shifting of continents. The Orchestre National de France, directed by Yves Prin, delivers this work with primordial grandeur and astonishing depth. Because of its smaller forces, Désintégrations is more focused and intense than Gondwana, though no less cosmic in its implications. The Ensemble de l'Itinéraire blends effectively with the electronic tape, so it is difficult to distinguish acoustic from synthetic sounds. Time and Again is a departure from the familiar practice of slowly unfolding processes, for its chopped-up material is jumbled, as if sequential events were reordered in a time machine. The Orchester der Beethovenhalle, Bonn, conducted by Karl Anton Rickenbacher, gives a powerful performance, and Naive's exceptional recording spares none of the work's rawness and force.

Review by Blair Sanderson, Allmusic.com

Yves Prin, Karl-Anton Rickenbacher - Tristan Murail: Gondwana, Desintegrations, Time and Again (2003)



Orchestre National De France
Ensemble De L'Itinéraire
Yves Prin, conductor (1-2)

Orchestre Du Beethovenhalle De Bonn
Karl-Anton Rickenbacher, conductor (3)

Tracklist:

1. Gondwana (1980) for orchestra (16:39)

2. Désintégrations (1982-83) for ensemble and electronics (22:33)

3. Time And Again (1986) for orchestra (16:47)


Exact Audio Copy V1.0 beta 2 from 29. April 2011

EAC extraction logfile from 2. July 2013, 22:50

Tristan Murail / Gondwana, Désintégrations, Time and Again

Used drive : SlimtypeDVD A DS8A5SH Adapter: 0 ID: 1

Read mode : Secure
Utilize accurate stream : Yes
Defeat audio cache : Yes
Make use of C2 pointers : No

Read offset correction : 6
Overread into Lead-In and Lead-Out : No
Fill up missing offset samples with silence : Yes
Delete leading and trailing silent blocks : No
Null samples used in CRC calculations : No
Used interface : Native Win32 interface for Win NT & 2000
Gap handling : Appended to previous track

Used output format : User Defined Encoder
Selected bitrate : 128 kBit/s
Quality : High
Add ID3 tag : No
Command line compressor : C:\Program Files (x86)\Exact Audio Copy\Flac\flac.exe
Additional command line options : -V -8 -T "Genre=%genre%" -T "Artist=%artist%" -T "Title=%title%" -T "Album=%albumtitle%" -T "Date=%year%" -T "Tracknumber=%tracknr%" -T "Comment=%comment%" %source%


TOC of the extracted CD

Track | Start | Length | Start sector | End sector
––––––––––––––––––––––––––––-
1 | 0:00.00 | 16:38.53 | 0 | 74902
2 | 16:38.53 | 22:32.56 | 74903 | 176358
3 | 39:11.34 | 16:47.34 | 176359 | 251917


Track 1

Filename D:\Gondwana, Désintégrations, Time and Again\01. Gondwana.wav

Pre-gap length 0:00:02.00

Peak level 33.9 %
Extraction speed 3.2 X
Track quality 100.0 %
Test CRC A6A19CF9
Copy CRC A6A19CF9
Copy OK

Track 2

Filename D:\Gondwana, Désintégrations, Time and Again\02. Désintégrations.wav

Pre-gap length 0:00:02.00

Peak level 100.0 %
Extraction speed 4.4 X
Track quality 100.0 %
Test CRC 331691EA
Copy CRC 331691EA
Copy OK

Track 3

Filename D:\Gondwana, Désintégrations, Time and Again\03. Time and Again.wav

Pre-gap length 0:00:02.00

Peak level 100.0 %
Extraction speed 5.3 X
Track quality 100.0 %
Test CRC EBCB0E4A
Copy CRC EBCB0E4A
Copy OK

No errors occurred

End of status report

==== Log checksum 8D17760F5E7C6883694578D01CE97B7CC31CB61854FA73CF4BBD6DB6A21D81EE ====

[CUETools log; Date: 20.11.2017 19:44:51; Version: 2.1.4]
[CTDB TOCID: WZ3oSdHCNqv2ZX3rPmuwGZgaky8-] found.
Track | CTDB Status
1 | (15/15) Accurately ripped
2 | (15/15) Accurately ripped
3 | (15/15) Accurately ripped
[AccurateRip ID: 0007ad8c-0019bc1c-100d1e03] found.
Track [ CRC | V2 ] Status
01 [fc45f449|20a262a7] (03+07/10) Accurately ripped
02 [6f6c643c|31efba3c] (03+07/10) Accurately ripped
03 [e4180eb3|f405b0ad] (03+07/10) Accurately ripped

Track Peak [ CRC32 ] [W/O NULL] [ LOG ]
– 100,0 [B37D45E8] [91AA3C28]
01 33,9 [00EAC483] [A6A19CF9] W/O NULL
02 100,0 [45E1D6A4] [331691EA] W/O NULL
03 100,0 [AABB0821] [EBCB0E4A] W/O NULL

foobar2000 1.2 / Dynamic Range Meter 1.1.1
log date: 2017-11-20 19:33:50

––––––––––––––––––––––––––––––––––––––––
Analyzed: Tristan Murail / Gondwana, Desintegrations, Time and Again
––––––––––––––––––––––––––––––––––––––––

DR Peak RMS Duration Track
––––––––––––––––––––––––––––––––––––––––
DR15 -9.40 dB -30.31 dB 16:39 01-Gondwana
DR15 0.00 dB -20.55 dB 22:33 02-Desintegrations
DR17 0.00 dB -21.81 dB 16:47 03-Time and Again
––––––––––––––––––––––––––––––––––––––––

Number of tracks: 3
Official DR value: DR16

Samplerate: 44100 Hz
Channels: 2
Bits per sample: 16
Bitrate: 636 kbps
Codec: FLAC
================================================================================

Yves Prin, Karl-Anton Rickenbacher - Tristan Murail: Gondwana, Desintegrations, Time and Again (2003)

Yves Prin, Karl-Anton Rickenbacher - Tristan Murail: Gondwana, Desintegrations, Time and Again (2003)

All thanks to original releaser - desordenado

More interesting music in My Blog