Tags
Language
Tags

Trudy Pitts & Pat Martino - Legends Of Acid Jazz [Recorded 1967] (1998)

Posted By: gribovar
Trudy Pitts & Pat Martino - Legends Of Acid Jazz [Recorded 1967] (1998)

Trudy Pitts & Pat Martino - Legends Of Acid Jazz [Recorded 1967] (1998)
EAC Rip | FLAC (tracks+.cue+log) - 455 MB | MP3 CBR 320 kbps (LAME 3.93) - 189 MB | Covers (8 MB) included
Genre: Soul Jazz, Post-Bop | RAR 3% Rec. | Label: Prestige Records (PRCD-24208-2)

Anyone who likes the B-3 Hammond organ soul-jazz style and doesn't mind a bit of pop-lounge spice occasionally stirred into the sauce should check out this compilation. It combines Pitts' first two LPs, Introducing the Fabulous Trudy Pitts and These Blues of Mine (both from 1967) on one CD. Introducing is a strong debut, divided between covers of pretty mainstream standards ("The Spanish Flea," "It Was a Very Good Year," "Matchmaker, Matchmaker") and gutsier straight soul-jazz, including four originals by Bill Carney, whose "Organology" is a highlight for its nervous, bopping edge. The languorous swells of the opening number "Steppin' in Minor" make you think you're in for a set of swank lounge-jazz, but the pace quickly picks up, and Pitts really catches fire on "Take Five," jamming a lot of notes into her improvisation without sounding self-indulgent. Pat Martino's guitar is graceful and sensitive throughout, and the trio of Pitts, Martino, and Carney is embellished by Abdu Johnson on conga. These Blues of Mine employed the same kind of approach as her debut. Better than expected soul-jazz interpretations of contemporary rock and pop songs ("House of the Rising Sun," "Eleanor Rigby," "A Whiter Shade of Pale," the theme from Man and a Woman) stand alongside jazz originals from drummer Bill Carney, with Pitts herself contributing "Count Nine." Pat Martino is again along to provide fine guitar accompaniment, with Pitts occasionally adding soul-pop vocals (as on "Eleanor Rigby"). It works best when they cut to straight, burning soul-jazz groovers, though, as on Pitts' moody "Count Nine," executed in a challenging 9/12 rhythm. This CD is billed to " Trudy Pitts with Pat Martino," although Pitts had sole billing on the original LPs.
Tracklist:
01. Steppin' in Minor
02. The Spanish Flea
03. Something Wonderful
04. Take Five
05. It Was a Very Good Year
06. Siete
07. Night Song
08. Fiddlin'
09. Matchmaker, Matchmaker
10. Organology
11. The House of the Rising Sun
12. Just Us Two
13. Eleanor Rigby
14. Count Nine
15. Man and Woman
16. A Whiter Shade of Pale
17. Teddy Makes Three
18. These Blues of Mine
19. What the World Needs Now

Total time: 01:16:59

Exact Audio Copy V0.99 prebeta 5 from 4. May 2009

EAC extraction logfile from 27. January 2011, 16:39

Trudy Pitts w/Pat Martino / Legends Of Acid Jazz

Used drive : PHILIPS SPD2519T Adapter: 1 ID: 0

Read mode : Secure
Utilize accurate stream : Yes
Defeat audio cache : Yes
Make use of C2 pointers : No

Read offset correction : 6
Overread into Lead-In and Lead-Out : No
Fill up missing offset samples with silence : Yes
Delete leading and trailing silent blocks : No
Null samples used in CRC calculations : Yes
Used interface : Installed external ASPI interface
Gap handling : Appended to previous track

Used output format : User Defined Encoder
Selected bitrate : 1024 kBit/s
Quality : High
Add ID3 tag : No
Command line compressor : C:\Program Files\FLAC\flac.exe
Additional command line options : -8 -V -T "ARTIST=%a" -T "TITLE=%t" -T "ALBUM=%g" -T "DATE=%y" -T "TRACKNUMBER=%n" -T "GENRE=%m" -T "COMMENT=EAC FLAC -8" %s


TOC of the extracted CD

Track | Start | Length | Start sector | End sector
––––––––––––––––––––––––––––-
1 | 0:00.00 | 4:35.27 | 0 | 20651
2 | 4:35.27 | 4:21.35 | 20652 | 40261
3 | 8:56.62 | 3:28.73 | 40262 | 55934
4 | 12:25.60 | 4:30.67 | 55935 | 76251
5 | 16:56.52 | 3:52.00 | 76252 | 93651
6 | 20:48.52 | 4:04.50 | 93652 | 112001
7 | 24:53.27 | 3:58.03 | 112002 | 129854
8 | 28:51.30 | 3:56.62 | 129855 | 147616
9 | 32:48.17 | 4:16.73 | 147617 | 166889
10 | 37:05.15 | 4:06.47 | 166890 | 185386
11 | 41:11.62 | 3:43.35 | 185387 | 202146
12 | 44:55.22 | 5:07.18 | 202147 | 225189
13 | 50:02.40 | 2:55.45 | 225190 | 238359
14 | 52:58.10 | 4:18.22 | 238360 | 257731
15 | 57:16.32 | 4:24.73 | 257732 | 277604
16 | 61:41.30 | 3:15.50 | 277605 | 292279
17 | 64:57.05 | 3:07.10 | 292280 | 306314
18 | 68:04.15 | 5:32.07 | 306315 | 331221
19 | 73:36.22 | 3:23.18 | 331222 | 346464


Track 1

Filename I:\S320-New Rip\Trudy Pitts with Pat Martino - Legends Of Acid Jazz (1967)\01 - Steppin' In Minor.wav

Pre-gap length 0:00:02.00

Peak level 99.9 %
Track quality 100.0 %
Test CRC B999BE63
Copy CRC B999BE63
Cannot be verified as accurate (confidence 2) [CFB6A460], AccurateRip returned [F7624DF5]
Copy OK

Track 2

Filename I:\S320-New Rip\Trudy Pitts with Pat Martino - Legends Of Acid Jazz (1967)\02 - The Spanish Flea.wav

Pre-gap length 0:00:02.72

Peak level 89.1 %
Track quality 100.0 %
Test CRC 612C03F7
Copy CRC 612C03F7
Cannot be verified as accurate (confidence 2) [534EBAB1], AccurateRip returned [08E34E79]
Copy OK

Track 3

Filename I:\S320-New Rip\Trudy Pitts with Pat Martino - Legends Of Acid Jazz (1967)\03 - Something Wonderful.wav

Pre-gap length 0:00:02.55

Peak level 79.4 %
Track quality 100.0 %
Test CRC 3C10880E
Copy CRC 3C10880E
Cannot be verified as accurate (confidence 2) [59E2FC7D], AccurateRip returned [67348620]
Copy OK

Track 4

Filename I:\S320-New Rip\Trudy Pitts with Pat Martino - Legends Of Acid Jazz (1967)\04 - Take Five.wav

Pre-gap length 0:00:03.40

Peak level 79.4 %
Track quality 100.0 %
Test CRC F8ED7F18
Copy CRC F8ED7F18
Cannot be verified as accurate (confidence 2) [1E5F954C], AccurateRip returned [799B0D29]
Copy OK

Track 5

Filename I:\S320-New Rip\Trudy Pitts with Pat Martino - Legends Of Acid Jazz (1967)\05 - It Was A Very Good Year.wav

Pre-gap length 0:00:01.65

Peak level 100.0 %
Track quality 100.0 %
Test CRC 215127BE
Copy CRC 215127BE
Cannot be verified as accurate (confidence 2) [F64695E9], AccurateRip returned [5C995A4A]
Copy OK

Track 6

Filename I:\S320-New Rip\Trudy Pitts with Pat Martino - Legends Of Acid Jazz (1967)\06 - Siete.wav

Pre-gap length 0:00:03.27

Peak level 96.7 %
Track quality 100.0 %
Test CRC 40016097
Copy CRC 40016097
Cannot be verified as accurate (confidence 2) [DF21FB0C], AccurateRip returned [F05C2CFA]
Copy OK

Track 7

Filename I:\S320-New Rip\Trudy Pitts with Pat Martino - Legends Of Acid Jazz (1967)\07 - Night Song.wav

Pre-gap length 0:00:03.07

Peak level 89.1 %
Track quality 100.0 %
Test CRC F158FD0C
Copy CRC F158FD0C
Cannot be verified as accurate (confidence 2) [DB7D38EE], AccurateRip returned [5824A2F9]
Copy OK

Track 8

Filename I:\S320-New Rip\Trudy Pitts with Pat Martino - Legends Of Acid Jazz (1967)\08 - Fiddlin'.wav

Pre-gap length 0:00:03.55

Peak level 99.9 %
Track quality 100.0 %
Test CRC 7924066A
Copy CRC 7924066A
Cannot be verified as accurate (confidence 2) [A0B8D327], AccurateRip returned [64049EFB]
Copy OK

Track 9

Filename I:\S320-New Rip\Trudy Pitts with Pat Martino - Legends Of Acid Jazz (1967)\09 - Matchmaker, Matchmaker.wav

Pre-gap length 0:00:03.50

Peak level 87.0 %
Track quality 100.0 %
Test CRC EFB628E1
Copy CRC EFB628E1
Cannot be verified as accurate (confidence 2) [7374AA7D], AccurateRip returned [0834DB6E]
Copy OK

Track 10

Filename I:\S320-New Rip\Trudy Pitts with Pat Martino - Legends Of Acid Jazz (1967)\10 - Organology.wav

Pre-gap length 0:00:03.56

Peak level 76.7 %
Track quality 100.0 %
Test CRC 168F0071
Copy CRC 168F0071
Cannot be verified as accurate (confidence 2) [C20BC6D7], AccurateRip returned [1081F15E]
Copy OK

Track 11

Filename I:\S320-New Rip\Trudy Pitts with Pat Martino - Legends Of Acid Jazz (1967)\11 - The House Of The Rising Sun.wav

Pre-gap length 0:00:03.67

Peak level 94.8 %
Track quality 99.9 %
Test CRC 15811D40
Copy CRC 15811D40
Cannot be verified as accurate (confidence 2) [C9423BAE], AccurateRip returned [B92E3BBE]
Copy OK

Track 12

Filename I:\S320-New Rip\Trudy Pitts with Pat Martino - Legends Of Acid Jazz (1967)\12 - Just Us Two.wav

Pre-gap length 0:00:04.12

Peak level 96.8 %
Track quality 100.0 %
Test CRC 316DBED7
Copy CRC 316DBED7
Cannot be verified as accurate (confidence 2) [F674B470], AccurateRip returned [719A4114]
Copy OK

Track 13

Filename I:\S320-New Rip\Trudy Pitts with Pat Martino - Legends Of Acid Jazz (1967)\13 - Eleanor Rigby.wav

Pre-gap length 0:00:03.63

Peak level 100.0 %
Track quality 100.0 %
Test CRC 87062293
Copy CRC 87062293
Cannot be verified as accurate (confidence 2) [1E2113FD], AccurateRip returned [C45F52E4]
Copy OK

Track 14

Filename I:\S320-New Rip\Trudy Pitts with Pat Martino - Legends Of Acid Jazz (1967)\14 - Count Nine.wav

Pre-gap length 0:00:03.73

Peak level 87.6 %
Track quality 99.9 %
Test CRC E834FC3E
Copy CRC E834FC3E
Cannot be verified as accurate (confidence 2) [B3BF2F8B], AccurateRip returned [F03EF108]
Copy OK

Track 15

Filename I:\S320-New Rip\Trudy Pitts with Pat Martino - Legends Of Acid Jazz (1967)\15 - Man & A Woman.wav

Pre-gap length 0:00:02.35

Peak level 100.0 %
Track quality 99.9 %
Test CRC 99E654F3
Copy CRC 99E654F3
Cannot be verified as accurate (confidence 2) [410C5642], AccurateRip returned [40C60A02]
Copy OK

Track 16

Filename I:\S320-New Rip\Trudy Pitts with Pat Martino - Legends Of Acid Jazz (1967)\16 - A Whiter Shade Of Pale.wav

Pre-gap length 0:00:04.60

Peak level 89.3 %
Track quality 100.0 %
Test CRC 99CEFD9A
Copy CRC 99CEFD9A
Track not present in AccurateRip database
Copy OK

Track 17

Filename I:\S320-New Rip\Trudy Pitts with Pat Martino - Legends Of Acid Jazz (1967)\17 - Teddy Makes Three.wav

Pre-gap length 0:00:05.40

Peak level 100.0 %
Track quality 100.0 %
Test CRC 2BCAD5C3
Copy CRC 2BCAD5C3
Track not present in AccurateRip database
Copy OK

Track 18

Filename I:\S320-New Rip\Trudy Pitts with Pat Martino - Legends Of Acid Jazz (1967)\18 - These Blues Of Mine.wav

Pre-gap length 0:00:04.08

Peak level 95.5 %
Track quality 100.0 %
Test CRC 6BF2E2DC
Copy CRC 6BF2E2DC
Track not present in AccurateRip database
Copy OK

Track 19

Filename I:\S320-New Rip\Trudy Pitts with Pat Martino - Legends Of Acid Jazz (1967)\19 - What The World Needs Now.wav

Pre-gap length 0:00:04.20

Peak level 99.0 %
Track quality 99.9 %
Test CRC 40652474
Copy CRC 40652474
Track not present in AccurateRip database
Copy OK


15 track(s) could not be verified as accurate
4 track(s) not present in the AccurateRip database

No tracks could be verified as accurate
You may have a different pressing from the one(s) in the database

No errors occurred

End of status report

[CUETools log; Date: 23.06.2020 16:57:57; Version: 2.1.4]
[CTDB TOCID: zpdMfX_E2Cehf07MKTbfwDj0ISI-] found.
Track | CTDB Status
1 | (13/13) Accurately ripped
2 | (13/13) Accurately ripped
3 | (13/13) Accurately ripped
4 | (13/13) Accurately ripped
5 | (13/13) Accurately ripped
6 | (13/13) Accurately ripped
7 | (13/13) Accurately ripped
8 | (13/13) Accurately ripped
9 | (13/13) Accurately ripped
10 | (13/13) Accurately ripped
11 | (13/13) Accurately ripped
12 | (13/13) Accurately ripped
13 | (13/13) Accurately ripped
14 | (13/13) Accurately ripped
15 | (13/13) Accurately ripped
16 | (13/13) Accurately ripped
17 | (13/13) Accurately ripped
18 | (13/13) Accurately ripped
19 | (13/13) Accurately ripped
[AccurateRip ID: 00357e9c-02ea0639-20120b13] found.
Track [ CRC | V2 ] Status
01 [cfb6a460|b50128df] (0+2/8) Accurately ripped
02 [534ebab1|0d584e2f] (0+2/8) Accurately ripped
03 [59e2fc7d|e2a477d4] (0+2/8) Accurately ripped
04 [1e5f954c|b28b5bb8] (0+2/8) Accurately ripped
05 [f64695e9|97139e6e] (0+2/8) Accurately ripped
06 [df21fb0c|ecc8c09f] (0+2/8) Accurately ripped
07 [db7d38ee|fd0926ca] (0+2/8) Accurately ripped
08 [a0b8d327|36a96fa7] (0+2/8) Accurately ripped
09 [7374aa7d|96aa8e6c] (0+2/8) Accurately ripped
10 [c20bc6d7|3b2c245d] (0+2/8) Accurately ripped
11 [c9423bae|621bc1a5] (0+2/8) Accurately ripped
12 [f674b470|53c24857] (0+2/8) Accurately ripped
13 [1e2113fd|5a53a213] (0+2/8) Accurately ripped
14 [b3bf2f8b|2f5a87d5] (0+2/8) Accurately ripped
15 [410c5642|0af47ac8] (0+2/8) Accurately ripped
16 [e615003e|ebbc0ce7] (0+2/6) Accurately ripped
17 [4d44714a|109f3712] (0+2/6) Accurately ripped
18 [9b50b731|9eeb402a] (0+2/6) Accurately ripped
19 [be2b202a|7c30c8f0] (0+2/6) Accurately ripped
Offsetted by 659:
01 [f7624df5] (2/8) Accurately ripped
02 [08e34e79] (2/8) Accurately ripped
03 [67348620] (2/8) Accurately ripped
04 [799b0d29] (2/8) Accurately ripped
05 [5c995a4a] (2/8) Accurately ripped
06 [f05c2cfa] (2/8) Accurately ripped
07 [5824a2f9] (2/8) Accurately ripped
08 [64049efb] (2/8) Accurately ripped
09 [0834db6e] (2/8) Accurately ripped
10 [1081f15e] (2/8) Accurately ripped
11 [b92e3bbe] (2/8) Accurately ripped
12 [719a4114] (2/8) Accurately ripped
13 [c45f52e4] (2/8) Accurately ripped
14 [f03ef108] (2/8) Accurately ripped
15 [40c60a02] (2/8) Accurately ripped
16 [19a0e087] (0/6) No match (V2 was not tested)
17 [2f301fd1] (0/6) No match (V2 was not tested)
18 [7ac0a230] (0/6) No match (V2 was not tested)
19 [e8294200] (0/6) No match (V2 was not tested)

Track Peak [ CRC32 ] [W/O NULL] [ LOG ]
– 100,0 [0AE00300] [B521ED9D]
01 99,9 [B999BE63] [75527D11] CRC32
02 89,1 [612C03F7] [5EC9129D] CRC32
03 79,4 [3C10880E] [27897E7A] CRC32
04 79,4 [F8ED7F18] [F2B0DE88] CRC32
05 100,0 [215127BE] [B04ECAB2] CRC32
06 96,7 [40016097] [60DD3AE9] CRC32
07 89,1 [F158FD0C] [9486CEA6] CRC32
08 99,9 [7924066A] [3202577F] CRC32
09 87,0 [EFB628E1] [80ECAFE8] CRC32
10 76,7 [168F0071] [BD76CF2E] CRC32
11 94,8 [15811D40] [7013E771] CRC32
12 96,8 [316DBED7] [03A086C5] CRC32
13 100,0 [87062293] [197DB6ED] CRC32
14 87,6 [E834FC3E] [9E24FB3B] CRC32
15 100,0 [99E654F3] [EA6B17F4] CRC32
16 89,3 [99CEFD9A] [2775C437] CRC32
17 100,0 [2BCAD5C3] [3FBF7701] CRC32
18 95,5 [6BF2E2DC] [A6F727D9] CRC32
19 99,0 [40652474] [8248116C] CRC32

Thanks to the original releaser