Subcategories

U2: Singles Collection. Part 04 (1997 - 2001)

Posted By: v3122
U2: Singles Collection. Part 04 (1997 - 2001)

U2: Singles Collection. Part 04 (1997 - 2001)
EAC | Flac(Image) + Cue + Log & MP3 CBR 320Kbps
12CD | Label: Various | ~ 1435 or 632 Mb | Artwork(png) -> 182 Mb
Post Punk, New Wave, Rock

U2 are an Irish rock band from Dublin formed in 1976. The group consists of Bono (lead vocals and rhythm guitar), the Edge (lead guitar, keyboards, and backing vocals), Adam Clayton (bass guitar), and Larry Mullen Jr. (drums and percussion). Initially rooted in post-punk, U2's musical style has evolved throughout their career, yet has maintained an anthemic sound built on Bono's expressive vocals and the Edge's effects-based guitar textures. Their lyrics, often embellished with spiritual imagery, focus on personal and sociopolitical themes. Popular for their live performances, the group have staged several ambitious and elaborate tours over their career.

The band formed as teenagers while attending Mount Temple Comprehensive School, when they had limited musical proficiency. Within four years, they signed with Island Records and released their debut album, Boy (1980). Subsequent work such as their first UK number-one album, War (1983), and the singles "Sunday Bloody Sunday" and "Pride (In the Name of Love)" helped establish U2's reputation as a politically and socially conscious group. By the mid-1980s, they had become renowned globally for their live act, highlighted by their performance at Live Aid in 1985. The group's fifth album, The Joshua Tree (1987), made them international superstars and was their greatest critical and commercial success. Topping music charts around the world, it produced their only number-one singles in the US, "With or Without You" and "I Still Haven't Found What I'm Looking For".

Facing creative stagnation and a backlash following their documentary/double album, Rattle and Hum (1988), U2 reinvented themselves in the 1990s through a new musical direction and public image. Beginning with their acclaimed seventh album, Achtung Baby (1991), and the multimedia-intensive Zoo TV Tour, the band integrated influences from alternative rock, electronic dance music, and industrial music into their sound, and embraced a more ironic, flippant image. This experimentation continued through their ninth album, Pop (1997), and the PopMart Tour, which were mixed successes. U2 regained critical and commercial favour with the records All That You Can't Leave Behind (2000) and How to Dismantle an Atomic Bomb (2004), which established a more conventional, mainstream sound for the group. Their U2 360° Tour of 2009–2011 is the highest-attended and highest-grossing concert tour in history. The group most recently released the companion albums Songs of Innocence (2014) and Songs of Experience (2017), the former of which received criticism for its pervasive, no-cost release through the iTunes Store.

U2 have released 14 studio albums and are one of the world's best-selling music artists in history, having sold more than 170 million records worldwide. They have won 22 Grammy Awards, more than any other band, and in 2005, they were inducted into the Rock and Roll Hall of Fame in their first year of eligibility. Rolling Stone ranked U2 at number 22 on its list of the "100 Greatest Artists of All Time". Throughout their career, as a band and as individuals, they have campaigned for human rights and social justice causes, including Amnesty International, Jubilee 2000, the ONE/DATA campaigns, Product Red, War Child, and Music Rising…

~ wiki
U2: Singles Collection. Part 04 (1997 - 2001)

U2: Singles Collection. Part 04 (1997 - 2001):

U2: Singles Collection. Part 04 (1997 - 2001)

Tracklist CD01 - 1997 - Staring At The Sun [Canada, Island 422-854 973-2]:

01.Staring At The Sun (Monster Truck Mix) (5:08)
02.Staring At The Sun (Sad Bastards Mix) (6:21)
03.North And South Of The River (4:39)
04.Staring At The Sun (Lab Rat Mix) (5:06)

Exact Audio Copy V0.99 prebeta 4 from 23. January 2008

EAC extraction logfile from 8. September 2008, 20:49

U2 / Staring At The Sun

Used drive : HL-DT-STDVDRAM GH20NS10 Adapter: 3 ID: 0

Read mode : Secure
Utilize accurate stream : Yes
Defeat audio cache : Yes
Make use of C2 pointers : No

Read offset correction : 667
Overread into Lead-In and Lead-Out : No
Fill up missing offset samples with silence : Yes
Delete leading and trailing silent blocks : No
Null samples used in CRC calculations : Yes
Used interface : Native Win32 interface for Win NT & 2000
Gap handling : Appended to previous track

Used output format : User Defined Encoder
Selected bitrate : 768 kBit/s
Quality : High
Add ID3 tag : No
Command line compressor : C:\Program Files\FLAC\flac.exe
Additional command line options : -V -8 -T "artist=%a" -T "title=%t" -T "album=%g" -T "date=%y" -T "tracknumber=%n" %s


TOC of the extracted CD

Track | Start | Length | Start sector | End sector
––––––––––––––––––––––––––––-
1 | 0:00.00 | 5:07.52 | 0 | 23076
2 | 5:07.52 | 6:20.63 | 23077 | 51639
3 | 11:28.40 | 4:39.02 | 51640 | 72566
4 | 16:07.42 | 5:06.33 | 72567 | 95549


Track 1

Filename C:\Hi there RIAA, What's up IFPI\U2 - Staring At The Sun (CDS)\01 - Staring At The Sun (Monster Truck Mix).wav

Pre-gap length 0:00:02.00

Peak level 100.0 %
Track quality 100.0 %
Test CRC 45530ED7
Copy CRC 45530ED7
Track not present in AccurateRip database
Copy OK

Track 2

Filename C:\Hi there RIAA, What's up IFPI\U2 - Staring At The Sun (CDS)\02 - Staring At The Sun (Sad Bastards Mix).wav

Pre-gap length 0:00:01.69

Peak level 99.9 %
Track quality 100.0 %
Test CRC BCE57985
Copy CRC BCE57985
Track not present in AccurateRip database
Copy OK

Track 3

Filename C:\Hi there RIAA, What's up IFPI\U2 - Staring At The Sun (CDS)\03 - North And South Of The River.wav

Pre-gap length 0:00:02.13

Peak level 99.9 %
Track quality 100.0 %
Test CRC 52FE039D
Copy CRC 52FE039D
Track not present in AccurateRip database
Copy OK

Track 4

Filename C:\Hi there RIAA, What's up IFPI\U2 - Staring At The Sun (CDS)\04 - Staring At The Sun (Lab Rat Mix).wav

Pre-gap length 0:00:00.86

Peak level 100.0 %
Track quality 100.0 %
Test CRC 57467955
Copy CRC 57467955
Track not present in AccurateRip database
Copy OK


None of the tracks are present in the AccurateRip database

No errors occurred

End of status report


U2: Singles Collection. Part 04 (1997 - 2001)

Tracklist CD02 - 1997 - Staring At The Sun [Japan, Island PHCR-8397]:

01.Staring at the Sun (4:39)
02.North and South of the River (4:39)
03.Your Blue Room (5:27)

Exact Audio Copy V1.3 from 2. September 2016

EAC extraction logfile from 7. January 2018, 11:29

U2 / Staring at the Sun

Used drive : PLEXTOR DVDR PX-760A Adapter: 1 ID: 0

Read mode : Secure
Utilize accurate stream : Yes
Defeat audio cache : Yes
Make use of C2 pointers : No

Read offset correction : 30
Overread into Lead-In and Lead-Out : No
Fill up missing offset samples with silence : Yes
Delete leading and trailing silent blocks : No
Null samples used in CRC calculations : Yes
Used interface : Native Win32 interface for Win NT & 2000
Gap handling : Appended to previous track

Used output format : User Defined Encoder
Selected bitrate : 896 kBit/s
Quality : High
Add ID3 tag : No
Command line compressor : C:\Program Files (x86)\Exact Audio Copy\Flac\flac.exe
Additional command line options : -V -8 -T "Genre=%genre%" -T "Artist=%artist%" -T "Title=%title%" -T "Album=%albumtitle%" -T "Date=%year%" -T "Tracknumber=%tracknr%" -T "Comment=%comment%" %source%


TOC of the extracted CD

Track | Start | Length | Start sector | End sector
––––––––––––––––––––––––––––-
1 | 0:00.00 | 4:38.62 | 0 | 20911
2 | 4:38.62 | 4:38.53 | 20912 | 41814
3 | 9:17.40 | 5:27.35 | 41815 | 66374


Track 1

Filename D:\EAC_rips\01 - Staring at the Sun.wav

Pre-gap length 0:00:02.00

Peak level 98.4 %
Extraction speed 4.2 X
Track quality 100.0 %
Test CRC 76A06441
Copy CRC 76A06441
Cannot be verified as accurate (confidence 20) [F8AF867D], AccurateRip returned [BB260D90] (AR v2)
Copy OK

Track 2

Filename D:\EAC_rips\02 - North and South of the River.wav

Pre-gap length 0:00:02.05

Peak level 99.9 %
Extraction speed 4.7 X
Track quality 100.0 %
Test CRC C1C08E9F
Copy CRC C1C08E9F
Cannot be verified as accurate (confidence 20) [F50A50E6], AccurateRip returned [4018A981] (AR v2)
Copy OK

Track 3

Filename D:\EAC_rips\03 - Your Blue Room.wav

Pre-gap length 0:00:01.20

Peak level 100.0 %
Extraction speed 5.2 X
Track quality 100.0 %
Test CRC D716CE82
Copy CRC D716CE82
Cannot be verified as accurate (confidence 19) [E575B31F], AccurateRip returned [50324BF8] (AR v2)
Copy OK


No tracks could be verified as accurate
You may have a different pressing from the one(s) in the database

No errors occurred

End of status report

–– CUETools DB Plugin V2.1.6

[CTDB TOCID: JIOH8rR1nDfNJ0JDk7Q.XmXBE6M-] found
Submit result: already submitted
Track | CTDB Status
1 | (40/62) Accurately ripped
2 | (41/62) Accurately ripped
3 | (41/62) Accurately ripped


==== Log checksum E22483B3823CF86BFEAEE3DA3B39632BFA86A811C3E36D1E8B36FAFD0CFA561D ====


U2: Singles Collection. Part 04 (1997 - 2001)

Tracklist CD03 - 1998 - Sweetest Thing [EU, Island CID 727, 572 464-2]:

01.Sweetest Thing (The Single Mix) (3:03)
02.Stories For Boys (Live From Boston) (3:11)
03.Out Of Control (Live From Boston) (4:25)

Exact Audio Copy V1.3 from 2. September 2016

EAC extraction logfile from 18. February 2018, 13:13

U2 / Sweetest Thing

Used drive : PLEXTOR DVDR PX-760A Adapter: 1 ID: 0

Read mode : Secure
Utilize accurate stream : Yes
Defeat audio cache : Yes
Make use of C2 pointers : No

Read offset correction : 30
Overread into Lead-In and Lead-Out : No
Fill up missing offset samples with silence : Yes
Delete leading and trailing silent blocks : No
Null samples used in CRC calculations : Yes
Used interface : Native Win32 interface for Win NT & 2000
Gap handling : Appended to previous track

Used output format : User Defined Encoder
Selected bitrate : 896 kBit/s
Quality : High
Add ID3 tag : No
Command line compressor : C:\Program Files (x86)\Exact Audio Copy\Flac\flac.exe
Additional command line options : -V -8 -T "Genre=%genre%" -T "Artist=%artist%" -T "Title=%title%" -T "Album=%albumtitle%" -T "Date=%year%" -T "Tracknumber=%tracknr%" -T "Comment=%comment%" %source%


TOC of the extracted CD

Track | Start | Length | Start sector | End sector
––––––––––––––––––––––––––––-
1 | 0:00.00 | 3:02.40 | 0 | 13689
2 | 3:02.40 | 3:10.62 | 13690 | 28001
3 | 6:13.27 | 4:25.30 | 28002 | 47906


Track 1

Filename D:\EAC_rips\01 - Sweetest Thing (The Single Mix).wav

Pre-gap length 0:00:02.00

Peak level 100.0 %
Extraction speed 3.9 X
Track quality 100.0 %
Test CRC AB812BB2
Copy CRC AB812BB2
Accurately ripped (confidence 10) [B10DE8EE] (AR v2)
Copy OK

Track 2

Filename D:\EAC_rips\02 - Stories For Boys (Live From Boston).wav

Pre-gap length 0:00:01.23

Peak level 100.0 %
Extraction speed 4.2 X
Track quality 100.0 %
Test CRC 0CA3549E
Copy CRC 0CA3549E
Accurately ripped (confidence 10) [1FC04582] (AR v2)
Copy OK

Track 3

Filename D:\EAC_rips\03 - Out Of Control (Live From Boston).wav

Pre-gap length 0:00:09.62

Peak level 100.0 %
Extraction speed 4.7 X
Track quality 100.0 %
Test CRC 1CB3AC27
Copy CRC 1CB3AC27
Accurately ripped (confidence 10) [1E3DFD86] (AR v2)
Copy OK


All tracks accurately ripped

No errors occurred

End of status report

–– CUETools DB Plugin V2.1.6

[CTDB TOCID: 3AV8UG3A2El5uBgkuBtnMSBKNG4-] found
Submit result: 3AV8UG3A2El5uBgkuBtnMSBKNG4- has been confirmed
Track | CTDB Status
1 | (69/70) Accurately ripped
2 | (69/70) Accurately ripped
3 | (69/70) Accurately ripped


==== Log checksum 5B124F9C0549E3D1A1F35A768574DE0254A0E7DE92B4F021887FDF2A15487FA8 ====


U2: Singles Collection. Part 04 (1997 - 2001)

Tracklist CD04 - 1998 - Sweetest Thing [EU, Island CID 727, 572 466-2]:

01.Sweetest Thing (The Single Mix) (3:03)
02.Twilight (Live From Red Rocks ) (4:32)
03.An Cat Dubh Into The Heart (Live From Red Rocks) (7:14)

Exact Audio Copy V1.0 beta 2 from 29. April 2011

EAC extraction logfile from 14. May 2013, 14:25

U2 / Sweetest Thing(Single)

Used drive : Optiarc DVD RW AD-7561S Adapter: 1 ID: 0

Read mode : Secure
Utilize accurate stream : Yes
Defeat audio cache : Yes
Make use of C2 pointers : No

Read offset correction : 6
Overread into Lead-In and Lead-Out : No
Fill up missing offset samples with silence : Yes
Delete leading and trailing silent blocks : No
Null samples used in CRC calculations : Yes
Used interface : Native Win32 interface for Win NT & 2000
Gap handling : Appended to previous track

Used output format : User Defined Encoder
Selected bitrate : 256 kBit/s
Quality : High
Add ID3 tag : No
Command line compressor : C:\Program Files\Exact Audio Copy\Flac\flac.exe
Additional command line options : -8 -V -T "ARTIST=%artist%" -T "TITLE=%title%" -T "ALBUM=%albumtitle%" -T "DATE=%year%" -T "TRACKNUMBER=%tracknr%" -T "TOTALTRACKS=%numtracks%" -T "GENRE=%genre%" -T "ALBUMARTIST=%albumartist%" -T "ALBUM ARTIST=%albumartist%


TOC of the extracted CD

Track | Start | Length | Start sector | End sector
––––––––––––––––––––––––––––-
1 | 0:00.00 | 3:03.22 | 0 | 13746
2 | 3:03.22 | 4:32.05 | 13747 | 34151
3 | 7:35.27 | 7:14.05 | 34152 | 66706


Track 1

Filename C:\torrent\U2 - Sweetest Thing (1998) [FLAC] {CD Single}\01 - Sweetest Thing (The Single Mix).wav

Pre-gap length 0:00:02.00

Peak level 100.0 %
Extraction speed 2.4 X
Track quality 100.0 %
Test CRC D9C13418
Copy CRC D9C13418
Accurately ripped (confidence 2) [3F32F1A7] (AR v2)
Copy OK

Track 2

Filename C:\torrent\U2 - Sweetest Thing (1998) [FLAC] {CD Single}\02 - Twilight (Live From Red Rocks ).wav

Pre-gap length 0:00:02.05

Peak level 99.8 %
Extraction speed 3.0 X
Track quality 100.0 %
Test CRC 06AA63A1
Copy CRC 06AA63A1
Accurately ripped (confidence 2) [FEE9B187] (AR v2)
Copy OK

Track 3

Filename C:\torrent\U2 - Sweetest Thing (1998) [FLAC] {CD Single}\03 - An Cat Dubh Into The Heart (Live From Red Rocks).wav

Pre-gap length 0:00:02.65

Peak level 99.8 %
Extraction speed 3.5 X
Track quality 100.0 %
Test CRC 9FE9C977
Copy CRC 9FE9C977
Accurately ripped (confidence 2) [CF2CA20D] (AR v2)
Copy OK


All tracks accurately ripped

No errors occurred

End of status report

==== Log checksum 4B56D68B9511C8287240645FFA9AFF361A914C28E6DADDD607888F04CA014484 ====


U2: Singles Collection. Part 04 (1997 - 2001)

Tracklist CD05 - 2000 - Beautiful Day [Canada, Island 314 562 945-2]:

01.Beautiful Day (4:09)
02.Summer Rain (4:08)
03.Always (3:47)

Exact Audio Copy V0.99 prebeta 4 from 23. January 2008

EAC extraction logfile from 10. September 2008, 13:47

U2 / Beautiful Day

Used drive : HL-DT-STDVDRAM GH20NS10 Adapter: 3 ID: 0

Read mode : Secure
Utilize accurate stream : Yes
Defeat audio cache : Yes
Make use of C2 pointers : No

Read offset correction : 667
Overread into Lead-In and Lead-Out : No
Fill up missing offset samples with silence : Yes
Delete leading and trailing silent blocks : No
Null samples used in CRC calculations : Yes
Used interface : Native Win32 interface for Win NT & 2000
Gap handling : Appended to previous track

Used output format : User Defined Encoder
Selected bitrate : 768 kBit/s
Quality : High
Add ID3 tag : No
Command line compressor : C:\Program Files\FLAC\flac.exe
Additional command line options : -V -8 -T "artist=%a" -T "title=%t" -T "album=%g" -T "date=%y" -T "tracknumber=%n" %s


TOC of the extracted CD

Track | Start | Length | Start sector | End sector
––––––––––––––––––––––––––––-
1 | 0:00.00 | 4:09.07 | 0 | 18681
2 | 4:09.07 | 4:08.30 | 18682 | 37311
3 | 8:17.37 | 3:46.45 | 37312 | 54306


Track 1

Filename C:\Hi there RIAA, What's up IFPI\U2 - Beautiful Day (CDS)\01 - Beautiful Day.wav

Pre-gap length 0:00:02.00

Peak level 100.0 %
Track quality 100.0 %
Test CRC 73AE0C4F
Copy CRC 73AE0C4F
Cannot be verified as accurate (confidence 6) [C728867D], AccurateRip returned [7013E18E]
Copy OK

Track 2

Filename C:\Hi there RIAA, What's up IFPI\U2 - Beautiful Day (CDS)\02 - Summer Rain.wav

Pre-gap length 0:00:01.62

Peak level 100.0 %
Track quality 99.9 %
Test CRC 8B12C5DB
Copy CRC 8B12C5DB
Cannot be verified as accurate (confidence 6) [5FA2589F], AccurateRip returned [04B4922C]
Copy OK

Track 3

Filename C:\Hi there RIAA, What's up IFPI\U2 - Beautiful Day (CDS)\03 - Always.wav

Pre-gap length 0:00:01.96

Peak level 100.0 %
Track quality 100.0 %
Test CRC 404C86AA
Copy CRC 404C86AA
Cannot be verified as accurate (confidence 5) [624F02FF], AccurateRip returned [E7033A3B]
Copy OK


No tracks could be verified as accurate
You may have a different pressing from the one(s) in the database

No errors occurred

End of status report


U2: Singles Collection. Part 04 (1997 - 2001)

Tracklist CD06 - 2000 - Beautiful Day [Canada, Island 314 562 946-2]:

01.Beautiful Day (4:09)
02.Discotheque [Live From Mexico City] (5:10)
03.If You Wear That Velvet Dress [Live From Mexico City] (2:43)

Exact Audio Copy V0.99 prebeta 5 from 4. May 2009

EAC extraction logfile from 16. April 2010, 20:38

U2 / Beautiful Day

Used drive : PLDS DVD+-RW DH-24AAS Adapter: 0 ID: 1

Read mode : Secure
Utilize accurate stream : Yes
Defeat audio cache : Yes
Make use of C2 pointers : No

Read offset correction : 6
Overread into Lead-In and Lead-Out : No
Fill up missing offset samples with silence : Yes
Delete leading and trailing silent blocks : No
Null samples used in CRC calculations : Yes
Used interface : Native Win32 interface for Win NT & 2000
Gap handling : Appended to previous track

Used output format : User Defined Encoder
Selected bitrate : 768 kBit/s
Quality : High
Add ID3 tag : No
Command line compressor : C:\Program Files (x86)\FLAC\flac.exe
Additional command line options : -8 -V -T "ARTIST=%a" -T "TITLE=%t" -T "ALBUM=%g" -T "DATE=%y" -T "TRACKNUMBER=%n" -T "GENRE=%m" -T "COMMENT=EAC FLAC -8" %s


TOC of the extracted CD

Track | Start | Length | Start sector | End sector
––––––––––––––––––––––––––––-
1 | 0:00.00 | 4:09.35 | 0 | 18709
2 | 4:09.35 | 5:09.55 | 18710 | 41939
3 | 9:19.15 | 2:42.62 | 41940 | 54151


Track 1

Filename C:\2.Temp\Pedro Upload\U2 - Beautiful Day (2000) [FLAC] {Canada CD Single 314 562 946-2}\01 - Beautiful Day.wav

Pre-gap length 0:00:02.00

Peak level 100.0 %
Track quality 100.0 %
Test CRC 12FF4CC7
Copy CRC 12FF4CC7
Accurately ripped (confidence 2) [DB70488C]
Copy OK

Track 2

Filename C:\2.Temp\Pedro Upload\U2 - Beautiful Day (2000) [FLAC] {Canada CD Single 314 562 946-2}\02 - Discotheque [Live From Mexico City].wav

Pre-gap length 0:00:03.37

Peak level 100.0 %
Track quality 100.0 %
Test CRC E92B07ED
Copy CRC E92B07ED
Accurately ripped (confidence 2) [8E8B363C]
Copy OK

Track 3

Filename C:\2.Temp\Pedro Upload\U2 - Beautiful Day (2000) [FLAC] {Canada CD Single 314 562 946-2}\03 - If You Wear That Velvet Dress [Live From Mexico City].wav

Peak level 100.0 %
Track quality 100.0 %
Test CRC C24A5A75
Copy CRC C24A5A75
Accurately ripped (confidence 2) [3262724D]
Copy OK


All tracks accurately ripped

No errors occurred

End of status report


U2: Singles Collection. Part 04 (1997 - 2001)

Tracklist CD07 - 2001 - Elevation [Australia, Island 588 669-2]:

01.Elevation (Tomb Raider Mix) (3:38)
02.Elevation (Escalation Mix) (7:07)
03.Elevation (Influx Remix) (4:04)
04.Elevation (Quincey & Sonance Remix) (6:54)

Exact Audio Copy V0.99 prebeta 4 from 23. January 2008

EAC extraction logfile from 21. June 2009, 20:04

U2 / Elevation [Australia CD#1]

Used drive : PIONEER DVD-RW DVRTD08A Adapter: 0 ID: 1

Read mode : Secure
Utilize accurate stream : Yes
Defeat audio cache : Yes
Make use of C2 pointers : No

Read offset correction : 48
Overread into Lead-In and Lead-Out : No
Fill up missing offset samples with silence : Yes
Delete leading and trailing silent blocks : No
Null samples used in CRC calculations : Yes
Used interface : Native Win32 interface for Win NT & 2000
Gap handling : Appended to previous track

Used output format : User Defined Encoder
Selected bitrate : 320 kBit/s
Quality : High
Add ID3 tag : No
Command line compressor : C:\Program Files\FLAC\flac.exe
Additional command line options : -V -8 -T "artist=%a" -T "title=%t" -T "album=%g" -T "date=%y" -T "tracknumber=%n" -T "genre=%m" %s


TOC of the extracted CD

Track | Start | Length | Start sector | End sector
––––––––––––––––––––––––––––-
1 | 0:00.00 | 3:38.30 | 0 | 16379
2 | 3:38.30 | 7:06.67 | 16380 | 48396
3 | 10:45.22 | 4:04.20 | 48397 | 66716
4 | 14:49.42 | 6:53.53 | 66717 | 97744


Track 1

Filename D:\Torrents\U2 [2001] Elevation [Australia CD#1]\01. Elevation (Tomb Raider Mix).wav

Pre-gap length 0:00:02.00

Peak level 100.0 %
Track quality 100.0 %
Test CRC 74BF6ABF
Copy CRC 74BF6ABF
Accurately ripped (confidence 3) [273F4194]
Copy OK

Track 2

Filename D:\Torrents\U2 [2001] Elevation [Australia CD#1]\02. Elevation (Escalation Mix).wav

Pre-gap length 0:00:02.45

Peak level 100.0 %
Track quality 100.0 %
Test CRC 41314D1A
Copy CRC 41314D1A
Accurately ripped (confidence 2) [9660F98B]
Copy OK

Track 3

Filename D:\Torrents\U2 [2001] Elevation [Australia CD#1]\03. Elevation (Influx Remix).wav

Pre-gap length 0:00:03.20

Peak level 100.0 %
Track quality 100.0 %
Test CRC 9E9E0B4D
Copy CRC 9E9E0B4D
Accurately ripped (confidence 3) [1B822918]
Copy OK

Track 4

Filename D:\Torrents\U2 [2001] Elevation [Australia CD#1]\04. Elevation (Quincey & Sonance Remix).wav

Pre-gap length 0:00:02.45

Peak level 100.0 %
Track quality 100.0 %
Test CRC 3E3CD189
Copy CRC 3E3CD189
Accurately ripped (confidence 3) [E10F95C4]
Copy OK


All tracks accurately ripped

No errors occurred

End of status report


U2: Singles Collection. Part 04 (1997 - 2001)

Tracklist CD08 - 2001 - Elevation [Australia, Island 5886802]:

01.Elevation (Tomb Raider Mix) (3:36)
02.I Remember You (Live From Irving Plaza, New York, 5th December 2000) (1:28)
03.New York (Live From Irving Plaza, New York, 5th December 2000) (5:41)
04.Don't Take Your Guns To Town (Tribute To Johnny Cash, Dublin, April 1999) (4:14)
05.Elevation (The Biffco Mix) (4:18)

Exact Audio Copy V0.99 prebeta 4 from 23. January 2008

EAC extraction logfile from 21. June 2009, 19:43

U2 / Elevation [Australia CD #2]

Used drive : PIONEER DVD-RW DVRTD08A Adapter: 0 ID: 1

Read mode : Secure
Utilize accurate stream : Yes
Defeat audio cache : Yes
Make use of C2 pointers : No

Read offset correction : 48
Overread into Lead-In and Lead-Out : No
Fill up missing offset samples with silence : Yes
Delete leading and trailing silent blocks : No
Null samples used in CRC calculations : Yes
Used interface : Native Win32 interface for Win NT & 2000
Gap handling : Appended to previous track

Used output format : User Defined Encoder
Selected bitrate : 320 kBit/s
Quality : High
Add ID3 tag : No
Command line compressor : C:\Program Files\FLAC\flac.exe
Additional command line options : -V -8 -T "artist=%a" -T "title=%t" -T "album=%g" -T "date=%y" -T "tracknumber=%n" -T "genre=%m" %s


TOC of the extracted CD

Track | Start | Length | Start sector | End sector
––––––––––––––––––––––––––––-
1 | 0:00.00 | 3:36.27 | 0 | 16226
2 | 3:36.27 | 1:27.70 | 16227 | 22821
3 | 5:04.22 | 5:41.20 | 22822 | 48416
4 | 10:45.42 | 4:13.48 | 48417 | 67439
5 | 14:59.15 | 4:18.10 | 67440 | 86799


Track 1

Filename D:\Torrents\U2 [2001] Elevation [Australia CD #2]\01. Elevation (Tomb Raider Mix).wav

Pre-gap length 0:00:02.00

Peak level 100.0 %
Track quality 100.0 %
Test CRC 69048FE0
Copy CRC 69048FE0
Accurately ripped (confidence 2) [93ADA598]
Copy OK

Track 2

Filename D:\Torrents\U2 [2001] Elevation [Australia CD #2]\02. I Remember You (Irving Plaza, NY 12-5-2001).wav

Pre-gap length 0:00:00.62

Peak level 89.1 %
Track quality 100.0 %
Test CRC 11ECF249
Copy CRC 11ECF249
Accurately ripped (confidence 3) [F995C81F]
Copy OK

Track 3

Filename D:\Torrents\U2 [2001] Elevation [Australia CD #2]\03. New York (Irving Plaza, NY 12-5-2001).wav

Peak level 97.2 %
Track quality 100.0 %
Test CRC 5A50860D
Copy CRC 5A50860D
Accurately ripped (confidence 3) [1F62BA20]
Copy OK

Track 4

Filename D:\Torrents\U2 [2001] Elevation [Australia CD #2]\04. Don't Take Your Guns To Town (Dublin 4-1999).wav

Pre-gap length 0:00:02.72

Peak level 100.0 %
Track quality 100.0 %
Test CRC 2B1F0026
Copy CRC 2B1F0026
Accurately ripped (confidence 3) [C2E14788]
Copy OK

Track 5

Filename D:\Torrents\U2 [2001] Elevation [Australia CD #2]\05. Elevation (The Biffco Mix).wav

Pre-gap length 0:00:01.35

Peak level 100.0 %
Track quality 100.0 %
Test CRC 146D6B59
Copy CRC 146D6B59
Accurately ripped (confidence 3) [E8975288]
Copy OK


All tracks accurately ripped

No errors occurred

End of status report


U2: Singles Collection. Part 04 (1997 - 2001)

Tracklist CD09 - 2001 - Elevation [Canada, Island 3145886732]:

01.Elevation (Tomb Raider Mix) (3:37)
02.Last Night On Earth (Live From Mexico City) (6:32)
03.Don't Take Your Guns To Town (Tribute To Johnny Cash, Dublin, April 1999) (4:13)

Exact Audio Copy V0.99 prebeta 4 from 23. January 2008

EAC extraction logfile from 5. September 2008, 11:17

U2 / Elevation (CD2)

Used drive : HL-DT-STDVDRAM GH20NS10 Adapter: 3 ID: 0

Read mode : Secure
Utilize accurate stream : Yes
Defeat audio cache : Yes
Make use of C2 pointers : No

Read offset correction : 667
Overread into Lead-In and Lead-Out : No
Fill up missing offset samples with silence : Yes
Delete leading and trailing silent blocks : No
Null samples used in CRC calculations : Yes
Used interface : Native Win32 interface for Win NT & 2000
Gap handling : Appended to previous track

Used output format : User Defined Encoder
Selected bitrate : 768 kBit/s
Quality : High
Add ID3 tag : No
Command line compressor : C:\Program Files\FLAC\flac.exe
Additional command line options : -V -8 -T "artist=%a" -T "title=%t" -T "album=%g" -T "date=%y" -T "tracknumber=%n" %s


TOC of the extracted CD

Track | Start | Length | Start sector | End sector
––––––––––––––––––––––––––––-
1 | 0:00.00 | 3:37.15 | 0 | 16289
2 | 3:37.15 | 6:32.25 | 16290 | 45714
3 | 10:09.40 | 4:12.40 | 45715 | 64654


Track 1

Filename C:\Hi there RIAA, What's up IFPI\U2 - Elevation (CD2) (CDS)\01 - Elevation (Tomb Raider Mix).wav

Pre-gap length 0:00:02.00

Peak level 100.0 %
Track quality 100.0 %
Test CRC 6D0AE595
Copy CRC 6D0AE595
Cannot be verified as accurate (confidence 5) [57A3E9D2], AccurateRip returned [78922573]
Copy OK

Track 2

Filename C:\Hi there RIAA, What's up IFPI\U2 - Elevation (CD2) (CDS)\02 - Last Night On Earth (Live From Mexico City).wav

Pre-gap length 0:00:01.57

Peak level 100.0 %
Track quality 100.0 %
Test CRC 77207773
Copy CRC 77207773
Cannot be verified as accurate (confidence 5) [6E6EBC4B], AccurateRip returned [BBB8DEBA]
Copy OK

Track 3

Filename C:\Hi there RIAA, What's up IFPI\U2 - Elevation (CD2) (CDS)\03 - Don't Take Your Guns To Town (Tribute To Johnny Cash, Dublin, April 1999).wav

Pre-gap length 0:00:02.10

Peak level 100.0 %
Track quality 100.0 %
Test CRC 1833E852
Copy CRC 1833E852
Cannot be verified as accurate (confidence 5) [ABA7380A], AccurateRip returned [E100CD15]
Copy OK


No tracks could be verified as accurate
You may have a different pressing from the one(s) in the database

No errors occurred

End of status report


U2: Singles Collection. Part 04 (1997 - 2001)

Tracklist CD10 - 2001 - Stuck In A Moment You Can't Get Out Of [Canada, Island 3145888372]:

01.Stuck In A Moment You Can't Get Out Of (Radio Edit) (3:46)
02.Stuck In A Moment You Can't Get Out Of (Acoustic) (3:45)
03.Stay (Faraway, So Close!) (Live From Toronto, 25th May 2001) (5:42)
04.Elevation (The Vandit Club Mix) (8:52)

Exact Audio Copy V0.99 prebeta 4 from 23. January 2008

EAC extraction logfile from 10. September 2008, 14:55

U2 / Stuck In A Moment You Can't Get Out Of

Used drive : HL-DT-STDVDRAM GH20NS10 Adapter: 3 ID: 0

Read mode : Secure
Utilize accurate stream : Yes
Defeat audio cache : Yes
Make use of C2 pointers : No

Read offset correction : 667
Overread into Lead-In and Lead-Out : No
Fill up missing offset samples with silence : Yes
Delete leading and trailing silent blocks : No
Null samples used in CRC calculations : Yes
Used interface : Native Win32 interface for Win NT & 2000
Gap handling : Appended to previous track

Used output format : User Defined Encoder
Selected bitrate : 768 kBit/s
Quality : High
Add ID3 tag : No
Command line compressor : C:\Program Files\FLAC\flac.exe
Additional command line options : -V -8 -T "artist=%a" -T "title=%t" -T "album=%g" -T "date=%y" -T "tracknumber=%n" %s


TOC of the extracted CD

Track | Start | Length | Start sector | End sector
––––––––––––––––––––––––––––-
1 | 0:00.00 | 3:45.52 | 0 | 16926
2 | 3:45.52 | 3:45.08 | 16927 | 33809
3 | 7:30.60 | 5:42.37 | 33810 | 59496
4 | 13:13.22 | 8:52.03 | 59497 | 99399


Track 1

Filename C:\Hi there RIAA, What's up IFPI\U2 - Stuck In A Moment You Can't Get Out Of (CDS)\01 - Stuck In A Moment You Can't Get Out Of (Radio Edit).wav

Pre-gap length 0:00:02.00

Peak level 98.4 %
Track quality 100.0 %
Test CRC A2495859
Copy CRC A2495859
Accurately ripped (confidence 1) [7AE7CB5E]
Copy OK

Track 2

Filename C:\Hi there RIAA, What's up IFPI\U2 - Stuck In A Moment You Can't Get Out Of (CDS)\02 - Stuck In A Moment You Can't Get Out Of (Acoustic).wav

Pre-gap length 0:00:02.73

Peak level 100.0 %
Track quality 99.9 %
Test CRC B30300F6
Copy CRC B30300F6
Accurately ripped (confidence 1) [955D4B64]
Copy OK

Track 3

Filename C:\Hi there RIAA, What's up IFPI\U2 - Stuck In A Moment You Can't Get Out Of (CDS)\03 - Stay (Faraway, So Close!) (Live From Toronto, 25th May 2001).wav

Pre-gap length 0:00:03.13

Peak level 100.0 %
Track quality 100.0 %
Test CRC 4A1F46C3
Copy CRC 4A1F46C3
Accurately ripped (confidence 1) [DB880286]
Copy OK

Track 4

Filename C:\Hi there RIAA, What's up IFPI\U2 - Stuck In A Moment You Can't Get Out Of (CDS)\04 - Elevation (The Vandit Club Mix).wav

Pre-gap length 0:00:03.36

Peak level 100.0 %
Track quality 100.0 %
Test CRC E440D162
Copy CRC E440D162
Cannot be verified as accurate (confidence 1) [81F2A1CE], AccurateRip returned [D60074CB]
Copy OK


3 track(s) accurately ripped
1 track(s) could not be verified as accurate

Some tracks could not be verified as accurate

No errors occurred

End of status report


U2: Singles Collection. Part 04 (1997 - 2001)

Tracklist CD11 - 2001 - Walk On [Canada, Island 3145728192]:

01.Walk On (Edit) (4:29)
02.Beautiful Day (Live From Farmclub) (4:48)
03.New York (Live From Farmclub) (5:58)

EAC extraction logfile from 15. May 2006, 5:46 for CD
U2 / Walk On (Single) version 1

Used drive : MATSHITAUJDA740 DVD/CDRW Adapter: 1 ID: 0
Read mode : Secure with NO C2, accurate stream, disable cache
Read offset correction : 102
Overread into Lead-In and Lead-Out : No

Used output format : C:\Program Files\FLAC\FLAC frontend.exe (User Defined Encoder)
128 kBit/s
Additional command line options : -V -8 -T "artist=%a" -T "title=%t" -T "album=%g" -T "date=%y" -T "tracknumber=%n" -T "genre=%m" %s

Other options :
Fill up missing offset samples with silence : Yes
Delete leading and trailing silent blocks : No
Installed external ASPI interface


Track 1
Filename C:\Documents and Settings\Melissa St.Hilaire\My Documents\My Downloads\lame3.96-final\01 - Walk On (Edit).wav

Pre-gap length 0:00:02.00

Peak level 100.0 %
Track quality 100.0 %
Test CRC E7009D16
Copy CRC E7009D16
Copy OK

Track 2
Filename C:\Documents and Settings\Melissa St.Hilaire\My Documents\My Downloads\lame3.96-final\02 - Beautiful Day (Live from Farmclub).wav

Pre-gap length 0:00:02.80

Peak level 100.0 %
Track quality 100.0 %
Test CRC 5487B6F1
Copy CRC 5487B6F1
Copy OK

Track 3
Filename C:\Documents and Settings\Melissa St.Hilaire\My Documents\My Downloads\lame3.96-final\03 - New York (Live from Farmclub).wav

Pre-gap length 0:00:03.13

Peak level 100.0 %
Track quality 100.0 %
Test CRC 0B0FD2AD
Copy CRC 0B0FD2AD
Copy OK

No errors occured


End of status report


U2: Singles Collection. Part 04 (1997 - 2001)

Tracklist CD12 - 2001 - Walk On [Canada, Island 3145728202]:

01.Walk On (Edit) (4:29)
02.Big Girls Are Best (3:37)
03.Beautiful Day (Quincey And Sonance Remix) (7:56)

Exact Audio Copy V0.99 prebeta 4 from 23. January 2008

EAC extraction logfile from 10. September 2008, 14:45

U2 / Walk On (CD2)

Used drive : HL-DT-STDVDRAM GH20NS10 Adapter: 3 ID: 0

Read mode : Secure
Utilize accurate stream : Yes
Defeat audio cache : Yes
Make use of C2 pointers : No

Read offset correction : 667
Overread into Lead-In and Lead-Out : No
Fill up missing offset samples with silence : Yes
Delete leading and trailing silent blocks : No
Null samples used in CRC calculations : Yes
Used interface : Native Win32 interface for Win NT & 2000
Gap handling : Appended to previous track

Used output format : User Defined Encoder
Selected bitrate : 768 kBit/s
Quality : High
Add ID3 tag : No
Command line compressor : C:\Program Files\FLAC\flac.exe
Additional command line options : -V -8 -T "artist=%a" -T "title=%t" -T "album=%g" -T "date=%y" -T "tracknumber=%n" %s


TOC of the extracted CD

Track | Start | Length | Start sector | End sector
––––––––––––––––––––––––––––-
1 | 0:00.00 | 4:29.32 | 0 | 20206
2 | 4:29.32 | 3:37.03 | 20207 | 36484
3 | 8:06.35 | 7:55.70 | 36485 | 72179


Track 1

Filename C:\Hi there RIAA, What's up IFPI\U2 - Walk On (CD2) (CDS)\01 - Walk On (Edit).wav

Pre-gap length 0:00:02.00

Peak level 100.0 %
Track quality 100.0 %
Test CRC 66D25087
Copy CRC 66D25087
Track not present in AccurateRip database
Copy OK

Track 2

Filename C:\Hi there RIAA, What's up IFPI\U2 - Walk On (CD2) (CDS)\02 - Big Girls Are Best.wav

Pre-gap length 0:00:03.33

Peak level 100.0 %
Track quality 100.0 %
Test CRC 8AA4BAC8
Copy CRC 8AA4BAC8
Accurately ripped (confidence 2) [1E4D391D]
Copy OK

Track 3

Filename C:\Hi there RIAA, What's up IFPI\U2 - Walk On (CD2) (CDS)\03 - Beautiful Day (Quincey And Sonance Remix).wav

Pre-gap length 0:00:02.80

Peak level 100.0 %
Track quality 100.0 %
Test CRC F9C8ACFE
Copy CRC F9C8ACFE
Track not present in AccurateRip database
Copy OK


1 track(s) accurately ripped
2 track(s) not present in the AccurateRip database

Some tracks could not be verified as accurate

No errors occurred

End of status report


All thanks go to the original releaser

U2 or U2 in my Blog

Download U2: Singles Collection. Part 04 (1997 - 2001):