Tags
Language
Tags

UB40 - Geffery Morgan... (1984)

Posted By: Designol
UB40 - Geffery Morgan... (1984)

UB40 - Geffery Morgan… (1984)
XLD | FLAC | Image (Cue&Log) ~ 236 Mb | Mp3 (CBR320) ~ 91 Mb | Scans ~ 79 Mb
Reggae, Pop/Rock | Label: DEP International | # DEPCD6 | Time: 00:39:37

UB40 was faced with following up the surprisingly successful covers album Labour Of Love (which had topped the U.K. chart, and become their U.S. chart debut) with this album of original material. Their own songs were good, but no match for what then seemed a one-of-a-kind collection. "If It Happens Again," which went to Number Nine in Britain, sounded like a song by The English Beat, while the second single, "Riddle Me" (at Number 59), was a deeper reggae groove tune. It was a good set, but without a classic like "Red, Red Wine," it suffered from a certain anonymity, especially in the U.S.

Review by William Ruhlmann, Allmusic.com

Seemed dull even for reggae first time through, and even for the soulfully monochromatic Ali Campbell well after that. I persevered only because an Afrosax instrumental kept taking me by surprise. Then the lilting "Seasons" won my heart. And then–presto!, or at least lento . . . –I was focusing in on almost every cut, and admiring the jumpy depth of the production throughout. Could be their strongest ever, I swear. Still there's reason to worry about how long the first impression will last.

Review by Robert Christgau (A-)

UB40 - Geffery Morgan... (1984)



Tracklist:

01. Riddle Me (3:58)
02. As Always You Were Wrong Again (3:38)
03. If It Happens Again (3:45)
04. D.U.B. (4:52)
05. The Pillow (3:27)
06. Nkomo A Go Go (3:06)
07. Seasons (3:48)
08. You're Not An Army (3:47)
09. I'm Not Fooled So Easily (4:15)
10. Your Eyes Were Open (5:01)


X Lossless Decoder version 20131102 (145.0)

XLD extraction logfile from 2014-04-15 16:49:22 +0400

UB40 / Geffery Morgan (DEPCD6)

Used drive : HL-DT-ST DVDRW GSA-S10N (revision BP10)
Media type : Pressed CD

Ripper mode : XLD Secure Ripper
Disable audio cache : OK for the drive with a cache less than 1375KiB
Make use of C2 pointers : NO
Read offset correction : 667
Max retry count : 20
Gap status : Analyzed, Appended

TOC of the extracted CD
Track | Start | Length | Start sector | End sector
––––––––––––––––––––––––––––-
1 | 00:00:18 | 03:58:30 | 18 | 17897
2 | 03:58:48 | 03:37:70 | 17898 | 34242
3 | 07:36:43 | 03:44:62 | 34243 | 51104
4 | 11:21:30 | 04:52:10 | 51105 | 73014
5 | 16:13:40 | 03:26:58 | 73015 | 88522
6 | 19:40:23 | 03:06:37 | 88523 | 102509
7 | 22:46:60 | 03:48:18 | 102510 | 119627
8 | 26:35:03 | 03:46:42 | 119628 | 136619
9 | 30:21:45 | 04:14:50 | 136620 | 155719
10 | 34:36:20 | 05:01:10 | 155720 | 178304

List of alternate offset correction values
# | Absolute | Relative | Confidence
–––––––––––––––––––––
1 | 504 | -163 | 19
2 | 830 | 163 | 4
3 | -160 | -827 | 3
4 | -1340 | -2007 | 2
5 | 2120 | 1453 | 2

AccurateRip Summary (DiscID: 000e9c91-0074e951-9209490a)
Track 01 : OK (v2, confidence 2/30)
Track 02 : OK (v2, confidence 2/30)
Track 03 : OK (v2, confidence 2/32)
Track 04 : OK (v1+v2, confidence 19/30, with different offset)
Track 05 : OK (v1+v2, confidence 19/30, with different offset)
Track 06 : OK (v2, confidence 2/31)
Track 07 : OK (v2, confidence 2/31)
Track 08 : OK (v1+v2, confidence 18/27, with different offset)
Track 09 : OK (v1+v2, confidence 18/26, with different offset)
Track 10 : OK (v2, confidence 2/28)
->All tracks accurately ripped.

All Tracks
Filename : /OdW/UB40 (1984) Geffery Morgan (DEPCD6) /UB40 - Geffery Morgan (DEPCD6).flac
Album gain : -0.89 dB
Peak : 0.910034
CRC32 hash (test run) : 12E04A23
CRC32 hash : 12E04A23
CRC32 hash (skip zero) : 1F246A5F
Statistics
Read error : 0
Jitter error (maybe fixed) : 0
Retry sector count : 0
Damaged sector count : 0

Track 01
Pre-gap length : 00:02:18

Track gain : -1.62 dB
Peak : 0.730682
CRC32 hash (test run) : 225A6413
CRC32 hash : 225A6413
CRC32 hash (skip zero) : E2F0B1D0
AccurateRip v1 signature : 4DC65FE1
AccurateRip v2 signature : 166186C1
->Accurately ripped (v2, confidence 2/30)
Statistics
Read error : 0
Jitter error (maybe fixed) : 0
Retry sector count : 0
Damaged sector count : 0

Track 02

Track gain : -1.43 dB
Peak : 0.832428
CRC32 hash (test run) : 04CDDFE1
CRC32 hash : 04CDDFE1
CRC32 hash (skip zero) : A76A7493
AccurateRip v1 signature : 0B6E6252
AccurateRip v2 signature : D7808FEB
->Accurately ripped (v2, confidence 2/30)
Statistics
Read error : 0
Jitter error (maybe fixed) : 0
Retry sector count : 0
Damaged sector count : 0

Track 03
Pre-gap length : 00:00:53

Track gain : -1.45 dB
Peak : 0.874054
CRC32 hash (test run) : 6200ED22
CRC32 hash : 6200ED22
CRC32 hash (skip zero) : A0C585B6
AccurateRip v1 signature : 2E3B2CEB
AccurateRip v2 signature : 6EA893B0
->Accurately ripped (v2, confidence 2/32)
Statistics
Read error : 0
Jitter error (maybe fixed) : 0
Retry sector count : 0
Damaged sector count : 0

Track 04
Pre-gap length : 00:01:47

Track gain : -0.13 dB
Peak : 0.776917
CRC32 hash (test run) : 5D382B57
CRC32 hash : 5D382B57
CRC32 hash (skip zero) : 196ADF3E
AccurateRip v1 signature : C7B16CB6 (94FB5610 w/correction)
AccurateRip v2 signature : 27B4DA6C (314EAF3D w/correction)
->Accurately ripped with different offset (v1+v2, confidence 10+9/30, offset -163)
Statistics
Read error : 0
Jitter error (maybe fixed) : 0
Retry sector count : 0
Damaged sector count : 0

Track 05
Pre-gap length : 00:00:52

Track gain : -0.80 dB
Peak : 0.791412
CRC32 hash (test run) : D8B4DA0B
CRC32 hash : D8B4DA0B
CRC32 hash (skip zero) : 748AD24F
AccurateRip v1 signature : 022E0335 (B61CC860 w/correction)
AccurateRip v2 signature : EAA7FD66 (C77C873C w/correction)
->Accurately ripped with different offset (v1+v2, confidence 10+9/30, offset -163)
Statistics
Read error : 0
Jitter error (maybe fixed) : 0
Retry sector count : 0
Damaged sector count : 0

Track 06
Pre-gap length : 00:00:70

Track gain : -2.21 dB
Peak : 0.910034
CRC32 hash (test run) : FD2A3B57
CRC32 hash : FD2A3B57
CRC32 hash (skip zero) : 3B294140
AccurateRip v1 signature : B13D2AA1
AccurateRip v2 signature : 9086E1FD
->Accurately ripped (v2, confidence 2/31)
Statistics
Read error : 0
Jitter error (maybe fixed) : 0
Retry sector count : 0
Damaged sector count : 0

Track 07

Track gain : 1.24 dB
Peak : 0.703583
CRC32 hash (test run) : C682811F
CRC32 hash : C682811F
CRC32 hash (skip zero) : 8F8251A4
AccurateRip v1 signature : 5B6BAEB4
AccurateRip v2 signature : 25A14D77
->Accurately ripped (v2, confidence 2/31)
Statistics
Read error : 0
Jitter error (maybe fixed) : 0
Retry sector count : 0
Damaged sector count : 0

Track 08

Track gain : 0.91 dB
Peak : 0.692627
CRC32 hash (test run) : 7616ECFC
CRC32 hash : 7616ECFC
CRC32 hash (skip zero) : 3CC85450
AccurateRip v1 signature : 2441D745 (E2601291 w/correction)
AccurateRip v2 signature : 7FA3F43F (13AD1583 w/correction)
->Accurately ripped with different offset (v1+v2, confidence 10+8/27, offset -163)
Statistics
Read error : 0
Jitter error (maybe fixed) : 0
Retry sector count : 0
Damaged sector count : 0

Track 09

Track gain : -0.55 dB
Peak : 0.746948
CRC32 hash (test run) : 728F8CE4
CRC32 hash : 728F8CE4
CRC32 hash (skip zero) : FF0F097F
AccurateRip v1 signature : 0D3E83D8 (E804EC54 w/correction)
AccurateRip v2 signature : 46606448 (562D4287 w/correction)
->Accurately ripped with different offset (v1+v2, confidence 10+8/26, offset -163)
Statistics
Read error : 0
Jitter error (maybe fixed) : 0
Retry sector count : 0
Damaged sector count : 0

Track 10
Pre-gap length : 00:00:50

Track gain : -0.20 dB
Peak : 0.769836
CRC32 hash (test run) : 686A7CB8
CRC32 hash : 686A7CB8
CRC32 hash (skip zero) : D0FD7804
AccurateRip v1 signature : FF44E5EA
AccurateRip v2 signature : 4E38D012
->Accurately ripped (v2, confidence 2/28)
Statistics
Read error : 0
Jitter error (maybe fixed) : 0
Retry sector count : 0
Damaged sector count : 0

No errors occurred

End of status report

––-BEGIN XLD SIGNATURE––-
5LBhF57uceVuZPHl9QNUnZ0VUs_TUL8x0ihpv5Gz00WR3niRMisKhp2fBDWxtle8TQL1E48woZ4dPcQgB5MLYrynKepDAXoqsE9st5W
––-END XLD SIGNATURE––-

[CUETools log; Date: 12.07.2018 19:50:22; Version: 2.1.4]
Pregap length 00:00:18.
[CTDB TOCID: 3fu7iJpJBcRpuhQFeJr_ugh13sk-] found.
Track | CTDB Status
1 | (26/26) Accurately ripped
2 | (26/26) Accurately ripped
3 | (26/26) Accurately ripped
4 | (25/26) Accurately ripped
5 | (26/26) Accurately ripped
6 | (25/26) Accurately ripped
7 | (26/26) Accurately ripped
8 | (22/26) Accurately ripped, or (4/26) differs in 6 samples @03:21:32-03:21:33
9 | (26/26) Accurately ripped
10 | (24/26) Accurately ripped
[AccurateRip ID: 000e9c91-0074e951-9209490a] found.
Track [ CRC | V2 ] Status
01 [4dc65fe1|166186c1] (00+02/45) Accurately ripped
02 [0b6e6252|d7808feb] (00+03/46) Accurately ripped
03 [2e3b2ceb|6ea893b0] (00+03/48) Accurately ripped
04 [c7b16cb6|27b4da6c] (00+02/47) Accurately ripped
05 [022e0335|eaa7fd66] (00+02/47) Accurately ripped
06 [b13d2aa1|9086e1fd] (00+03/47) Accurately ripped
07 [5b6baeb4|25a14d77] (00+03/47) Accurately ripped
08 [2441d745|7fa3f43f] (00+00/42) No match
09 [0d3e83d8|46606448] (00+00/41) No match
10 [ff44e5ea|4e38d012] (00+03/44) Accurately ripped
Offsetted by -163:
01 [29f21558] (11/45) Accurately ripped
02 [b549d881] (11/46) Accurately ripped
03 [b6c15dbd] (11/48) Accurately ripped
04 [94fb5610] (11/47) Accurately ripped
05 [b61cc860] (11/47) Accurately ripped
06 [27fc4ed3] (11/47) Accurately ripped
07 [da81256e] (11/47) Accurately ripped
08 [e2601291] (11/42) Accurately ripped
09 [e804ec54] (11/41) Accurately ripped
10 [a299c19e] (11/44) Accurately ripped
Offsetted by -2007:
01 [3c72a75d] (00/45) No match (V2 was not tested)
02 [b1c846a8] (00/46) No match (V2 was not tested)
03 [f75ba872] (02/48) Accurately ripped
04 [00705d85] (02/47) Accurately ripped
05 [dad06436] (02/47) Accurately ripped
06 [f2395dba] (02/47) Accurately ripped
07 [def32a45] (02/47) Accurately ripped
08 [b3b4ac3b] (00/42) No match (V2 was not tested)
09 [85b17a59] (02/41) Accurately ripped
10 [3c5b20dd] (02/44) Accurately ripped
Offsetted by -827:
01 [902df5e6] (00/45) No match (V2 was not tested)
02 [173f0827] (00/46) No match (V2 was not tested)
03 [83fcd427] (00/48) No match (V2 was not tested)
04 [c937a2b6] (00/47) No match (V2 was not tested)
05 [fe828290] (00/47) No match (V2 was not tested)
06 [8b08f639] (00/47) No match (V2 was not tested)
07 [da182a7d] (00/47) No match (V2 was not tested)
08 [75b76f65] (00/42) No match (V2 was not tested)
09 [faed7028] (00/41) No match (V2 was not tested)
10 [8627e639] (00/44) No match (V2 was not tested)
Offsetted by 163:
01 [79b3e25d] (00/45) No match (V2 was not tested)
02 [ab807c30] (00/46) No match (V2 was not tested)
03 [309d464b] (00/48) No match (V2 was not tested)
04 [d76661e2] (00/47) No match (V2 was not tested)
05 [3ee0b0ea] (00/47) No match (V2 was not tested)
06 [d14c7d22] (00/47) No match (V2 was not tested)
07 [8347ce52] (00/47) No match (V2 was not tested)
08 [4bf608a1] (00/42) No match (V2 was not tested)
09 [0d2d3428] (00/41) No match (V2 was not tested)
10 [79585e53] (00/44) No match (V2 was not tested)
Offsetted by 1453:
01 [2719e217] (02/45) Accurately ripped
02 [84070c65] (02/46) Accurately ripped
03 [bfdae0de] (02/48) Accurately ripped
04 [fdccd809] (02/47) Accurately ripped
05 [a856ae4f] (02/47) Accurately ripped
06 [c537adde] (02/47) Accurately ripped
07 [30ace08a] (02/47) Accurately ripped
08 [60541c17] (00/42) No match (V2 was not tested)
09 [c5fc493e] (00/41) No match (V2 was not tested)
10 [df36027f] (00/44) No match (V2 was not tested)

Track Peak [ CRC32 ] [W/O NULL]
– 91,0 [12E04A23] [1F246A5F]
01 73,0 [225A6413] [E2F0B1D0]
02 83,2 [04CDDFE1] [A76A7493]
03 87,4 [6200ED22] [A0C585B6]
04 77,6 [5D382B57] [196ADF3E]
05 79,1 [D8B4DA0B] [748AD24F]
06 91,0 [FD2A3B57] [3B294140]
07 70,3 [C682811F] [8F8251A4]
08 69,2 [7616ECFC] [3CC85450]
09 74,6 [728F8CE4] [FF0F097F]
10 76,9 [686A7CB8] [D0FD7804]

foobar2000 1.2 / Dynamic Range Meter 1.1.1
log date: 2018-07-12 19:56:49

––––––––––––––––––––––––––––––––––––––––
Analyzed: UB40 / Geffery Morgan (DEPCD6)
––––––––––––––––––––––––––––––––––––––––

DR Peak RMS Duration Track
––––––––––––––––––––––––––––––––––––––––
DR12 -2.73 dB -16.74 dB 3:58 01-Riddle me
DR14 -1.59 dB -18.57 dB 3:38 02-As always you were wrong again
DR14 -1.17 dB -17.44 dB 3:45 03-If it happens again
DR14 -2.19 dB -18.66 dB 4:52 04-D.U.B.
DR14 -2.03 dB -17.68 dB 3:27 05-The pillow
DR15 -0.82 dB -17.33 dB 3:06 06-Nkomo a go go
DR15 -3.05 dB -19.54 dB 3:48 07-Seasons
DR14 -3.19 dB -18.77 dB 3:47 08-You're not an army
DR15 -2.53 dB -19.45 dB 4:15 09-I'm not fooled so easily
DR14 -2.27 dB -18.87 dB 5:01 10-Your eyes were open
––––––––––––––––––––––––––––––––––––––––

Number of tracks: 10
Official DR value: DR14

Samplerate: 44100 Hz
Channels: 2
Bits per sample: 16
Bitrate: 833 kbps
Codec: FLAC
================================================================================

UB40 - Geffery Morgan... (1984)

UB40 - Geffery Morgan... (1984)

All thanks to original releaser - Olaf der Weisse

More interesting music in My Blog