Tags
Language
Tags

UB40 - Live At Montreux 2002 (2007) [Re-Up]

Posted By: Designol
UB40 - Live At Montreux 2002 (2007) [Re-Up]

UB40 - Live At Montreux 2002 (2007)
EAC | WV | Image (Cue&Log) ~ 466 Mb | Mp3 (CBR320) ~ 173 Mb | Scans included
Reggae, Reggae-Pop | Label: Eagle | # ER 20107-2 | Time: 01:07:25

UB40 are one of the most successful British acts of all time, with a huge string of hits on both sides of the Atlantic and around the globe. Featuring most of their greatest hits, including both songs to hit #1 in America: "Red, Red Wine" and "Can't Help Falling In Love". To date, 2002 is the band's only appearance at the Montreux Festival but clearly inspired them to produce one of their finest performances.

UB40's 2005 release Who You Fighting For? was the British reggae group's finest album in many years, an admission of sorts that the band had been wallowing in sameness for some time and needed an injection of new ideas if it was to stay afloat. But this live CD predates it by three years, and although from the sound of it the Montreux audience was in the band's thrall from the first seconds of the show – a cover of the Temptations' "The Way You Do the Things You Do," – the 2002 set mostly serves to remind just how complacent UB40 had become. Technically, the band is, as ever, flawlessly tight, and singer Ali Campbell's trademark nasality is endearing as he helms the group through a typical set of older hits and well-chosen covers. But the performance is so polished that it loses the rawness endemic to true roots reggae. You will undoubtedly find yourself singing along to the chart smashes "Red, Red Wine," "Here I Am (Come and Take Me)," and "(I Can't Help) Falling in Love with You," and perhaps that is the point of a concert by a band with such a long, proven track record. But this is as safe a reggae album as you'll ever hear, not nearly as satisfying in the end as what the venerable Brits would cook up the next time out.

Review by Jeff Tamarkin, Allmusic.com

UB40 - Live At Montreux 2002 (2007) [Re-Up]



Tracklist:

01. The Way You Do The Things You Do (2:59)
02. Here I Am (Come And Take Me) (4:12)
03. One In Ten (4:32)
04. If It Happens Again (3:42)
05. Homely Girl (3:38)
06. Kingston Town (4:14)
07. Reggae Music (3:59)
08. Don't Break My Heart (4:07)
09. Love It When You Smile (4:22)
10. Rat In Mi Kitchen (6:22)
11. Rudie (4:10)
12. Cover Up (3:49)
13. Red, Red Wine (5:21)
14. (I Can't Help) Falling In Love With You (3:58)
15. Cherry Oh Baby (3:03)
16. Many Rivers To Cross (4:56)


Exact Audio Copy V0.99 prebeta 5 from 4. May 2009

EAC extraction logfile from 4. May 2010, 17:34

UB 40 / Live At Montreux 2002

Used drive : HL-DT-STDVD-RAM GH15L Adapter: 0 ID: 1

Read mode : Secure
Utilize accurate stream : Yes
Defeat audio cache : Yes
Make use of C2 pointers : No

Read offset correction : 667
Overread into Lead-In and Lead-Out : No
Fill up missing offset samples with silence : Yes
Delete leading and trailing silent blocks : No
Null samples used in CRC calculations : Yes
Used interface : Native Win32 interface for Win NT & 2000

Used output format : User Defined Encoder
Selected bitrate : 1024 kBit/s
Quality : High
Add ID3 tag : No
Command line compressor : C:\Users\mark\Documents\WavPack-4.60.1\wavpack.exe
Additional command line options : -m %s


TOC of the extracted CD

Track | Start | Length | Start sector | End sector
––––––––––––––––––––––––––––-
1 | 0:00.00 | 2:58.60 | 0 | 13409
2 | 2:58.60 | 4:12.31 | 13410 | 32340
3 | 7:11.16 | 4:32.26 | 32341 | 52766
4 | 11:43.42 | 3:42.25 | 52767 | 69441
5 | 15:25.67 | 3:38.09 | 69442 | 85800
6 | 19:04.01 | 4:13.42 | 85801 | 104817
7 | 23:17.43 | 3:59.16 | 104818 | 122758
8 | 27:16.59 | 4:07.14 | 122759 | 141297
9 | 31:23.73 | 4:21.73 | 141298 | 160945
10 | 35:45.71 | 6:21.59 | 160946 | 189579
11 | 42:07.55 | 4:10.02 | 189580 | 208331
12 | 46:17.57 | 3:49.27 | 208332 | 225533
13 | 50:07.09 | 5:21.28 | 225534 | 249636
14 | 55:28.37 | 3:57.47 | 249637 | 267458
15 | 59:26.09 | 3:02.43 | 267459 | 281151
16 | 62:28.52 | 4:56.23 | 281152 | 303374


Range status and errors

Selected range

Filename D:\UB40 [2007] [CD] Live At Montreux 2002 [EAC-WV]\UB 40 - Live At Montreux 2002.wav

Peak level 100.0 %
Range quality 100.0 %
Test CRC F6419984
Copy CRC F6419984
Copy OK

No errors occurred


AccurateRip summary

Track 1 cannot be verified as accurate (confidence 2) [26A6E7D3], AccurateRip returned [8F5D53C9]
Track 2 cannot be verified as accurate (confidence 2) [BFE21CDC], AccurateRip returned [9966DA0D]
Track 3 cannot be verified as accurate (confidence 2) [EF85E9E2], AccurateRip returned [0A3E67C6]
Track 4 cannot be verified as accurate (confidence 2) [60B1B5F5], AccurateRip returned [07997A60]
Track 5 cannot be verified as accurate (confidence 2) [1D2204DA], AccurateRip returned [89D2BDC9]
Track 6 cannot be verified as accurate (confidence 2) [7B23E2D0], AccurateRip returned [16F98E8A]
Track 7 cannot be verified as accurate (confidence 2) [41E59272], AccurateRip returned [2F38B056]
Track 8 cannot be verified as accurate (confidence 2) [7E1FE08C], AccurateRip returned [3CECB77F]
Track 9 cannot be verified as accurate (confidence 2) [8C0C5AA7], AccurateRip returned [9F82A590]
Track 10 cannot be verified as accurate (confidence 2) [EEAD3718], AccurateRip returned [9D3D4186]
Track 11 cannot be verified as accurate (confidence 2) [C7EEF822], AccurateRip returned [8380303F]
Track 12 cannot be verified as accurate (confidence 2) [040A1892], AccurateRip returned [5AAA44C1]
Track 13 cannot be verified as accurate (confidence 2) [5D23BED0], AccurateRip returned [55F03E80]
Track 14 cannot be verified as accurate (confidence 2) [F58D763B], AccurateRip returned [E9E078CB]
Track 15 cannot be verified as accurate (confidence 2) [F342A6FA], AccurateRip returned [7C31F7F9]
Track 16 cannot be verified as accurate (confidence 2) [66D93CB4], AccurateRip returned [BD70A34B]

No tracks could be verified as accurate
You may have a different pressing from the one(s) in the database

End of status report

foobar2000 1.1.16 / Dynamic Range Meter 1.1.1
log date: 2012-12-21 12:45:31

––––––––––––––––––––––––––––––––––––––––
Analyzed: UB40 / Live At Montreux 2002
––––––––––––––––––––––––––––––––––––––––

DR Peak RMS Duration Track
––––––––––––––––––––––––––––––––––––––––
DR11 0.00 dB -11.79 dB 2:59 01-The Way You Do The Things You Do
DR9 -0.41 dB -10.89 dB 4:12 02-Here I Am (Come And Take Me)
DR9 -0.09 dB -10.25 dB 4:32 03-One In Ten
DR8 -0.89 dB -9.69 dB 3:42 04-If It Happens Again
DR9 -0.21 dB -11.41 dB 3:38 05-Homely Girl
DR9 -0.97 dB -10.90 dB 4:14 06-Kingston Town
DR8 -0.79 dB -10.38 dB 3:59 07-Reggae Music
DR9 -0.42 dB -11.79 dB 4:07 08-Don't Break My Heart
DR10 -0.98 dB -12.74 dB 4:22 09-Love It When You Smile
DR9 -0.98 dB -11.34 dB 6:22 10-Rat In Mi Kitchen
DR6 -0.94 dB -8.67 dB 4:10 11-Rudie
DR7 -0.81 dB -8.77 dB 3:49 12-Cover Up
DR10 -0.40 dB -12.02 dB 5:21 13-Red, Red Wine
DR10 -0.81 dB -12.41 dB 3:58 14-(I Can't Help) Falling In Love With You
DR9 -0.96 dB -10.89 dB 3:03 15-Cherry Oh Baby
DR9 -0.06 dB -11.53 dB 4:56 16-Many Rivers To Cross
––––––––––––––––––––––––––––––––––––––––

Number of tracks: 16
Official DR value: DR9

Samplerate: 44100 Hz
Channels: 2
Bits per sample: 16
Bitrate: 928 kbps
Codec: WavPack
================================================================================

UB40 - Live At Montreux 2002 (2007) [Re-Up]

UB40 - Live At Montreux 2002 (2007) [Re-Up]

All thanks to original releaser

More interesting music in My Blog