Tags
Language
Tags

UB40 - Love Songs (2009)

Posted By: Designol
UB40 - Love Songs (2009)

UB40 - Love Songs (2009)
EAC | FLAC | Image (Cue&Log) ~ 518 Mb | Mp3 (CBR320) ~ 191 Mb | Scans included
Reggae, Reggae-Pop, Pop/Rock | Label: Virgin | # CDV3056 | Time: 01:15:57

2009 collection of heart-warming tracks by the UK's finest Pop/Reggae outfit. UB40 Love Songs brings together 20 of their best loved tracks that showcases the bands softer more sophisticated side. Featuring the huge #1 singles 'I Got You Babe' and '(I Can't Help) Falling in Love with You', Love Songs also features many more UB40 favorites including 'Please Don't Make Me Cry', 'Homely Girl', 'Breakfast in Bed', 'I'll Be Your Baby Tonight' and 'Don't Break My Heart'. Formed in Birmingham in 1978, and featuring the same line-up of 8 musicians from 1978-2008, UB40 have placed more than 50 singles on the UK charts, and achieved massive international success selling millions of albums around the world.

Once one of the more exciting reggae bands of the 1980s, UB40 have long since metamorphosed into little more than a slick cover band. If recent releases such as 2005's Who You Fighting For? hinted at a much delayed return to their roots, the arrival of a compilation album such as Love Songs puts any such hopes in temporary hiatus. Among all the UB40 releases, Love Songs is probably the band's most unabashedly commercial venture ever. Released expressly for Valentine's Day on February 2, 2009, Love Songs groups together 20 of UB40's most romantic songs, leaving aside their political material. Predictably, the bulk of this collection comes from the various Labour of Love volumes of covers. Many of their hits are included, such as "Can't Help Falling in Love"; the two duets with Chrissie Hynde, "Breakfast in Bed" and "I Got You Babe"; and the one with Robert Palmer on Dylan's "I'll Be Your Baby Tonight." By the way, and most unexpectedly of all, this is likely the only UB40 compilation where you will not find "Red Red Wine." Other highlights include "Homely Girl," "Don't Break My Heart," and "Where Did I Go Wrong." Of course, there is nothing essentially wrong with these songs. Many are quite beautiful and all are impeccably executed. Still, they work much better in the context of their original albums, or even previous greatest-hits compilations. When they sit side by side with less syrupy material, these songs shine in a different light, offering the variety and contrast that is sorely missing from Love Songs. As it is, this compilation paints a one-dimensional portrait of the band that not only does not render justice to UB40's music, but, more worryingly, makes the 80-minute listening experience of Love Songs a rather boring affair in the end. UB40 could occasionally be great; this collection grants them no favors, presenting them as a mood music outfit. Sadly, it may be just what their post-'90s audience wants: Love Songs went straight to the number three spot on the British charts upon its release.

Review by Mariano Prunes, Allmusic.com

UB40 - Love Songs (2009)



Tracklist:

01. Can't Help Falling In Love (3:28)
02. I Got You Babe (3:11)
03. Kiss And Say Goodbye (3:14)
04. You're Always Me Down (4:02)
05. Don't Break My Heart (3:50)
06. Please Don't Make Me Cry (3:26)
07. I Love It When You Smile (4:24)
08. Homely Girl (3:25)
09. Where Did I Go Wrong (3:50)
10. Come Back Darling (3:29)
11. Imposible Love (4:02)
12. Dream A Lie (2:57)
13. Rears From My Eyes (3:50)
14. Breakfast In Bed (3:16)
15. I'll Be Your Baby Tonight (3:25)
16. Bring Me Your Cup (4:10)
17. I'll Be There (3:59)
18. Gotta Tell Someone (4:21)
19. Here I Am (Come And Take Me) (4:04)
20. I Would Do For You (5:35)


Exact Audio Copy V0.99 prebeta 4 from 23. January 2008

Отчёт EAC об извлечении, выполненном 11. декабря 2012, 7:16

UB40 / Love Songs

Дисковод: ASUS DRW-1814BL Adapter: 1 ID: 0

Режим чтения : Достоверность
Использование точного потока : Да
Отключение кэша аудио : Да
Использование указателей C2 : Нет

Коррекция смещения при чтении : 6
Способность читать области Lead-in и Lead-out : Нет
Заполнение пропущенных сэмплов тишиной : Да
Удаление блоков с тишиной в начале и конце : Нет
При вычислениях CRC использовались нулевые сэмплы : Да
Интерфейс : Установленный внешний ASPI-интерфейс

Выходной формат : Пользовательский кодировщик
Выбранный битрейт : 1024 kBit/s
Качество : Высокий
Добавление ID3-тэга : Нет
Утилита сжатия : C:\Program Files\Exact Audio Copy\FLAC\FLAC.EXE
Дополнительные параметры : -6 -V -T "ARTIST=%a" -T "TITLE=%t" -T "ALBUM=%g" -T "DATE=%y" -T "TRACKNUMBER=%n" -T "GENRE=%m" -T "COMMENT=%e" %s -o %d


TOC извлечённого CD

Трек | Старт | Длительность | Начальный сектор | Конечный сектор
––––––––––––––––––––––––––––––––––-
1 | 0:00.00 | 3:28.35 | 0 | 15634
2 | 3:28.35 | 3:11.29 | 15635 | 29988
3 | 6:39.64 | 3:13.68 | 29989 | 44531
4 | 9:53.57 | 4:01.67 | 44532 | 62673
5 | 13:55.49 | 3:49.60 | 62674 | 79908
6 | 17:45.34 | 3:25.39 | 79909 | 95322
7 | 21:10.73 | 4:23.52 | 95323 | 115099
8 | 25:34.50 | 3:24.58 | 115100 | 130457
9 | 28:59.33 | 3:49.52 | 130458 | 147684
10 | 32:49.10 | 3:28.46 | 147685 | 163330
11 | 36:17.56 | 4:02.19 | 163331 | 181499
12 | 40:20.00 | 2:56.72 | 181500 | 194771
13 | 43:16.72 | 3:50.13 | 194772 | 212034
14 | 47:07.10 | 3:16.37 | 212035 | 226771
15 | 50:23.47 | 3:24.74 | 226772 | 242145
16 | 53:48.46 | 4:10.35 | 242146 | 260930
17 | 57:59.06 | 3:58.73 | 260931 | 278853
18 | 61:58.04 | 4:20.38 | 278854 | 298391
19 | 66:18.42 | 4:03.41 | 298392 | 316657
20 | 70:22.08 | 5:34.38 | 316658 | 341745


Характеристики диапазона извлечения и сообщения об ошибках

Выбранный диапазон

Имя файла D:\loSSleSS\UB40'09\UB40 - Love Songs.wav

Пиковый уровень 99.9 %
Качество диапазона 100.0 %
CRC теста 0F77A8FA
CRC копии 0F77A8FA
Копирование… OK

Ошибок не произошло


AccurateRip: сводка

Трек 1 точность не определена (достоверность 9) [CBDFF354], AccurateRip вернул [50F1FC12]
Трек 2 точность не определена (достоверность 9) [1F2310F4], AccurateRip вернул [60367CEF]
Трек 3 точность не определена (достоверность 9) [222B2AFF], AccurateRip вернул [83F7DCA3]
Трек 4 точность не определена (достоверность 9) [C642E210], AccurateRip вернул [128BC9BB]
Трек 5 точность не определена (достоверность 9) [089B4F7C], AccurateRip вернул [FE1F85F1]
Трек 6 точность не определена (достоверность 9) [11CDD28B], AccurateRip вернул [745C050B]
Трек 7 точность не определена (достоверность 9) [A900A2A1], AccurateRip вернул [8AC308B2]
Трек 8 точность не определена (достоверность 9) [55D10A5B], AccurateRip вернул [B6ABFA7B]
Трек 9 точность не определена (достоверность 9) [0002C051], AccurateRip вернул [29804A01]
Трек 10 точность не определена (достоверность 9) [ECC91E48], AccurateRip вернул [037AA7DF]
Трек 11 точность не определена (достоверность 9) [79600BA1], AccurateRip вернул [3D4F13C4]
Трек 12 точность не определена (достоверность 9) [FAF110C9], AccurateRip вернул [4B8724BD]
Трек 13 точность не определена (достоверность 9) [3C233C2C], AccurateRip вернул [21E43CE8]
Трек 14 точность не определена (достоверность 9) [93AF348F], AccurateRip вернул [9026ED87]
Трек 15 точность не определена (достоверность 9) [BBAAD5DC], AccurateRip вернул [4B688401]
Трек 16 точность не определена (достоверность 9) [9E6FD0A9], AccurateRip вернул [0675B60A]
Трек 17 точность не определена (достоверность 9) [98E8F9DC], AccurateRip вернул [9E472CBB]
Трек 18 точность не определена (достоверность 9) [ABD539DE], AccurateRip вернул [207FECFF]
Трек 19 точность не определена (достоверность 9) [5C13FDD9], AccurateRip вернул [A97DF3C2]
Трек 20 точность не определена (достоверность 9) [5D37BA1F], AccurateRip вернул [B1BB8F7B]

Ни один трек не прошёл проверки на точность
В вашей базе может быть иной вариант штамповки диска

Конец отчёта

[CUETools log; Date: 08.09.2018 0:17:34; Version: 2.1.4]
[CTDB TOCID: z2Z6TSGLeGa9fVPlZugkSKGoGfU-] found.
Track | CTDB Status
1 | (17/17) Accurately ripped
2 | (17/17) Accurately ripped
3 | (17/17) Accurately ripped
4 | (17/17) Accurately ripped
5 | (17/17) Accurately ripped
6 | (16/17) Accurately ripped
7 | (17/17) Accurately ripped
8 | (17/17) Accurately ripped
9 | (17/17) Accurately ripped
10 | (17/17) Accurately ripped
11 | (17/17) Accurately ripped
12 | (17/17) Accurately ripped
13 | (17/17) Accurately ripped
14 | (17/17) Accurately ripped
15 | (17/17) Accurately ripped
16 | (17/17) Accurately ripped
17 | (17/17) Accurately ripped
18 | (17/17) Accurately ripped
19 | (17/17) Accurately ripped
20 | (17/17) Accurately ripped
[AccurateRip ID: 0034776a-0305e06b-1011cc14] found.
Track [ CRC | V2 ] Status
01 [cbdff354|326c00a1] (00+00/19) No match
02 [1f2310f4|e482b7a2] (00+00/20) No match
03 [222b2aff|85360d38] (00+00/21) No match
04 [c642e210|e654d083] (00+00/19) No match
05 [089b4f7c|6822308f] (00+00/20) No match
06 [11cdd28b|a23f4480] (00+00/19) No match
07 [a900a2a1|0cafdd30] (00+00/19) No match
08 [55d10a5b|e6c0172e] (00+00/20) No match
09 [0002c051|f5983a97] (00+00/20) No match
10 [ecc91e48|1188985f] (00+00/20) No match
11 [79600ba1|02269f38] (00+00/19) No match
12 [faf110c9|649ea722] (00+00/19) No match
13 [3c233c2c|2668a5fb] (00+00/20) No match
14 [93af348f|648be125] (00+00/19) No match
15 [bbaad5dc|b7884835] (00+00/20) No match
16 [9e6fd0a9|01cd3f39] (00+00/20) No match
17 [98e8f9dc|f74eeb58] (00+00/19) No match
18 [abd539de|12d2d8ff] (00+00/19) No match
19 [5c13fdd9|f6646948] (00+00/20) No match
20 [5d37ba1f|5c80cdaf] (00+00/19) No match
Offsetted by 30:
01 [50f1fc12] (09/19) Accurately ripped
02 [60367cef] (09/20) Accurately ripped
03 [83f7dca3] (09/21) Accurately ripped
04 [128bc9bb] (09/19) Accurately ripped
05 [fe1f85f1] (09/20) Accurately ripped
06 [745c050b] (09/19) Accurately ripped
07 [8ac308b2] (09/19) Accurately ripped
08 [b6abfa7b] (09/20) Accurately ripped
09 [29804a01] (09/20) Accurately ripped
10 [037aa7df] (09/20) Accurately ripped
11 [3d4f13c4] (09/19) Accurately ripped
12 [4b8724bd] (09/19) Accurately ripped
13 [21e43ce8] (09/20) Accurately ripped
14 [9026ed87] (09/19) Accurately ripped
15 [4b688401] (09/20) Accurately ripped
16 [0675b60a] (09/20) Accurately ripped
17 [9e472cbb] (09/19) Accurately ripped
18 [207fecff] (09/19) Accurately ripped
19 [a97df3c2] (09/20) Accurately ripped
20 [b1bb8f7b] (09/19) Accurately ripped

Track Peak [ CRC32 ] [W/O NULL] [ LOG ]
– 99,9 [0F77A8FA] [9EC9DB2A] CRC32
01 99,9 [5AAED1E8] [C0F9F65F]
02 99,8 [BAC91FDE] [27D6F9A0]
03 82,1 [4F9145F0] [A051FE4E]
04 87,3 [74986738] [E55C6417]
05 97,9 [16E7983B] [4CAD2680]
06 99,9 [01C06BDF] [FEA0C2FE]
07 97,9 [AFD1D3B3] [6B32FCB8]
08 99,9 [B6C282E8] [B0147F5E]
09 73,4 [2AE80E6F] [A0643BA2]
10 93,6 [203DDB3C] [7CBAB0DA]
11 99,9 [28CD7FEB] [6F0AF64F]
12 97,9 [DEB6EE83] [379F4D80]
13 99,9 [3FF1EA28] [AD887740]
14 88,4 [BEFD195A] [437C9223]
15 82,4 [BE2D4BC3] [D2EDD9DA]
16 97,9 [F2CEEF51] [F750D14C]
17 80,5 [17051900] [7C5BEF04]
18 76,6 [A3C69A7C] [79B40594]
19 99,9 [5979A86C] [D7F85171]
20 97,9 [A2EE49E7] [7EF66E28]

foobar2000 1.2 / Dynamic Range Meter 1.1.1
log date: 2018-09-08 00:23:59

––––––––––––––––––––––––––––––––––––––––
Analyzed: UB40 / Love Songs
––––––––––––––––––––––––––––––––––––––––

DR Peak RMS Duration Track
––––––––––––––––––––––––––––––––––––––––
DR11 -0.01 dB -12.90 dB 3:28 01-Can't Help Falling In Love
DR11 -0.01 dB -12.36 dB 3:11 02-I Got You Babe
DR8 -1.71 dB -10.44 dB 3:14 03-Kiss And Say Goodbye
DR8 -1.18 dB -10.67 dB 4:02 04-You're Always Me Down
DR9 -0.18 dB -11.21 dB 3:50 05-Don't Break My Heart
DR9 -0.01 dB -9.59 dB 3:26 06-Please Don't Make Me Cry
DR9 -0.18 dB -10.67 dB 4:24 07-I Love It When You Smile
DR10 -0.01 dB -11.61 dB 3:25 08-Homely Girl
DR8 -2.68 dB -11.49 dB 3:50 09-Where Did I Go Wrong
DR9 -0.57 dB -11.30 dB 3:29 10-Come Back Darling
DR8 -0.01 dB -10.01 dB 4:02 11-Imposible Love
DR10 -0.18 dB -11.24 dB 2:57 12-Dream A Lie
DR8 -0.01 dB -10.04 dB 3:50 13-Rears From My Eyes
DR10 -1.07 dB -12.55 dB 3:16 14-Breakfast In Bed
DR10 -1.68 dB -12.98 dB 3:25 15-I'll Be Your Baby Tonight
DR9 -0.18 dB -10.52 dB 4:10 16-Bring Me Your Cup
DR6 -1.88 dB -9.95 dB 3:59 17-I'll Be There
DR7 -2.31 dB -11.08 dB 4:21 18-Gotta Tell Someone
DR11 -0.01 dB -12.05 dB 4:04 19-Here I Am (Come And Take Me)
DR10 -0.18 dB -11.37 dB 5:35 20-I Would Do For You
––––––––––––––––––––––––––––––––––––––––

Number of tracks: 20
Official DR value: DR9

Samplerate: 44100 Hz
Channels: 2
Bits per sample: 16
Bitrate: 923 kbps
Codec: FLAC
================================================================================

UB40 - Love Songs (2009)

UB40 - Love Songs (2009)