Subcategories

U.D.O. - Animal House (1987) (Japan R32P-1143)

Posted By: apocalipsys2014
U.D.O. - Animal House (1987) (Japan R32P-1143)

U.D.O. - Animal House (1987)
Year & Label: 1987/88, BMG Victor Japan | CD#: R32P-1143
Flac (image) | MP3 CBR 320 Kbps | Artwork (JPG, 600 dpi) | File-hosts: Uploaded.net
Heavy Metal | FLAC: 320 MB | Artwork: 35 MB | MP3: 110 MB | 5% WinRAR Recovery

EAC Secure-rip with LOG+CUE+COVERS | Source: torrents
Japanese 1st Press CD

Fans of Accept should enjoy the first solo album from lead singer Udo Dirkschneider, which employs all the crushing power of that band's Teutonic metal sound without the latent pop influences. Udo's unmistakable howl leads the charge on Animal House, while his backing band do an uncanny job of copying Accept's immaculate metal crunch. Of course, the fact that all the songs were written by Accept and producer Deaffy may have something to do with the familiarity of the sound.

www.metal-archives.com
Musicians:

Vocals : Udo Dirkschneider
Guitars : Peter Szigeti
Guitars : Mathias Dieth
Bass : Frank Rittel
Drums : Thomas Franke

Recorded and mixed in August - October 1987 at Dierks Studios, Cologne.
Mastered at Sterling Studio, N.Y.

Track List:

01. Animal House [4:21]
02. Go Back To Hell [4:33]
03. They Want War [4:12]
04. Black Widow [4:33]
05. In The Darkness [4:05]
06. Lay Down The Law [3:48]
07. We Want It Loud [4:07]
08. Hot Tonight [4:45]
09. Warrior [4:23]
10. Coming Home [3:42]
11. Run For Cover [4:50]

Exact Audio Copy V1.0 beta 3 from 29. August 2011

EAC extraction logfile from 17. December 2013, 14:10

U.D.O. / Animal House [R32P-1143]

Used drive : TSSTcorpCDDVDW SH-S223C Adapter: 0 ID: 0

Read mode : Secure
Utilize accurate stream : Yes
Defeat audio cache : Yes
Make use of C2 pointers : No

Read offset correction : 697
Overread into Lead-In and Lead-Out : No
Fill up missing offset samples with silence : Yes
Delete leading and trailing silent blocks : No
Null samples used in CRC calculations : Yes
Used interface : Installed external ASPI interface

Used output format : User Defined Encoder
Selected bitrate : 1024 kBit/s
Quality : High
Add ID3 tag : No
Command line compressor : C:\Program Files (x86)\Exact Audio Copy\Flac\flac.exe
Additional command line options : -V -8 -T "Date=%year%" -T "Genre=%genre%" %source%


TOC of the extracted CD

Track | Start | Length | Start sector | End sector
––––––––––––––––––––––––––––-
1 | 0:00.37 | 4:21.05 | 37 | 19616
2 | 4:21.42 | 4:33.13 | 19617 | 40104
3 | 8:54.55 | 4:11.47 | 40105 | 58976
4 | 13:06.27 | 4:32.53 | 58977 | 79429
5 | 17:39.05 | 4:05.10 | 79430 | 97814
6 | 21:44.15 | 3:48.30 | 97815 | 114944
7 | 25:32.45 | 4:07.12 | 114945 | 133481
8 | 29:39.57 | 4:44.50 | 133482 | 154831
9 | 34:24.32 | 4:23.35 | 154832 | 174591
10 | 38:47.67 | 3:42.15 | 174592 | 191256
11 | 42:30.07 | 4:50.30 | 191257 | 213036


Range status and errors

Selected range

Filename D:\CDRip by Ballcrusher\U.D.O. - Animal House [R32P-1143].wav

Peak level 97.9 %
Extraction speed 3.2 X
Range quality 100.0 %
Test CRC B9611FEC
Copy CRC B9611FEC
Copy OK

No errors occurred


AccurateRip summary

Track 1 accurately ripped (confidence 1) [AFACC712] (AR v1)
Track 2 accurately ripped (confidence 1) [D9251187] (AR v1)
Track 3 accurately ripped (confidence 1) [7F1C8D3A] (AR v1)
Track 4 accurately ripped (confidence 1) [7F168988] (AR v1)
Track 5 accurately ripped (confidence 1) [E34872CF] (AR v1)
Track 6 accurately ripped (confidence 1) [F6DDF682] (AR v1)
Track 7 accurately ripped (confidence 1) [2AAFD52C] (AR v1)
Track 8 accurately ripped (confidence 1) [7869EC9F] (AR v1)
Track 9 accurately ripped (confidence 1) [E23D0FA5] (AR v1)
Track 10 accurately ripped (confidence 1) [8773F94A] (AR v1)
Track 11 accurately ripped (confidence 1) [A782E998] (AR v1)

All tracks accurately ripped

End of status report

==== Log checksum ADDA2EEE5E2A2D2B2670E87D9CE8070974C59E734568923FE1763ED687B38A63 ====

Not my rip, not my scan-job. Thx very much to the original uploader Ballcrusher!
5% WinRar Recovery Record for all files.
Try before you might buy. Support the artists you like and buy their stuff whenever you can afford it.
FLAC, image + atrwork or mp3 at Uploaded.net:
FLAC | Artwork | Mp3 320 kbps