Subcategories

UT New Trolls - Do Ut Des (2013)

Posted By: Andi_Deris
UT New Trolls - Do Ut Des (2013)

UT New Trolls - Do Ut Des (2013)
EAC Rip | WavPack (.wv): Image+Cue+Log | 312 Mb | MP3 CBR 320 kbps | 134 Mb | Scans | 80 Mb | Time: 42:27
Aereostella/Immaginifica | ARS IMM / 1012
Progressive Rock, RPI

"Someone associated with the New Trolls or Ibis: none of this. Do not disown our past that has helped us to Gianni Belleno grow, but the project we have in mind is to get his way. Moreover, neither we are more than that, it's anagraficamente, both in the faces, in situations and, of course, in the music we play. It remains, however, the desire to revisit that period that has so profoundly marked our youth. Our management, and we agreed on this project. We wanted to call it UT New Trolls, not just by the title of the album where we played as New Trolls. "Ut" is a Latin word, the preposition that expresses a purpose, a desire that we first we would materialise. But "Ut" is, at the same time, the first musical note, DO the Gregorian notation: the deep roots of the music, the desire to revisit the streets, to offer it to those who want to stay with us and receive in return the simple humanity that is, after all, that today there is really need. Not for nothing "DO UT DES", which translates as "giving and receivin" is the title of our new work. It is not something imposed, with its tight, its rhythms that envelop and, unfortunately, sometimes suffocate our being men or women: we wanted the "playful"Maurizio Salvi aspect was crucial. We believe it is essential to ensure that people, we were the first, and most units: there can be diversity of views, but never enough to bring to the fight. We wanted this to be the first "clause", if we can call it, of our project.

The cornerstone on which to build for one can enjoy things and music first for us, that we play and, of course, for those who want to hear it and share it. We continue to think that the appearance of "communion" is the one that best fits the music: you can play only for themselves. If the music is a language, will of course her answers and, of course, you can find: many people are those who hear it.

Our project, then, appears as a laboratory: a "work in progress" that, of course, "Ut", "Searching for a land", "Songs of innocence, songs of experience" will have their space but revisited, beyond a group that took a thousand vicissitudes, many names, many faces … Because, in the end, what counts in a group and it does exist is music. We hope that you find the time to touch the hearts of the people and to show us the human face of all ".

The blending of sweet sound and harmonic harshness produces effects of a great beauty.
Powerful, strong musics, stories told with modern words and scores show us the inner nature of music.
A solid ensemble, they can explore repertoires and languages, and their music reaches a charming and engaging balance.
Music shows a non-smooth thread in its tones, strong dynamics and spectacular excursion, surrounded by a hazing glow timbre, always chased and clean, clear in its details. Every song of UT result mesmerizing, deep and well structured, always perfect in inventiveness and a technical talent which adapts to the diversity of the tracks. A disk full of intense interpretations and without any forcing, which can speak an original language, an extraordinary concentration of genres and musical suggestions. An unique sound, evenloping and overwhelving at the same time.
Melodies that can reach the deepness of everyone: emotions never get old! ~ Daniele Raimondi



UT New Trolls - Do Ut Des (2013)


Track Listing

01. Paganini (0:49)
02. Per Ogni Lacrima (6:03)
03. La Luce Di Vermeer (4:11)
04. Oltre Il Cielo (3:53)
05. Rispettare Puo Salvare (4:55)
06. Do Ut Des (6:24)
07. Sara Per Noi (4:08)
08. Siam Tornati Qui (3:46)
09. Sporca Politica (4:27)
10. Can't Go On (feat. Fergie Frederiksen) (3:51)

Produced by Gianni Belleno & Maurizio Salvi

The Band

• Gianni Belleno (ex: New Trolls) - drums, vocals
• Maurizio Salvi (ex: New Trolls) - keyboards and choir
• Alexander Del Vecchio - vocals and keyboards
• Claudio Cinquegrana - guitar, choir
• Anna Portalupi - guitar, bass

*****
• Fergie Frederiksen (Toto) - vocals (10)

UT New Trolls - Do Ut Des (2013)


Exact Audio Copy V1.0 beta 3 from 29. August 2011

EAC extraction logfile from 26. September 2013, 6:21

Ut New Trolls / Do Ut Des

Used drive : PIONEER DVD-RW DVR-220RS Adapter: 0 ID: 0

Read mode : Secure
Utilize accurate stream : Yes
Defeat audio cache : Yes
Make use of C2 pointers : No

Read offset correction : 6
Overread into Lead-In and Lead-Out : No
Fill up missing offset samples with silence : Yes
Delete leading and trailing silent blocks : No
Null samples used in CRC calculations : Yes
Used interface : Native Win32 interface for Win NT & 2000

Used output format : User Defined Encoder
Selected bitrate : 128 kBit/s
Quality : High
Add ID3 tag : No
Command line compressor : C:\Program Files (x86)\Exact Audio Copy\Wavpack\wavpack.exe
Additional command line options : -hlm %source% %dest%


TOC of the extracted CD

Track | Start | Length | Start sector | End sector
––––––––––––––––––––––––––––-
1 | 0:00.00 | 0:49.45 | 0 | 3719
2 | 0:49.45 | 6:03.11 | 3720 | 30955
3 | 6:52.56 | 4:11.53 | 30956 | 49833
4 | 11:04.34 | 3:53.09 | 49834 | 67317
5 | 14:57.43 | 4:55.41 | 67318 | 89483
6 | 19:53.09 | 6:24.52 | 89484 | 118335
7 | 26:17.61 | 4:08.00 | 118336 | 136935
8 | 30:25.61 | 3:46.33 | 136936 | 153918
9 | 34:12.19 | 4:27.23 | 153919 | 173966
10 | 38:39.42 | 3:51.09 | 173967 | 191300


Range status and errors

Selected range

Filename C:\NL+ byTATUK\CD05\Ut New Trolls - Do Ut Des.wav

Peak level 98.8 %
Extraction speed 1.8 X
Range quality 100.0 %
Test CRC F9579777
Copy CRC F9579777
Copy OK

No errors occurred


AccurateRip summary

Track 1 accurately ripped (confidence 1) [861054B0] (AR v2)
Track 2 accurately ripped (confidence 1) [7DA01808] (AR v2)
Track 3 accurately ripped (confidence 1) [70A60DE6] (AR v2)
Track 4 accurately ripped (confidence 1) [E02E4FF4] (AR v2)
Track 5 accurately ripped (confidence 1) [E77AAB6D] (AR v2)
Track 6 accurately ripped (confidence 1) [4179B67F] (AR v2)
Track 7 accurately ripped (confidence 1) [85549FA4] (AR v2)
Track 8 accurately ripped (confidence 1) [D1002BA1] (AR v2)
Track 9 accurately ripped (confidence 1) [A95625E2] (AR v2)
Track 10 accurately ripped (confidence 1) [7835BB1E] (AR v2)

All tracks accurately ripped

End of status report

–– CUETools DB Plugin V2.1.3

[CTDB TOCID: ELBfNNVGHSHlUul40gw0hoiSaH8-] disk not present in database, Submit result: ELBfNNVGHSHlUul40gw0hoiSaH8- has been uploaded


==== Log checksum 8C6D477D96E8EF37D64992473EABC68382ABB4B6675B2E6FD4BE2C91C90E9279 ====


Many thanks to the original uploader: tatuk

SEE also:
New Trolls 1971 Concerto Grosso per i New Trolls [Japanese Ed. 1991]
New Trolls 1976 Concerto Grosso N° 2 [Japanese Ed. 1991]