Subcategories
Tags
Language
Tags

Underworld - Second Toughest In The Infants [Super Deluxe Edition] (2015)

Posted By: JET 1
Underworld - Second Toughest In The Infants [Super Deluxe Edition] (2015)

Underworld - Second Toughest In The Infants [Super Deluxe Edition] (2015)
EAC Rip | FLAC (Tracks) +CUE, LOG | 1.90 GB
Genre: Electronic, Techno | Label: UMC Records | Catalog Number: uwr00051

Originally released in March 1996, Second Toughest In The Infants is Underworld’s masterpiece. Following 1994’s ground breaking predecessor dubnobasswithmyheadman (the record that cemented the band’s reputation as one of the UK’s most important dance acts), Second Toughest… was the point they forged out alone, in turn creating some of the most forward thinking electronic music this country has ever produced. This new release sees the album remastered for the first time and collects together rare singles, remixes and unreleased studio and live tracks.

Exact Audio Copy V1.1 from 23. June 2015

EAC extraction logfile from 20. November 2015, 9:46

Underworld / Second Toughest In The Infants (2015 remaster) [CD1]

Used drive : Optiarc DVD RW AD-5260S Adapter: 1 ID: 1

Read mode : Secure
Utilize accurate stream : Yes
Defeat audio cache : Yes
Make use of C2 pointers : No

Read offset correction : 48
Overread into Lead-In and Lead-Out : No
Fill up missing offset samples with silence : Yes
Delete leading and trailing silent blocks : No
Null samples used in CRC calculations : Yes
Used interface : Native Win32 interface for Win NT & 2000
Gap handling : Appended to previous track

Used output format : User Defined Encoder
Selected bitrate : 128 kBit/s
Quality : High
Add ID3 tag : No
Command line compressor : C:\Program Files (x86)\Exact Audio Copy\Flac\flac.exe
Additional command line options : -8 -V -T "ARTIST=%artist%" -T "TITLE=%title%" -T "ALBUM=%albumtitle%" -T "DATE=%year%" -T "TRACKNUMBER=%tracknr%" -T "GENRE=%genre%" -T "PERFORMER=%albuminterpret%" -T "COMPOSER=%composer%" %haslyrics%–tag-from-file=LYRICS="%lyricsfile%"%haslyrics% -T "ALBUMARTIST=%albumartist%" -T "DISCNUMBER=%cdnumber%" -T "TOTALDISCS=%totalcds%" -T "TOTALTRACKS=%numtracks%" -T "COMMENT=%comment%" %source% -o %dest%


TOC of the extracted CD

Track | Start | Length | Start sector | End sector
––––––––––––––––––––––––––––-
1 | 0:00.00 | 16:36.63 | 0 | 74762
2 | 16:36.63 | 15:22.43 | 74763 | 143955
3 | 31:59.31 | 6:47.09 | 143956 | 174489
4 | 38:46.40 | 6:31.15 | 174490 | 203829
5 | 45:17.55 | 9:37.04 | 203830 | 247108
6 | 54:54.59 | 7:37.28 | 247109 | 281411
7 | 62:32.12 | 3:03.01 | 281412 | 295137
8 | 65:35.13 | 7:39.01 | 295138 | 329563


Track 1

Filename C:\Dustie Documents\EAC ripping\Underworld - Second Toughest In The Infants (2015 remaster) [CD1] (2015) [FLAC]\01 - Juanita- Kiteless- To Dream Of Love.wav

Pre-gap length 0:00:02.00

Peak level 98.9 %
Extraction speed 3.2 X
Track quality 100.0 %
Test CRC 7835083D
Copy CRC 7835083D
Track not present in AccurateRip database
Copy OK

Track 2

Filename C:\Dustie Documents\EAC ripping\Underworld - Second Toughest In The Infants (2015 remaster) [CD1] (2015) [FLAC]\02 - Banstyle- Sappys Curry.wav

Peak level 94.8 %
Extraction speed 4.0 X
Track quality 100.0 %
Test CRC 6C261BDA
Copy CRC 6C261BDA
Track not present in AccurateRip database
Copy OK

Track 3

Filename C:\Dustie Documents\EAC ripping\Underworld - Second Toughest In The Infants (2015 remaster) [CD1] (2015) [FLAC]\03 - Confusion The Waitress.wav

Peak level 94.2 %
Extraction speed 4.3 X
Track quality 100.0 %
Test CRC 9834BC62
Copy CRC 9834BC62
Track not present in AccurateRip database
Copy OK

Track 4

Filename C:\Dustie Documents\EAC ripping\Underworld - Second Toughest In The Infants (2015 remaster) [CD1] (2015) [FLAC]\04 - Rowla.wav

Peak level 96.3 %
Extraction speed 4.5 X
Track quality 100.0 %
Test CRC D79BD40F
Copy CRC D79BD40F
Track not present in AccurateRip database
Copy OK

Track 5

Filename C:\Dustie Documents\EAC ripping\Underworld - Second Toughest In The Infants (2015 remaster) [CD1] (2015) [FLAC]\05 - Pearl's Girl.wav

Peak level 98.4 %
Extraction speed 4.9 X
Track quality 100.0 %
Test CRC 8BC93AB0
Copy CRC 8BC93AB0
Track not present in AccurateRip database
Copy OK

Track 6

Filename C:\Dustie Documents\EAC ripping\Underworld - Second Toughest In The Infants (2015 remaster) [CD1] (2015) [FLAC]\06 - Air Towel.wav

Peak level 95.1 %
Extraction speed 5.1 X
Track quality 100.0 %
Test CRC B5E9930A
Copy CRC B5E9930A
Track not present in AccurateRip database
Copy OK

Track 7

Filename C:\Dustie Documents\EAC ripping\Underworld - Second Toughest In The Infants (2015 remaster) [CD1] (2015) [FLAC]\07 - Blueski.wav

Peak level 93.6 %
Extraction speed 4.9 X
Track quality 100.0 %
Test CRC 4CE02A22
Copy CRC 4CE02A22
Track not present in AccurateRip database
Copy OK

Track 8

Filename C:\Dustie Documents\EAC ripping\Underworld - Second Toughest In The Infants (2015 remaster) [CD1] (2015) [FLAC]\08 - Stagger.wav

Peak level 95.1 %
Extraction speed 5.6 X
Track quality 100.0 %
Test CRC F920C377
Copy CRC F920C377
Track not present in AccurateRip database
Copy OK


None of the tracks are present in the AccurateRip database

No errors occurred

End of status report

–– CUETools DB Plugin V2.1.6

[CTDB TOCID: glAF1PONTwoYQP8dSifj5ABKNNE-] disk not present in database
Submit result: glAF1PONTwoYQP8dSifj5ABKNNE- has been uploaded


==== Log checksum C08CC874C1995A8F18C7B30C5FEBC87484E5267AB2CFE19E59498CDACC3A9EAA ====

Exact Audio Copy V1.1 from 23. June 2015

EAC extraction logfile from 20. November 2015, 10:28

Underworld / Second Toughest In The Infants CD2 (Extra Tracks + Mixes/Remixes)

Used drive : Optiarc DVD RW AD-5260S Adapter: 1 ID: 1

Read mode : Secure
Utilize accurate stream : Yes
Defeat audio cache : Yes
Make use of C2 pointers : No

Read offset correction : 48
Overread into Lead-In and Lead-Out : No
Fill up missing offset samples with silence : Yes
Delete leading and trailing silent blocks : No
Null samples used in CRC calculations : Yes
Used interface : Native Win32 interface for Win NT & 2000
Gap handling : Appended to previous track

Used output format : User Defined Encoder
Selected bitrate : 128 kBit/s
Quality : High
Add ID3 tag : No
Command line compressor : C:\Program Files (x86)\Exact Audio Copy\Flac\flac.exe
Additional command line options : -8 -V -T "ARTIST=%artist%" -T "TITLE=%title%" -T "ALBUM=%albumtitle%" -T "DATE=%year%" -T "TRACKNUMBER=%tracknr%" -T "GENRE=%genre%" -T "PERFORMER=%albuminterpret%" -T "COMPOSER=%composer%" %haslyrics%–tag-from-file=LYRICS="%lyricsfile%"%haslyrics% -T "ALBUMARTIST=%albumartist%" -T "DISCNUMBER=%cdnumber%" -T "TOTALDISCS=%totalcds%" -T "TOTALTRACKS=%numtracks%" -T "COMMENT=%comment%" %source% -o %dest%


TOC of the extracted CD

Track | Start | Length | Start sector | End sector
––––––––––––––––––––––––––––-
1 | 0:00.00 | 8:26.01 | 0 | 37950
2 | 8:26.01 | 8:34.57 | 37951 | 76557
3 | 17:00.58 | 3:53.64 | 76558 | 94096
4 | 20:54.47 | 5:00.26 | 94097 | 116622
5 | 25:54.73 | 8:24.71 | 116623 | 154493
6 | 34:19.69 | 8:16.26 | 154494 | 191719
7 | 42:36.20 | 9:05.06 | 191720 | 232600
8 | 51:41.26 | 8:31.69 | 232601 | 270994
9 | 60:13.20 | 10:00.66 | 270995 | 316060


Track 1

Filename C:\Dustie Documents\EAC ripping\Underworld - Second Toughest In The Infants CD2 (Extra Tracks + Mixes,Remixes) (2015) [FLAC]\01 - Cherry Pie.wav

Pre-gap length 0:00:02.00

Peak level 98.9 %
Extraction speed 2.8 X
Track quality 100.0 %
Test CRC 7EA23368
Copy CRC 7EA23368
Track not present in AccurateRip database
Copy OK

Track 2

Filename C:\Dustie Documents\EAC ripping\Underworld - Second Toughest In The Infants CD2 (Extra Tracks + Mixes,Remixes) (2015) [FLAC]\02 - Oich Oich.wav

Peak level 97.0 %
Extraction speed 3.3 X
Track quality 100.0 %
Test CRC 67A4EF3F
Copy CRC 67A4EF3F
Track not present in AccurateRip database
Copy OK

Track 3

Filename C:\Dustie Documents\EAC ripping\Underworld - Second Toughest In The Infants CD2 (Extra Tracks + Mixes,Remixes) (2015) [FLAC]\03 - Puppies.wav

Peak level 94.0 %
Extraction speed 3.3 X
Track quality 100.0 %
Test CRC E9086392
Copy CRC E9086392
Track not present in AccurateRip database
Copy OK

Track 4

Filename C:\Dustie Documents\EAC ripping\Underworld - Second Toughest In The Infants CD2 (Extra Tracks + Mixes,Remixes) (2015) [FLAC]\04 - Mosaic.wav

Peak level 93.8 %
Extraction speed 3.6 X
Track quality 100.0 %
Test CRC 13476899
Copy CRC 13476899
Track not present in AccurateRip database
Copy OK

Track 5

Filename C:\Dustie Documents\EAC ripping\Underworld - Second Toughest In The Infants CD2 (Extra Tracks + Mixes,Remixes) (2015) [FLAC]\05 - Deep Arch.wav

Peak level 96.0 %
Extraction speed 3.9 X
Track quality 99.9 %
Test CRC AE2854DA
Copy CRC AE2854DA
Track not present in AccurateRip database
Copy OK

Track 6

Filename C:\Dustie Documents\EAC ripping\Underworld - Second Toughest In The Infants CD2 (Extra Tracks + Mixes,Remixes) (2015) [FLAC]\06 - Pearl's Girl (Tin There).wav

Peak level 98.9 %
Extraction speed 4.2 X
Track quality 99.9 %
Test CRC 7D6B290C
Copy CRC 7D6B290C
Track not present in AccurateRip database
Copy OK

Track 7

Filename C:\Dustie Documents\EAC ripping\Underworld - Second Toughest In The Infants CD2 (Extra Tracks + Mixes,Remixes) (2015) [FLAC]\07 - Pearl's Girl (14996 Version).wav

Peak level 98.8 %
Extraction speed 4.8 X
Track quality 100.0 %
Test CRC 82D39B28
Copy CRC 82D39B28
Track not present in AccurateRip database
Copy OK

Track 8

Filename C:\Dustie Documents\EAC ripping\Underworld - Second Toughest In The Infants CD2 (Extra Tracks + Mixes,Remixes) (2015) [FLAC]\08 - Born Slippy (Original Intrumental Version).wav

Peak level 96.5 %
Extraction speed 4.7 X
Track quality 99.9 %
Test CRC 9E95B389
Copy CRC 9E95B389
Track not present in AccurateRip database
Copy OK

Track 9

Filename C:\Dustie Documents\EAC ripping\Underworld - Second Toughest In The Infants CD2 (Extra Tracks + Mixes,Remixes) (2015) [FLAC]\09 - Born Slippy.Nuxx (Deep Pan).wav

Peak level 97.8 %
Extraction speed 5.4 X
Track quality 100.0 %
Test CRC CE92DC43
Copy CRC CE92DC43
Track not present in AccurateRip database
Copy OK


None of the tracks are present in the AccurateRip database

No errors occurred

End of status report

–– CUETools DB Plugin V2.1.6

[CTDB TOCID: dyf9Yu.7C5g0l8JDO8Xff0DIp9E-] disk not present in database
Submit result: dyf9Yu.7C5g0l8JDO8Xff0DIp9E- has been uploaded


==== Log checksum 753BABB9EB69BB75B01272DB5981E000ADE3AFA88BBD9A27A4E5993451B578E5 ====

Exact Audio Copy V1.1 from 23. June 2015

EAC extraction logfile from 20. November 2015, 11:07

Underworld / Second Toughest In The Infants (Super Deluxe Edition) CD3

Used drive : Optiarc DVD RW AD-5260S Adapter: 1 ID: 1

Read mode : Secure
Utilize accurate stream : Yes
Defeat audio cache : Yes
Make use of C2 pointers : No

Read offset correction : 48
Overread into Lead-In and Lead-Out : No
Fill up missing offset samples with silence : Yes
Delete leading and trailing silent blocks : No
Null samples used in CRC calculations : Yes
Used interface : Native Win32 interface for Win NT & 2000
Gap handling : Appended to previous track

Used output format : User Defined Encoder
Selected bitrate : 128 kBit/s
Quality : High
Add ID3 tag : No
Command line compressor : C:\Program Files (x86)\Exact Audio Copy\Flac\flac.exe
Additional command line options : -8 -V -T "ARTIST=%artist%" -T "TITLE=%title%" -T "ALBUM=%albumtitle%" -T "DATE=%year%" -T "TRACKNUMBER=%tracknr%" -T "GENRE=%genre%" -T "PERFORMER=%albuminterpret%" -T "COMPOSER=%composer%" %haslyrics%–tag-from-file=LYRICS="%lyricsfile%"%haslyrics% -T "ALBUMARTIST=%albumartist%" -T "DISCNUMBER=%cdnumber%" -T "TOTALDISCS=%totalcds%" -T "TOTALTRACKS=%numtracks%" -T "COMMENT=%comment%" %source% -o %dest%


TOC of the extracted CD

Track | Start | Length | Start sector | End sector
––––––––––––––––––––––––––––-
1 | 0:00.00 | 6:56.32 | 0 | 31231
2 | 6:56.32 | 4:53.73 | 31232 | 53279
3 | 11:50.30 | 7:16.11 | 53280 | 85990
4 | 19:06.41 | 7:34.50 | 85991 | 120090
5 | 26:41.16 | 2:17.38 | 120091 | 130403
6 | 28:58.54 | 3:58.68 | 130404 | 148321
7 | 32:57.47 | 9:43.10 | 148322 | 192056
8 | 42:40.57 | 6:26.02 | 192057 | 221008
9 | 49:06.59 | 8:10.64 | 221009 | 257822
10 | 57:17.48 | 16:15.34 | 257823 | 330981


Track 1

Filename C:\Dustie Documents\EAC ripping\Underworld - Second Toughest In The Infants (Super Deluxe Edition) CD3 (2015) [FLAC]\01 - Bug.wav

Pre-gap length 0:00:02.00

Peak level 96.6 %
Extraction speed 2.7 X
Track quality 100.0 %
Test CRC C4F51B36
Copy CRC C4F51B36
Track not present in AccurateRip database
Copy OK

Track 2

Filename C:\Dustie Documents\EAC ripping\Underworld - Second Toughest In The Infants (Super Deluxe Edition) CD3 (2015) [FLAC]\02 - Confusion The Waitress (She Said).wav

Peak level 98.5 %
Extraction speed 3.0 X
Track quality 100.0 %
Test CRC FB44D457
Copy CRC FB44D457
Track not present in AccurateRip database
Copy OK

Track 3

Filename C:\Dustie Documents\EAC ripping\Underworld - Second Toughest In The Infants (Super Deluxe Edition) CD3 (2015) [FLAC]\03 - D+B Thing.wav

Peak level 96.6 %
Extraction speed 3.4 X
Track quality 100.0 %
Test CRC 3DA985EB
Copy CRC 3DA985EB
Track not present in AccurateRip database
Copy OK

Track 4

Filename C:\Dustie Documents\EAC ripping\Underworld - Second Toughest In The Infants (Super Deluxe Edition) CD3 (2015) [FLAC]\04 - D'arbly St.wav

Peak level 93.4 %
Extraction speed 3.8 X
Track quality 100.0 %
Test CRC BB93AA41
Copy CRC BB93AA41
Track not present in AccurateRip database
Copy OK

Track 5

Filename C:\Dustie Documents\EAC ripping\Underworld - Second Toughest In The Infants (Super Deluxe Edition) CD3 (2015) [FLAC]\05 - 4 Crowns.wav

Peak level 95.3 %
Extraction speed 3.4 X
Track quality 100.0 %
Test CRC D1149B47
Copy CRC D1149B47
Track not present in AccurateRip database
Copy OK

Track 6

Filename C:\Dustie Documents\EAC ripping\Underworld - Second Toughest In The Infants (Super Deluxe Edition) CD3 (2015) [FLAC]\06 - Rowla A1806.wav

Peak level 94.5 %
Extraction speed 3.8 X
Track quality 100.0 %
Test CRC A4359C46
Copy CRC A4359C46
Track not present in AccurateRip database
Copy OK

Track 7

Filename C:\Dustie Documents\EAC ripping\Underworld - Second Toughest In The Infants (Super Deluxe Edition) CD3 (2015) [FLAC]\07 - Bing Here.wav

Peak level 95.1 %
Extraction speed 4.5 X
Track quality 100.0 %
Test CRC CE574461
Copy CRC CE574461
Track not present in AccurateRip database
Copy OK

Track 8

Filename C:\Dustie Documents\EAC ripping\Underworld - Second Toughest In The Infants (Super Deluxe Edition) CD3 (2015) [FLAC]\08 - Techno Thang.wav

Peak level 95.4 %
Extraction speed 4.6 X
Track quality 100.0 %
Test CRC 614E5ADD
Copy CRC 614E5ADD
Track not present in AccurateRip database
Copy OK

Track 9

Filename C:\Dustie Documents\EAC ripping\Underworld - Second Toughest In The Infants (Super Deluxe Edition) CD3 (2015) [FLAC]\09 - Pearls Ver2.wav

Peak level 96.2 %
Extraction speed 5.0 X
Track quality 100.0 %
Test CRC A8BB14A1
Copy CRC A8BB14A1
Track not present in AccurateRip database
Copy OK

Track 10

Filename C:\Dustie Documents\EAC ripping\Underworld - Second Toughest In The Infants (Super Deluxe Edition) CD3 (2015) [FLAC]\10 - Bloody 1.wav

Peak level 96.7 %
Extraction speed 5.4 X
Track quality 99.9 %
Test CRC 205DC25F
Copy CRC 205DC25F
Track not present in AccurateRip database
Copy OK


None of the tracks are present in the AccurateRip database

No errors occurred

End of status report

–– CUETools DB Plugin V2.1.6

[CTDB TOCID: 0lUQm8C97iHXgtpBMwZWzn6v9h4-] disk not present in database
Submit result: 0lUQm8C97iHXgtpBMwZWzn6v9h4- has been uploaded


==== Log checksum AEF44E8B5FDABC9291CF8F20023E638365281C44385073DC9919E59A6C54584D ====

Exact Audio Copy V1.1 from 23. June 2015

EAC extraction logfile from 20. November 2015, 11:47

Underworld / Second Toughest In The Infants (Super Deluxe Edition) CD4

Used drive : Optiarc DVD RW AD-5260S Adapter: 1 ID: 1

Read mode : Secure
Utilize accurate stream : Yes
Defeat audio cache : Yes
Make use of C2 pointers : No

Read offset correction : 48
Overread into Lead-In and Lead-Out : No
Fill up missing offset samples with silence : Yes
Delete leading and trailing silent blocks : No
Null samples used in CRC calculations : Yes
Used interface : Native Win32 interface for Win NT & 2000
Gap handling : Appended to previous track

Used output format : User Defined Encoder
Selected bitrate : 128 kBit/s
Quality : High
Add ID3 tag : No
Command line compressor : C:\Program Files (x86)\Exact Audio Copy\Flac\flac.exe
Additional command line options : -8 -V -T "ARTIST=%artist%" -T "TITLE=%title%" -T "ALBUM=%albumtitle%" -T "DATE=%year%" -T "TRACKNUMBER=%tracknr%" -T "GENRE=%genre%" -T "PERFORMER=%albuminterpret%" -T "COMPOSER=%composer%" %haslyrics%–tag-from-file=LYRICS="%lyricsfile%"%haslyrics% -T "ALBUMARTIST=%albumartist%" -T "DISCNUMBER=%cdnumber%" -T "TOTALDISCS=%totalcds%" -T "TOTALTRACKS=%numtracks%" -T "COMMENT=%comment%" %source% -o %dest%


TOC of the extracted CD

Track | Start | Length | Start sector | End sector
––––––––––––––––––––––––––––-
1 | 0:00.00 | 8:45.34 | 0 | 39408
2 | 8:45.34 | 12:33.45 | 39409 | 95928
3 | 21:19.04 | 11:31.24 | 95929 | 147777
4 | 32:50.28 | 9:21.56 | 147778 | 189908
5 | 42:12.09 | 11:31.62 | 189909 | 241795
6 | 53:43.71 | 6:11.16 | 241796 | 269636
7 | 59:55.12 | 11:48.08 | 269637 | 322744


Track 1

Filename C:\Dustie Documents\EAC ripping\Underworld - Second Toughest In The Infants (Super Deluxe Edition) CD4 (2015) [FLAC]\01 - Nuxx A1796.wav

Pre-gap length 0:00:02.00

Peak level 96.8 %
Extraction speed 2.8 X
Track quality 100.0 %
Test CRC D04FBABD
Copy CRC D04FBABD
Track not present in AccurateRip database
Copy OK

Track 2

Filename C:\Dustie Documents\EAC ripping\Underworld - Second Toughest In The Infants (Super Deluxe Edition) CD4 (2015) [FLAC]\02 - Nuxx A2221 UW Live (2 Sets) Leicester M Dog 94.wav

Peak level 97.2 %
Extraction speed 3.3 X
Track quality 99.9 %
Test CRC 3A5FFA8E
Copy CRC 3A5FFA8E
Track not present in AccurateRip database
Copy OK

Track 3

Filename C:\Dustie Documents\EAC ripping\Underworld - Second Toughest In The Infants (Super Deluxe Edition) CD4 (2015) [FLAC]\03 - Nuxx A4712 Live@Zap Club Brighton Feb94.wav

Peak level 98.2 %
Extraction speed 4.1 X
Track quality 100.0 %
Test CRC 9C442703
Copy CRC 9C442703
Track not present in AccurateRip database
Copy OK

Track 4

Filename C:\Dustie Documents\EAC ripping\Underworld - Second Toughest In The Infants (Super Deluxe Edition) CD4 (2015) [FLAC]\04 - Nuxx A4733 UW Live Amsterdam Apr94.wav

Peak level 98.9 %
Extraction speed 4.2 X
Track quality 99.9 %
Test CRC 8D899B60
Copy CRC 8D899B60
Track not present in AccurateRip database
Copy OK

Track 5

Filename C:\Dustie Documents\EAC ripping\Underworld - Second Toughest In The Infants (Super Deluxe Edition) CD4 (2015) [FLAC]\05 - Nuxx Liquid Room 94 A2254 UW Live Liquid Room 2 Tokyo.wav

Peak level 98.8 %
Extraction speed 4.8 X
Track quality 100.0 %
Test CRC 03A07CC4
Copy CRC 03A07CC4
Track not present in AccurateRip database
Copy OK

Track 6

Filename C:\Dustie Documents\EAC ripping\Underworld - Second Toughest In The Infants (Super Deluxe Edition) CD4 (2015) [FLAC]\06 - Nuxx from A1825.wav

Peak level 98.9 %
Extraction speed 4.9 X
Track quality 100.0 %
Test CRC E8D0AD27
Copy CRC E8D0AD27
Track not present in AccurateRip database
Copy OK

Track 7

Filename C:\Dustie Documents\EAC ripping\Underworld - Second Toughest In The Infants (Super Deluxe Edition) CD4 (2015) [FLAC]\07 - Born Slippy (Nuxx).wav

Peak level 98.9 %
Extraction speed 5.5 X
Track quality 100.0 %
Test CRC 0B886579
Copy CRC 0B886579
Track not present in AccurateRip database
Copy OK


None of the tracks are present in the AccurateRip database

No errors occurred

End of status report

–– CUETools DB Plugin V2.1.6

[CTDB TOCID: l6XI.75.zBLgYgXE1ahjPeiGMz4-] disk not present in database
Submit result: l6XI.75.zBLgYgXE1ahjPeiGMz4- has been uploaded


==== Log checksum 80A898E60E656E7D1E20DE565CC60A776785C09020EDAEDE8B5CDEB1ED157733 ====

Tracklist ::::
CD1 (Remastered Album)
01. Juanita: Kiteless: To Dream Of Love (16:37)
02. Banstyle / Sappys Curry (15:23)
03. Confusion The Waitress (6:47)
04. Rowla (6:31)
05. Pearl's Girl (9:37)
06. Air Towel (7:37)
07. Blueski (3:03)
08. Stagger (7:39)

CD2 (Extra Tracks + Mixes/Remixes)
01. Cherry Pie (8:26)
02. Oich Oich (8:35)
03. Puppies (3:54)
04. Mosaic (5:00)
05. Deep Arch (8:25)
06. Pearl's Girl (Tin There) (8:16)
07. Pearl's Girl (14996 Version) (9:05)
08. Born Slippy (Original Intrumental Version) (8:32)
09. Born Slippy.Nuxx (Deep Pan) (10:01)

CD3 (Unreleased Demos/Outtakes)
01. Bug (6:56)
02. Confusion The Waitress (She Said) (4:54)
03. D+B Thing (7:16)
04. D'arbly St (7:35)
05. 4 Crowns (2:18)
06. Rowla A1806 (3:59)
07. Bing Here (9:43)
08. Techno Thang (6:26)
09. Pearls Ver2 (8:11)
10. Bloody 1 (16:15)

CD4 (The Evolution of Born Slippy (Nuxx): Various Versions both Live + Studio)
01. Nuxx A1796 (8:45)
02. Nuxx A2221 UW Live (2 Sets) Leicester M Dog 94 (12:34)
03. Nuxx A4712 Live@Zap Club Brighton Feb94 (11:31)
04. Nuxx A4733 UW Live Amsterdam Apr94 (9:22)
05. Nuxx Liquid Room 94 A2254 UW Live Liquid Room 2 Tokyo (11:32)
06. Nuxx from A1825 (6:11)
07. Born Slippy (Nuxx) (11:48)