Subcategories
Tags
Language
Tags

United Future Organization - No Sound Is Too Taboo (1994)

Posted By: gribovar
United Future Organization - No Sound Is Too Taboo (1994)

United Future Organization - No Sound Is Too Taboo (1994)
EAC Rip | FLAC (image+.cue+log) - 326 MB | MP3 CBR 320 kbps (LAME 3.93) - 129 MB | Covers - 41 MB
Genre: Acid Jazz, Nu Jazz, Trip Hop | RAR 3% Rec. | Label: Verve (314 526 722-2)

Featured on 1994's Red Hot and Cool compilation, the Japanese production trio UFO heads a loose collective of musicians and vocalists present here. Jazz, R&B, trip-hop, Spanish, Caribbean, and Brazilian rhythms all appear in one form or another; surprisingly, these disparate elements flow well through the course of ten songs.
Tracklist:
01. United Future Airlines
02. Magic Wand Of Love
03. Stolen Moments (U.F.O. Harddisk Mix)
04. Future Light
05. Make It Better
06. Sunday Folk Tale
07. Mistress Of Dance
08. Bar-F-Out!
09. Doopsylalolic
10. Tears Of Gratitude

Total time: 55:02

Exact Audio Copy V1.5 from 20. February 2020

EAC extraction logfile from 24. October 2020, 12:13

United Future Organization / No Sound Is Too Taboo

Used drive : TSSTcorpCDDVDW SN-208BB Adapter: 1 ID: 0

Read mode : Secure
Utilize accurate stream : Yes
Defeat audio cache : Yes
Make use of C2 pointers : No

Read offset correction : 6
Overread into Lead-In and Lead-Out : No
Fill up missing offset samples with silence : Yes
Delete leading and trailing silent blocks : No
Null samples used in CRC calculations : Yes
Used interface : Native Win32 interface for Win NT & 2000

Used output format : User Defined Encoder
Selected bitrate : 128 kBit/s
Quality : High
Add ID3 tag : No
Command line compressor : C:\Program Files (x86)\Exact Audio Copy\Flac\flac.exe
Additional command line options : -V -8 -T "Date=%year%" -T "Genre=%genre%" %source%


TOC of the extracted CD

Track | Start | Length | Start sector | End sector
––––––––––––––––––––––––––––-
1 | 0:00.32 | 4:48.20 | 32 | 21651
2 | 4:48.52 | 6:23.13 | 21652 | 50389
3 | 11:11.65 | 6:09.00 | 50390 | 78064
4 | 17:20.65 | 6:00.20 | 78065 | 105084
5 | 23:21.10 | 5:34.12 | 105085 | 130146
6 | 28:55.22 | 6:19.00 | 130147 | 158571
7 | 35:14.22 | 4:28.00 | 158572 | 178671
8 | 39:42.22 | 5:02.65 | 178672 | 201386
9 | 44:45.12 | 4:40.33 | 201387 | 222419
10 | 49:25.45 | 5:36.65 | 222420 | 247684


Range status and errors

Selected range

Filename E:\E-Moe\United Future Organization - 1994 - No Sound Is Too Taboo\United Future Organization - No Sound Is Too Taboo.wav

Peak level 92.8 %
Extraction speed 2.9 X
Range quality 100.0 %
Test CRC 04F4AC9C
Copy CRC 04F4AC9C
Copy OK

No errors occurred


AccurateRip summary

Track 1 accurately ripped (confidence 8) [BB42A192] (AR v2)
Track 2 accurately ripped (confidence 8) [1CDC0FF0] (AR v2)
Track 3 accurately ripped (confidence 8) [582B917C] (AR v2)
Track 4 accurately ripped (confidence 9) [65B74649] (AR v2)
Track 5 accurately ripped (confidence 9) [423AEEAA] (AR v2)
Track 6 accurately ripped (confidence 8) [CCF27202] (AR v2)
Track 7 accurately ripped (confidence 8) [235F0609] (AR v2)
Track 8 accurately ripped (confidence 8) [A5B220A1] (AR v2)
Track 9 accurately ripped (confidence 8) [C2CF76CB] (AR v2)
Track 10 accurately ripped (confidence 8) [50122F83] (AR v2)

All tracks accurately ripped

End of status report

==== Log checksum 52E05103EC892BA2D05E6410E83BEA94A024B05AE9016B8A8DD6A3C38C7CBAB3 ====

[CUETools log; Date: 07.04.2021 21:01:50; Version: 2.1.4]
Pregap length 00:00:32.
[CTDB TOCID: Ma3vGVPVMzpwPcHEITwwx.BQbMc-] found.
Track | CTDB Status
1 | (18/18) Accurately ripped
2 | (18/18) Accurately ripped
3 | (18/18) Accurately ripped
4 | (18/18) Accurately ripped
5 | (18/18) Accurately ripped
6 | (18/18) Accurately ripped
7 | (18/18) Accurately ripped
8 | (18/18) Accurately ripped
9 | (18/18) Accurately ripped
10 | (17/18) Accurately ripped
[AccurateRip ID: 001545bb-00a994c7-880ce60a] found.
Track [ CRC | V2 ] Status
01 [e561f52c|bb42a192] (07+08/15) Accurately ripped
02 [0d38b79b|1cdc0ff0] (06+08/14) Accurately ripped
03 [7c91fdda|582b917c] (07+08/15) Accurately ripped
04 [3c7d6499|65b74649] (07+09/16) Accurately ripped
05 [376e1b8e|423aeeaa] (06+09/15) Accurately ripped
06 [0e6b5c2f|ccf27202] (07+08/15) Accurately ripped
07 [d3a78318|235f0609] (07+08/15) Accurately ripped
08 [e2347d8f|a5b220a1] (07+08/15) Accurately ripped
09 [46168e85|c2cf76cb] (07+08/15) Accurately ripped
10 [ef5ae7d6|50122f83] (06+08/14) Accurately ripped

Track Peak [ CRC32 ] [W/O NULL] [ LOG ]
– 92,8 [04F4AC9C] [726A3713] CRC32
01 92,8 [DD1FB0C3] [B0578C09]
02 88,6 [29CB4650] [41DD02BF]
03 79,4 [57DA776C] [FA94BFC0]
04 77,9 [347A13A9] [3F8069F3]
05 82,6 [76B64F28] [E6990052]
06 88,6 [90F847DA] [50D94EF4]
07 81,3 [3750FA6E] [39E468C0]
08 80,9 [93A17178] [96D87D19]
09 75,9 [0C10F897] [09758C2A]
10 80,0 [F3AC09FF] [7F0F0AF7]

Thanks to glueleg