Tags
Language
Tags

Ut Gret - Ancestors' Tale (2014)

Posted By: gribovar
Ut Gret - Ancestors' Tale (2014)

Ut Gret - Ancestors' Tale (2014)
EAC Rip | FLAC (tracks+.cue+log) - 368 MB | MP3 CBR 320 kbps (LAME 3.93) - 137 MB | Covers - 50 MB
Genre: Progressive Rock, Avant-Prog | RAR 3% Rec. | Label: AltrOck Records (ALT-041)

US band Ut Gret has been around in one form or another since the 80's, although their history as a recording unit didn't start until the second half of the 90's. From their base in Lousville, Kentucky, they have created four full-length studio albums so far. The most recent of these is "Ancestors' Tale", which was released through the Italian label Altrock Records in the spring of 2014. Ut Gret's self-description on social network reads as follows: "Embracing rock, jazz, world music, classical music and the spirit of adventure found in the avant-garde we forge ahead". Definitely something to try if you tire of the common distorted guitar often featured in modern progressive rock and if you want a greater classical influence in your fusion, Ancestor's Tale by Ut Gret is a pleasant surprise.

Tracklist:
01. Ancestors' Tale
02. The Departure
03. Hopperknockity Tune
04. Salves Unmade
05. The Raw, the Cooked and the Overeasy
06. An Elephant In Berlin
07. Dinosaur on the Floor
08. The Grotesque Pageantry of Fading Empires
09. Zodiac
10. Walk the Plank

Total time: 58:26

Exact Audio Copy V1.0 beta 3 from 29. August 2011

EAC extraction logfile from 15. August 2014, 7:14

Ut Gret / Ancestor's Tale

Used drive : ATAPI iHAS124 E Adapter: 0 ID: 0

Read mode : Secure
Utilize accurate stream : Yes
Defeat audio cache : Yes
Make use of C2 pointers : No

Read offset correction : 6
Overread into Lead-In and Lead-Out : No
Fill up missing offset samples with silence : Yes
Delete leading and trailing silent blocks : No
Null samples used in CRC calculations : Yes
Used interface : Native Win32 interface for Win NT & 2000
Gap handling : Appended to previous track

Used output format : Internal WAV Routines
Sample format : 44.100 Hz; 16 Bit; Stereo


TOC of the extracted CD

Track | Start | Length | Start sector | End sector
––––––––––––––––––––––––––––-
1 | 0:00.00 | 5:24.07 | 0 | 24306
2 | 5:24.07 | 0:56.10 | 24307 | 28516
3 | 6:20.17 | 4:00.63 | 28517 | 46579
4 | 10:21.05 | 5:55.59 | 46580 | 73263
5 | 16:16.64 | 5:27.12 | 73264 | 97800
6 | 21:44.01 | 8:39.28 | 97801 | 136753
7 | 30:23.29 | 3:50.53 | 136754 | 154056
8 | 34:14.07 | 9:17.10 | 154057 | 195841
9 | 43:31.17 | 7:16.70 | 195842 | 228611
10 | 50:48.12 | 7:37.30 | 228612 | 262916


Track 1

Filename C:\_EAC\01 Ancestors' Tale.wav

Pre-gap length 0:00:02.00

Peak level 100.0 %
Extraction speed 1.1 X
Track quality 100.0 %
Test CRC EE18C9B3
Copy CRC EE18C9B3
Track not present in AccurateRip database
Copy OK

Track 2

Filename C:\_EAC\02 The Departure.wav

Peak level 100.0 %
Extraction speed 0.8 X
Track quality 100.0 %
Test CRC A96B99F7
Copy CRC A96B99F7
Track not present in AccurateRip database
Copy OK

Track 3

Filename C:\_EAC\03 Hopperknockity Tune.wav

Peak level 100.0 %
Extraction speed 1.2 X
Track quality 100.0 %
Test CRC 94708E2C
Copy CRC 94708E2C
Track not present in AccurateRip database
Copy OK

Track 4

Filename C:\_EAC\04 Salves Unmade.wav

Peak level 100.0 %
Extraction speed 1.4 X
Track quality 100.0 %
Test CRC 51AD2E2C
Copy CRC 51AD2E2C
Track not present in AccurateRip database
Copy OK

Track 5

Filename C:\_EAC\05 The Raw, the Cooked and the Overeasy.wav

Peak level 100.0 %
Extraction speed 1.5 X
Track quality 100.0 %
Test CRC 8F454FFE
Copy CRC 8F454FFE
Track not present in AccurateRip database
Copy OK

Track 6

Filename C:\_EAC\06 An Elephant In Berlin.wav

Peak level 100.0 %
Extraction speed 1.7 X
Track quality 100.0 %
Test CRC B9963CFE
Copy CRC B9963CFE
Track not present in AccurateRip database
Copy OK

Track 7

Filename C:\_EAC\07 Dinosaur on the Floor.wav

Peak level 100.0 %
Extraction speed 1.5 X
Track quality 99.9 %
Test CRC 6CB581D3
Copy CRC 6CB581D3
Track not present in AccurateRip database
Copy OK

Track 8

Filename C:\_EAC\08 The Grotesque Pageantry of Fading Empires.wav

Peak level 100.0 %
Extraction speed 2.0 X
Track quality 100.0 %
Test CRC 1F47A428
Copy CRC 1F47A428
Track not present in AccurateRip database
Copy OK

Track 9

Filename C:\_EAC\09 Zodiac.wav

Peak level 99.9 %
Extraction speed 2.0 X
Track quality 99.9 %
Test CRC 2A4066C8
Copy CRC 2A4066C8
Track not present in AccurateRip database
Copy OK

Track 10

Filename C:\_EAC\10 Walk the Plank.wav

Peak level 99.9 %
Extraction speed 2.3 X
Track quality 100.0 %
Test CRC B14D7C84
Copy CRC B14D7C84
Track not present in AccurateRip database
Copy OK


None of the tracks are present in the AccurateRip database

No errors occurred

End of status report

[CUETools log; Date: 13.10.2021 23:32:52; Version: 2.1.4]
[CTDB TOCID: 97bctyqQPX03J3X3fregJn3owQ8-] found.
Track | CTDB Status
1 | (9/9) Accurately ripped
2 | (9/9) Accurately ripped
3 | (9/9) Accurately ripped
4 | (9/9) Accurately ripped
5 | (9/9) Accurately ripped
6 | (9/9) Accurately ripped
7 | (9/9) Accurately ripped
8 | (9/9) Accurately ripped
9 | (9/9) Accurately ripped
10 | (9/9) Accurately ripped
[AccurateRip ID: 00130d8b-009ec123-780db10a] found.
Track [ CRC | V2 ] Status
01 [1a74d2da|c0786f96] (0+3/3) Accurately ripped
02 [21df286c|808065b0] (0+3/3) Accurately ripped
03 [d811cce0|df3c251c] (0+3/3) Accurately ripped
04 [690001b5|351d0ac4] (0+3/3) Accurately ripped
05 [364e8a5f|1063ca70] (0+3/3) Accurately ripped
06 [4377fa6b|a3f873c7] (0+3/3) Accurately ripped
07 [e3a562a3|75f0d7e1] (0+3/3) Accurately ripped
08 [2320b943|bb713d6d] (0+3/3) Accurately ripped
09 [1cfc6ffd|c521d535] (0+3/3) Accurately ripped
10 [c1cf485f|865aca3c] (0+3/3) Accurately ripped

Track Peak [ CRC32 ] [W/O NULL] [ LOG ]
– 100,0 [1DC4D32E] [F2DD288B]
01 100,0 [EE18C9B3] [1556CA9C] CRC32
02 100,0 [A96B99F7] [51512EAE] CRC32
03 100,0 [94708E2C] [FA14FE74] CRC32
04 100,0 [51AD2E2C] [52D1743E] CRC32
05 100,0 [8F454FFE] [A4938033] CRC32
06 100,0 [B9963CFE] [6A224DEB] CRC32
07 100,0 [6CB581D3] [917CE23A] CRC32
08 100,0 [1F47A428] [2D9E2FD0] CRC32
09 99,9 [2A4066C8] [BF8D4F22] CRC32
10 99,9 [B14D7C84] [0D4E92B6] CRC32

Thanks to vp_sunset