Subcategories

VA - 100 Hits: The Best Seventies Album (5CD, 2017)

Posted By: ciklon5
VA - 100 Hits: The Best Seventies Album (5CD, 2017)

VA - 100 Hits: The Best Seventies Album (5CD, 2017)
FLAC (track+cue+log) / MP3 CBR 320 kbps | 5:39:29 | 2,2 Gb / 773 Mb
Genre: Pop, Soul, Funk, 60s, Disco, Rock / Label: 100 Hits

The Best Seventies Album contains the defining tracks of the decade and features some of the biggest hits from artists including T. Rex, Mott The Hoople, Sweet, The Jacksons, David Essex, Earth, Wind & Fire with The Emotions, Nilsson, Eric Carmen, Baccara and many more.

Track List:

CD1:

01.T. Rex - Metal Guru - 00:02:27
02.Mott The Hoople - All The Young Dudes - 00:03:30
03.Sweet - Teenage Rampage - 00:03:35
04.Bay City Rollers - Bye Bye Baby - 00:02:51
05.David Essex - Gonna Make You A Star - 00:03:34
06.Chicory Tip - Son Of My Father - 00:03:11
07.Hello - Tell Him - 00:03:07
08.Dead End Kids - Have I The Right - 00:03:11
09.Kursaal Flyers - Little Does She Know - 00:03:46
10.Ian Dury - Hit Me With Your Rhythm Stick - 00:03:43
11.Lulu - The Man Who Sold The World - 00:03:49
12.Leo Sayer - When I Need You - 00:04:08
13.Christie - Yellow River - 00:02:43
14.The New Seekers - You Won't Find Another Fool Like Me - 00:03:11
15.Dawn Feat. Tony Orlando - Tie A Yellow Ribbon Round The Ole Oak Tree - 00:03:22
16.Terry Jacks - Seasons In The Sun - 00:03:30
17.Barry Blue - Dancin' (On A Saturday Night) - 00:03:11
18.Clout - Substitute - 00:03:26
19.Harry Nilsson - Without You - 00:03:16
20.Eric Carmen - All By Myself - 00:04:29

CD2:

01.The Jacksons - Blame It On The Boogie - 00:03:27
02.Earth, Wind & Fire - September - 00:03:35
03.Baccara - Yes Sir, I Can Boogie - 00:03:16
04.The Emotions - Best Of My Love - 00:03:39
05.Tina Charles - I Love To Love - 00:03:03
06.Boney M. - Rivers Of Babylon - 00:03:44
07.McFadden & Whitehead - Ain't No Stoppin' Us Now - 00:03:35
08.Heatwave - Boogie Nights - 00:03:37
09.Wild Cherry - Play That Funky Music - 00:03:11
10.Odyssey - Native New Yorker - 00:03:27
11.Frantique - Strut Your Funky Stuff - 00:03:37
12.Eruption - I Can't Stand The Rain - 00:02:39
13.Cheryl Lynn - Got To Be Real - 00:03:43
14.Andrea True Connection - More, More, More - 00:03:01
15.The Three Degrees - Givin' Up Givin' In - 00:03:48
16.Dan Hartman - Instant Replay - 00:03:27
17.Vicki Sue Robinson - Turn The Beat Around - 00:03:24
18.Gary's Gang - Keep On Dancing - 00:03:29
19.Disco Tex & The Sexolettes - Get Dancin' - 00:04:27
20.Sarah Brightman And Hot Gossip - I Lost My Heart To A Starship Trooper - 00:04:18

CD3:

01.David Essex - Hold Me Close - 00:03:53
02.The Three Degrees - When Will I See You Again - 00:02:37
03.Leo Sayer - You Make Me Feel Like Dancing - 00:02:51
04.Bay City Rollers - Give A Little Love - 00:03:22
05.Slik - Forever And Ever - 00:03:38
06.Guys 'N Dolls - There's A Whole Lot Of Loving - 00:03:14
07.Co-Co - Bad Old Days - 00:02:37
08.Dana - Fairytale - 00:03:07
09.Baccara - Sorry, I'm A Lady - 00:03:38
10.R & J Stone - We Do It - 00:03:20
11.The Dooleys - Wanted - 00:03:38
12.The New Edition - Get A Little Sand Between Your Toes - 00:03:10
13.Boz Scaggs - Lido Shuffle - 00:03:42
14.Labelle - Lady Marmalade - 00:03:15
15.Johnny Mathis With Deniece Williams - Too Much, Too Little, Too Late - 00:02:57
16.Showaddywaddy - Under The Moon Of Love - 00:03:10
17.Brotherhood Of Man - Save Your Kisses For Me - 00:03:03
18.Clodagh Rodgers - Jack In The Box - 00:03:01
19.Anne-Marie David - Wonderful Dream - 00:02:38
20.Raffaella Carra - Do It Do It Again - 00:02:43

CD4:

01.Earth, Wind & Fire With The Emotions - Boogie Wonderland - 00:04:48
02.Sly & The Family Stone - Family Affair - 00:03:04
03.Harold Melvin & The Blue Notes - Don't Leave Me This Way - 00:03:29
04.Billy Ocean - Love Really Hurts Without You - 00:03:00
05.Gladys Knight & The Pips - Baby Don't Change Your Mind - 00:03:11
06.Bill Withers - Lovely Day - 00:03:50
07.Daryl Hall & John Oates - Rich Girl - 00:02:25
08.Freda Payne - Band Of Gold - 00:02:53
09.Edison Lighthouse - Love Grows (Where My Rosmary Goes) - 00:02:49
10.Chairmen Of The Board - Give Me Just A Little More Time - 00:02:37
11.The Hues Corporation - Rock The Boat - 00:03:02
12.The O'Jays - Love Train - 00:02:58
13.The Tymes - Ms. Grace - 00:03:24
14.The Drifters - There Goes My First Love - 00:03:02
15.The Trammps - Hold Back The Night - 00:03:17
16.The Isley Brothers - Harvest For The World, Pt. 1 - 00:03:31
17.Dee Clark - Ride A Wild Horse - 00:02:42
18.Raydio - Jack And Jill - 00:04:35
19.Archie Bell & The Drells - The Soul City Walk - 00:04:05
20.Melba Moore - This Is It - 00:03:29

CD5:

01.Lou Reed - Walk On The Wild Side - 00:03:54
02.Fleetwood Mac - Albatross - 00:03:04
03.Santana - She's Not There - 00:03:18
04.Meat Loaf - Bat Out Of Hell - 00:04:53
05.Ram Jam - Black Betty - 00:03:56
06.Patti Smith Group - Because The Night - 00:03:22
07.Justin Hayward - Forever Autumn - 00:04:08
08.Dolly Parton - Jolene - 00:02:39
09.The Charlie Daniels Band - The Devil Went Down To Georgia - 00:03:36
10.Billy Swan - I Can Help - 00:02:58
11.City Boy - 5.7.0.5 - 00:03:13
12.Mott The Hoople - Roll Away The Stone - 00:03:09
13.Ian Dury - Reasons To Be Cheerful Part 3 - 00:04:45
14.Average White Band - Pick Up The Pieces - 00:03:59
15.Fox - S-S-S Single Bed - 00:03:49
16.Tina Charles - Dr Love - 00:03:05
17.5000 Volts - I'm On Fire - 00:02:48
18.Boney M. - Ma Baker - 00:03:45
19.First Choice - Smarty Pants - 00:02:38
20.Billy Ocean - Red Light Spells Danger - 00:03:29

Exact Audio Copy V1.3 from 2. September 2016

EAC extraction logfile from 5. May 2018, 5:03

Various / 100 Hits - The Best - Seventies Album - CD01

Used drive : HL-DT-STDVDRAM GSA-E40N Adapter: 1 ID: 1

Read mode : Secure
Utilize accurate stream : Yes
Defeat audio cache : No
Make use of C2 pointers : Yes

Read offset correction : 667
Overread into Lead-In and Lead-Out : No
Fill up missing offset samples with silence : Yes
Delete leading and trailing silent blocks : No
Null samples used in CRC calculations : Yes
Used interface : Native Win32 interface for Win NT & 2000
Gap handling : Not detected, thus appended to previous track

Used output format : User Defined Encoder
Selected bitrate : 896 kBit/s
Quality : High
Add ID3 tag : No
Command line compressor : C:\Program Files (x86)\Exact Audio Copy\FLAC\FLAC.EXE
Additional command line options : -6 -V -T "ARTIST=%artist%" -T "TITLE=%title%" -T "ALBUM=%albumtitle%" -T "DATE=%year%" -T "TRACKNUMBER=%tracknr%" -T "GENRE=%genre%" -T "COMMENT=%comment%" -T "BAND=%albuminterpret%" -T "ALBUMARTIST=%albuminterpret%" -T "COMPOSER=%composer%" %haslyrics%–tag-from-file=LYRICS="%lyricsfile%"%haslyrics% -T "DISCNUMBER=%cdnumber%" -T "TOTALDISCS=%totalcds%" -T "TOTALTRACKS=%numtracks%" %hascover%–picture="%coverfile%"%hascover% %source% -o %dest%


TOC of the extracted CD

Track | Start | Length | Start sector | End sector
––––––––––––––––––––––––––––-
1 | 0:00.00 | 2:27.44 | 0 | 11068
2 | 2:27.44 | 3:30.54 | 11069 | 26872
3 | 5:58.23 | 3:35.34 | 26873 | 43031
4 | 9:33.57 | 2:51.01 | 43032 | 55857
5 | 12:24.58 | 3:34.16 | 55858 | 71923
6 | 15:58.74 | 3:11.18 | 71924 | 86266
7 | 19:10.17 | 3:07.11 | 86267 | 100302
8 | 22:17.28 | 3:11.27 | 100303 | 114654
9 | 25:28.55 | 3:46.31 | 114655 | 131635
10 | 29:15.11 | 3:43.52 | 131636 | 148412
11 | 32:58.63 | 3:49.39 | 148413 | 165626
12 | 36:48.27 | 4:08.44 | 165627 | 184270
13 | 40:56.71 | 2:43.36 | 184271 | 196531
14 | 43:40.32 | 3:11.31 | 196532 | 210887
15 | 46:51.63 | 3:22.70 | 210888 | 226107
16 | 50:14.58 | 3:30.60 | 226108 | 241917
17 | 53:45.43 | 3:11.63 | 241918 | 256305
18 | 56:57.31 | 3:26.19 | 256306 | 271774
19 | 60:23.50 | 3:16.19 | 271775 | 286493
20 | 63:39.69 | 4:29.57 | 286494 | 306725


Track 1

Filename A:\PsPBuRnOuT's MUSIC\100 HITS\- 100 HITS - THE BEST -\100 HITS - THE BEST - SEVENTIES ALBUM\100 HITS - THE BEST - SEVENTIES ALBUM - CD01\01.T. Rex - Metal Guru.wav

Peak level 55.6 %
Extraction speed 16.9 X
Track quality 100.0 %
Copy CRC 4011D2C1
Accurately ripped (confidence 5) [77F31176] (AR v2)
Copy OK

Track 2

Filename A:\PsPBuRnOuT's MUSIC\100 HITS\- 100 HITS - THE BEST -\100 HITS - THE BEST - SEVENTIES ALBUM\100 HITS - THE BEST - SEVENTIES ALBUM - CD01\02.Mott The Hoople - All The Young Dudes.wav

Peak level 94.3 %
Extraction speed 16.7 X
Track quality 100.0 %
Copy CRC D9508D94
Accurately ripped (confidence 5) [F1437F83] (AR v2)
Copy OK

Track 3

Filename A:\PsPBuRnOuT's MUSIC\100 HITS\- 100 HITS - THE BEST -\100 HITS - THE BEST - SEVENTIES ALBUM\100 HITS - THE BEST - SEVENTIES ALBUM - CD01\03.Sweet - Teenage Rampage.wav

Peak level 74.1 %
Extraction speed 17.4 X
Track quality 100.0 %
Copy CRC 5AF7FABB
Accurately ripped (confidence 5) [BDF276CD] (AR v2)
Copy OK

Track 4

Filename A:\PsPBuRnOuT's MUSIC\100 HITS\- 100 HITS - THE BEST -\100 HITS - THE BEST - SEVENTIES ALBUM\100 HITS - THE BEST - SEVENTIES ALBUM - CD01\04.Bay City Rollers - Bye Bye Baby.wav

Peak level 80.3 %
Extraction speed 18.4 X
Track quality 100.0 %
Copy CRC 7669248A
Accurately ripped (confidence 5) [02463990] (AR v2)
Copy OK

Track 5

Filename A:\PsPBuRnOuT's MUSIC\100 HITS\- 100 HITS - THE BEST -\100 HITS - THE BEST - SEVENTIES ALBUM\100 HITS - THE BEST - SEVENTIES ALBUM - CD01\05.David Essex - Gonna Make You A Star.wav

Peak level 94.3 %
Extraction speed 22.9 X
Track quality 100.0 %
Copy CRC 5D57A7BF
Accurately ripped (confidence 5) [61CB256A] (AR v2)
Copy OK

Track 6

Filename A:\PsPBuRnOuT's MUSIC\100 HITS\- 100 HITS - THE BEST -\100 HITS - THE BEST - SEVENTIES ALBUM\100 HITS - THE BEST - SEVENTIES ALBUM - CD01\06.Chicory Tip - Son Of My Father.wav

Peak level 94.3 %
Extraction speed 24.4 X
Track quality 100.0 %
Copy CRC D6095EDE
Accurately ripped (confidence 5) [74146187] (AR v2)
Copy OK

Track 7

Filename A:\PsPBuRnOuT's MUSIC\100 HITS\- 100 HITS - THE BEST -\100 HITS - THE BEST - SEVENTIES ALBUM\100 HITS - THE BEST - SEVENTIES ALBUM - CD01\07.Hello - Tell Him.wav

Peak level 82.2 %
Extraction speed 26.0 X
Track quality 100.0 %
Copy CRC 9618EA3C
Accurately ripped (confidence 5) [71E58841] (AR v2)
Copy OK

Track 8

Filename A:\PsPBuRnOuT's MUSIC\100 HITS\- 100 HITS - THE BEST -\100 HITS - THE BEST - SEVENTIES ALBUM\100 HITS - THE BEST - SEVENTIES ALBUM - CD01\08.Dead End Kids - Have I The Right.wav

Peak level 94.3 %
Extraction speed 23.3 X
Track quality 100.0 %
Copy CRC 4060539B
Accurately ripped (confidence 5) [706282FB] (AR v2)
Copy OK

Track 9

Filename A:\PsPBuRnOuT's MUSIC\100 HITS\- 100 HITS - THE BEST -\100 HITS - THE BEST - SEVENTIES ALBUM\100 HITS - THE BEST - SEVENTIES ALBUM - CD01\09.Kursaal Flyers - Little Does She Know.wav

Peak level 94.3 %
Extraction speed 20.1 X
Track quality 100.0 %
Copy CRC B5500524
Accurately ripped (confidence 5) [D98756EA] (AR v2)
Copy OK

Track 10

Filename A:\PsPBuRnOuT's MUSIC\100 HITS\- 100 HITS - THE BEST -\100 HITS - THE BEST - SEVENTIES ALBUM\100 HITS - THE BEST - SEVENTIES ALBUM - CD01\10.Ian Dury - Hit Me With Your Rhythm Stick.wav

Peak level 94.3 %
Extraction speed 24.9 X
Track quality 99.9 %
Copy CRC B3006B43
Accurately ripped (confidence 5) [52C25F72] (AR v2)
Copy OK

Track 11

Filename A:\PsPBuRnOuT's MUSIC\100 HITS\- 100 HITS - THE BEST -\100 HITS - THE BEST - SEVENTIES ALBUM\100 HITS - THE BEST - SEVENTIES ALBUM - CD01\11.Lulu - The Man Who Sold The World.wav

Peak level 94.3 %
Extraction speed 28.9 X
Track quality 100.0 %
Copy CRC 50B78DA5
Accurately ripped (confidence 5) [1ABAEA4B] (AR v2)
Copy OK

Track 12

Filename A:\PsPBuRnOuT's MUSIC\100 HITS\- 100 HITS - THE BEST -\100 HITS - THE BEST - SEVENTIES ALBUM\100 HITS - THE BEST - SEVENTIES ALBUM - CD01\12.Leo Sayer - When I Need You.wav

Peak level 94.3 %
Extraction speed 31.3 X
Track quality 100.0 %
Copy CRC C24EA91D
Accurately ripped (confidence 5) [DA8C3B4A] (AR v2)
Copy OK

Track 13

Filename A:\PsPBuRnOuT's MUSIC\100 HITS\- 100 HITS - THE BEST -\100 HITS - THE BEST - SEVENTIES ALBUM\100 HITS - THE BEST - SEVENTIES ALBUM - CD01\13.Christie - Yellow River.wav

Peak level 94.3 %
Extraction speed 25.9 X
Track quality 99.8 %
Copy CRC 3148320A
Accurately ripped (confidence 5) [6A79DA4F] (AR v2)
Copy OK

Track 14

Filename A:\PsPBuRnOuT's MUSIC\100 HITS\- 100 HITS - THE BEST -\100 HITS - THE BEST - SEVENTIES ALBUM\100 HITS - THE BEST - SEVENTIES ALBUM - CD01\14.The New Seekers - You Won't Find Another Fool Like Me.wav

Peak level 90.2 %
Extraction speed 26.9 X
Track quality 100.0 %
Copy CRC 98CFB243
Accurately ripped (confidence 5) [2280CC10] (AR v2)
Copy OK

Track 15

Filename A:\PsPBuRnOuT's MUSIC\100 HITS\- 100 HITS - THE BEST -\100 HITS - THE BEST - SEVENTIES ALBUM\100 HITS - THE BEST - SEVENTIES ALBUM - CD01\15.Dawn Feat. Tony Orlando - Tie A Yellow Ribbon Round The Ole Oak Tree.wav

Peak level 94.3 %
Extraction speed 29.5 X
Track quality 100.0 %
Copy CRC D4E68435
Accurately ripped (confidence 5) [19F21990] (AR v2)
Copy OK

Track 16

Filename A:\PsPBuRnOuT's MUSIC\100 HITS\- 100 HITS - THE BEST -\100 HITS - THE BEST - SEVENTIES ALBUM\100 HITS - THE BEST - SEVENTIES ALBUM - CD01\16.Terry Jacks - Seasons In The Sun.wav

Peak level 94.3 %
Extraction speed 28.5 X
Track quality 100.0 %
Copy CRC F7D8C61B
Accurately ripped (confidence 5) [6D0FA297] (AR v2)
Copy OK

Track 17

Filename A:\PsPBuRnOuT's MUSIC\100 HITS\- 100 HITS - THE BEST -\100 HITS - THE BEST - SEVENTIES ALBUM\100 HITS - THE BEST - SEVENTIES ALBUM - CD01\17.Barry Blue - Dancin' (On A Saturday Night).wav

Peak level 94.3 %
Extraction speed 29.0 X
Track quality 99.8 %
Copy CRC 4D59F543
Accurately ripped (confidence 5) [D33A264F] (AR v2)
Copy OK

Track 18

Filename A:\PsPBuRnOuT's MUSIC\100 HITS\- 100 HITS - THE BEST -\100 HITS - THE BEST - SEVENTIES ALBUM\100 HITS - THE BEST - SEVENTIES ALBUM - CD01\18.Clout - Substitute.wav

Peak level 94.3 %
Extraction speed 34.1 X
Track quality 100.0 %
Copy CRC DF6F6C40
Accurately ripped (confidence 5) [AE772E0B] (AR v2)
Copy OK

Track 19

Filename A:\PsPBuRnOuT's MUSIC\100 HITS\- 100 HITS - THE BEST -\100 HITS - THE BEST - SEVENTIES ALBUM\100 HITS - THE BEST - SEVENTIES ALBUM - CD01\19.Harry Nilsson - Without You.wav

Peak level 91.1 %
Extraction speed 31.9 X
Track quality 100.0 %
Copy CRC DD22E239
Accurately ripped (confidence 5) [1744C905] (AR v2)
Copy OK

Track 20

Filename A:\PsPBuRnOuT's MUSIC\100 HITS\- 100 HITS - THE BEST -\100 HITS - THE BEST - SEVENTIES ALBUM\100 HITS - THE BEST - SEVENTIES ALBUM - CD01\20.Eric Carmen - All By Myself.wav

Peak level 91.1 %
Extraction speed 31.7 X
Track quality 100.0 %
Copy CRC 4A77B6B3
Accurately ripped (confidence 5) [8254E27C] (AR v2)
Copy OK


All tracks accurately ripped

No errors occurred

End of status report

–– CUETools DB Plugin V2.1.6

[CTDB TOCID: KHujFBo.P_gHWuaYeAjABZzqB7o-] found
Submit result: KHujFBo.P_gHWuaYeAjABZzqB7o- has been confirmed
Track | CTDB Status
1 | (21/21) Accurately ripped
2 | (21/21) Accurately ripped
3 | (21/21) Accurately ripped
4 | (21/21) Accurately ripped
5 | (21/21) Accurately ripped
6 | (21/21) Accurately ripped
7 | (21/21) Accurately ripped
8 | (21/21) Accurately ripped
9 | (21/21) Accurately ripped
10 | (21/21) Accurately ripped
11 | (21/21) Accurately ripped
12 | (21/21) Accurately ripped
13 | (21/21) Accurately ripped
14 | (21/21) Accurately ripped
15 | (21/21) Accurately ripped
16 | (21/21) Accurately ripped
17 | (21/21) Accurately ripped
18 | (21/21) Accurately ripped
19 | (21/21) Accurately ripped
20 | (21/21) Accurately ripped


Exact Audio Copy V1.3 from 2. September 2016

EAC extraction logfile from 5. May 2018, 5:43

Various / 100 Hits - The Best - Seventies Album - CD02

Used drive : HL-DT-STDVDRAM GSA-E40N Adapter: 1 ID: 1

Read mode : Secure
Utilize accurate stream : Yes
Defeat audio cache : No
Make use of C2 pointers : Yes

Read offset correction : 667
Overread into Lead-In and Lead-Out : No
Fill up missing offset samples with silence : Yes
Delete leading and trailing silent blocks : No
Null samples used in CRC calculations : Yes
Used interface : Native Win32 interface for Win NT & 2000
Gap handling : Not detected, thus appended to previous track

Used output format : User Defined Encoder
Selected bitrate : 896 kBit/s
Quality : High
Add ID3 tag : No
Command line compressor : C:\Program Files (x86)\Exact Audio Copy\FLAC\FLAC.EXE
Additional command line options : -6 -V -T "ARTIST=%artist%" -T "TITLE=%title%" -T "ALBUM=%albumtitle%" -T "DATE=%year%" -T "TRACKNUMBER=%tracknr%" -T "GENRE=%genre%" -T "COMMENT=%comment%" -T "BAND=%albuminterpret%" -T "ALBUMARTIST=%albuminterpret%" -T "COMPOSER=%composer%" %haslyrics%–tag-from-file=LYRICS="%lyricsfile%"%haslyrics% -T "DISCNUMBER=%cdnumber%" -T "TOTALDISCS=%totalcds%" -T "TOTALTRACKS=%numtracks%" %hascover%–picture="%coverfile%"%hascover% %source% -o %dest%


TOC of the extracted CD

Track | Start | Length | Start sector | End sector
––––––––––––––––––––––––––––-
1 | 0:00.00 | 3:27.29 | 0 | 15553
2 | 3:27.29 | 3:35.74 | 15554 | 31752
3 | 7:03.28 | 3:16.52 | 31753 | 46504
4 | 10:20.05 | 3:39.72 | 46505 | 63001
5 | 14:00.02 | 3:03.11 | 63002 | 76737
6 | 17:03.13 | 3:44.52 | 76738 | 93589
7 | 20:47.65 | 3:35.66 | 93590 | 109780
8 | 24:23.56 | 3:37.29 | 109781 | 126084
9 | 28:01.10 | 3:11.51 | 126085 | 140460
10 | 31:12.61 | 3:27.15 | 140461 | 156000
11 | 34:40.01 | 3:37.25 | 156001 | 172300
12 | 38:17.26 | 2:39.04 | 172301 | 184229
13 | 40:56.30 | 3:43.49 | 184230 | 201003
14 | 44:40.04 | 3:01.28 | 201004 | 214606
15 | 47:41.32 | 3:48.24 | 214607 | 231730
16 | 51:29.56 | 3:27.46 | 231731 | 247301
17 | 54:57.27 | 3:24.49 | 247302 | 262650
18 | 58:22.01 | 3:29.56 | 262651 | 278381
19 | 61:51.57 | 4:27.39 | 278382 | 298445
20 | 66:19.21 | 4:18.22 | 298446 | 317817


Track 1

Filename A:\PsPBuRnOuT's MUSIC\100 HITS\- 100 HITS - THE BEST -\100 HITS - THE BEST - SEVENTIES ALBUM\100 HITS - THE BEST - SEVENTIES ALBUM - CD02\01.The Jacksons - Blame It On The Boogie.wav

Peak level 67.8 %
Extraction speed 4.2 X
Track quality 100.0 %
Copy CRC E9D81AF3
Accurately ripped (confidence 5) [0EB7916D] (AR v2)
Copy OK

Track 2

Filename A:\PsPBuRnOuT's MUSIC\100 HITS\- 100 HITS - THE BEST -\100 HITS - THE BEST - SEVENTIES ALBUM\100 HITS - THE BEST - SEVENTIES ALBUM - CD02\02.Earth, Wind & Fire - September.wav

Peak level 94.3 %
Extraction speed 4.6 X
Track quality 100.0 %
Copy CRC E230ECE5
Accurately ripped (confidence 5) [148B5E94] (AR v2)
Copy OK

Track 3

Filename A:\PsPBuRnOuT's MUSIC\100 HITS\- 100 HITS - THE BEST -\100 HITS - THE BEST - SEVENTIES ALBUM\100 HITS - THE BEST - SEVENTIES ALBUM - CD02\03.Baccara - Yes Sir, I Can Boogie.wav

Peak level 99.9 %
Extraction speed 5.4 X
Track quality 100.0 %
Copy CRC E3246C6C
Accurately ripped (confidence 5) [D2136406] (AR v2)
Copy OK

Track 4

Filename A:\PsPBuRnOuT's MUSIC\100 HITS\- 100 HITS - THE BEST -\100 HITS - THE BEST - SEVENTIES ALBUM\100 HITS - THE BEST - SEVENTIES ALBUM - CD02\04.The Emotions - Best Of My Love.wav

Peak level 94.3 %
Extraction speed 5.8 X
Track quality 100.0 %
Copy CRC 1ABAB943
Accurately ripped (confidence 5) [CFE097CA] (AR v2)
Copy OK

Track 5

Filename A:\PsPBuRnOuT's MUSIC\100 HITS\- 100 HITS - THE BEST -\100 HITS - THE BEST - SEVENTIES ALBUM\100 HITS - THE BEST - SEVENTIES ALBUM - CD02\05.Tina Charles - I Love To Love.wav

Peak level 94.3 %
Extraction speed 5.5 X
Track quality 100.0 %
Copy CRC 03429229
Accurately ripped (confidence 5) [B508D53A] (AR v2)
Copy OK

Track 6

Filename A:\PsPBuRnOuT's MUSIC\100 HITS\- 100 HITS - THE BEST -\100 HITS - THE BEST - SEVENTIES ALBUM\100 HITS - THE BEST - SEVENTIES ALBUM - CD02\06.Boney M. - Rivers Of Babylon.wav

Peak level 94.3 %
Extraction speed 6.4 X
Track quality 100.0 %
Copy CRC 0C5B453B
Accurately ripped (confidence 5) [8CA3FD02] (AR v2)
Copy OK

Track 7

Filename A:\PsPBuRnOuT's MUSIC\100 HITS\- 100 HITS - THE BEST -\100 HITS - THE BEST - SEVENTIES ALBUM\100 HITS - THE BEST - SEVENTIES ALBUM - CD02\07.McFadden & Whitehead - Ain't No Stoppin' Us Now.wav

Peak level 94.3 %
Extraction speed 6.8 X
Track quality 100.0 %
Copy CRC 580B4468
Accurately ripped (confidence 5) [7B235DB0] (AR v2)
Copy OK

Track 8

Filename A:\PsPBuRnOuT's MUSIC\100 HITS\- 100 HITS - THE BEST -\100 HITS - THE BEST - SEVENTIES ALBUM\100 HITS - THE BEST - SEVENTIES ALBUM - CD02\08.Heatwave - Boogie Nights.wav

Peak level 94.3 %
Extraction speed 7.1 X
Track quality 100.0 %
Copy CRC 3A013FB8
Accurately ripped (confidence 5) [428DC7F9] (AR v2)
Copy OK

Track 9

Filename A:\PsPBuRnOuT's MUSIC\100 HITS\- 100 HITS - THE BEST -\100 HITS - THE BEST - SEVENTIES ALBUM\100 HITS - THE BEST - SEVENTIES ALBUM - CD02\09.Wild Cherry - Play That Funky Music.wav

Peak level 91.1 %
Extraction speed 6.6 X
Track quality 100.0 %
Copy CRC 8CEC2FAD
Accurately ripped (confidence 5) [AEFFEB41] (AR v2)
Copy OK

Track 10

Filename A:\PsPBuRnOuT's MUSIC\100 HITS\- 100 HITS - THE BEST -\100 HITS - THE BEST - SEVENTIES ALBUM\100 HITS - THE BEST - SEVENTIES ALBUM - CD02\10.Odyssey - Native New Yorker.wav

Peak level 83.8 %
Extraction speed 7.6 X
Track quality 100.0 %
Copy CRC 42E0E4DB
Accurately ripped (confidence 5) [2CBA361A] (AR v2)
Copy OK

Track 11

Filename A:\PsPBuRnOuT's MUSIC\100 HITS\- 100 HITS - THE BEST -\100 HITS - THE BEST - SEVENTIES ALBUM\100 HITS - THE BEST - SEVENTIES ALBUM - CD02\11.Frantique - Strut Your Funky Stuff.wav

Peak level 82.2 %
Extraction speed 7.1 X
Track quality 99.9 %
Copy CRC 3C1DA343
Accurately ripped (confidence 5) [13484943] (AR v2)
Copy OK

Track 12

Filename A:\PsPBuRnOuT's MUSIC\100 HITS\- 100 HITS - THE BEST -\100 HITS - THE BEST - SEVENTIES ALBUM\100 HITS - THE BEST - SEVENTIES ALBUM - CD02\12.Eruption - I Can't Stand The Rain.wav

Peak level 82.2 %
Extraction speed 8.1 X
Track quality 100.0 %
Copy CRC 52FD2C17
Accurately ripped (confidence 5) [5199702D] (AR v2)
Copy OK

Track 13

Filename A:\PsPBuRnOuT's MUSIC\100 HITS\- 100 HITS - THE BEST -\100 HITS - THE BEST - SEVENTIES ALBUM\100 HITS - THE BEST - SEVENTIES ALBUM - CD02\13.Cheryl Lynn - Got To Be Real.wav

Peak level 79.4 %
Extraction speed 7.6 X
Track quality 100.0 %
Copy CRC 42AE81FB
Accurately ripped (confidence 5) [BF27CEB8] (AR v2)
Copy OK

Track 14

Filename A:\PsPBuRnOuT's MUSIC\100 HITS\- 100 HITS - THE BEST -\100 HITS - THE BEST - SEVENTIES ALBUM\100 HITS - THE BEST - SEVENTIES ALBUM - CD02\14.Andrea True Connection - More, More, More.wav

Peak level 74.1 %
Extraction speed 8.5 X
Track quality 100.0 %
Copy CRC E3DF443A
Accurately ripped (confidence 5) [CEB28AFF] (AR v2)
Copy OK

Track 15

Filename A:\PsPBuRnOuT's MUSIC\100 HITS\- 100 HITS - THE BEST -\100 HITS - THE BEST - SEVENTIES ALBUM\100 HITS - THE BEST - SEVENTIES ALBUM - CD02\15.The Three Degrees - Givin' Up Givin' In.wav

Peak level 60.2 %
Extraction speed 8.0 X
Track quality 100.0 %
Copy CRC 84A1292A
Accurately ripped (confidence 5) [31E3CAB7] (AR v2)
Copy OK

Track 16

Filename A:\PsPBuRnOuT's MUSIC\100 HITS\- 100 HITS - THE BEST -\100 HITS - THE BEST - SEVENTIES ALBUM\100 HITS - THE BEST - SEVENTIES ALBUM - CD02\16.Dan Hartman - Instant Replay.wav

Peak level 94.3 %
Extraction speed 8.2 X
Track quality 100.0 %
Copy CRC 24B246E9
Accurately ripped (confidence 5) [EAFBD798] (AR v2)
Copy OK

Track 17

Filename A:\PsPBuRnOuT's MUSIC\100 HITS\- 100 HITS - THE BEST -\100 HITS - THE BEST - SEVENTIES ALBUM\100 HITS - THE BEST - SEVENTIES ALBUM - CD02\17.Vicki Sue Robinson - Turn The Beat Around.wav

Peak level 63.7 %
Extraction speed 9.2 X
Track quality 100.0 %
Copy CRC 2890F93F
Accurately ripped (confidence 5) [620F8787] (AR v2)
Copy OK

Track 18

Filename A:\PsPBuRnOuT's MUSIC\100 HITS\- 100 HITS - THE BEST -\100 HITS - THE BEST - SEVENTIES ALBUM\100 HITS - THE BEST - SEVENTIES ALBUM - CD02\18.Gary's Gang - Keep On Dancing.wav

Peak level 86.0 %
Extraction speed 9.5 X
Track quality 100.0 %
Copy CRC 808723D4
Accurately ripped (confidence 5) [31FB0715] (AR v2)
Copy OK

Track 19

Filename A:\PsPBuRnOuT's MUSIC\100 HITS\- 100 HITS - THE BEST -\100 HITS - THE BEST - SEVENTIES ALBUM\100 HITS - THE BEST - SEVENTIES ALBUM - CD02\19.Disco Tex & The Sexolettes - Get Dancin'.wav

Peak level 82.2 %
Extraction speed 9.0 X
Track quality 100.0 %
Copy CRC C9D7906F
Accurately ripped (confidence 5) [6AC838F5] (AR v2)
Copy OK

Track 20

Filename A:\PsPBuRnOuT's MUSIC\100 HITS\- 100 HITS - THE BEST -\100 HITS - THE BEST - SEVENTIES ALBUM\100 HITS - THE BEST - SEVENTIES ALBUM - CD02\20.Sarah Brightman And Hot Gossip - I Lost My Heart To A Starship Trooper.wav

Peak level 91.1 %
Extraction speed 9.5 X
Track quality 100.0 %
Copy CRC DCB97F48
Accurately ripped (confidence 5) [A2CEE5AC] (AR v2)
Copy OK


All tracks accurately ripped

No errors occurred

End of status report

–– CUETools DB Plugin V2.1.6

[CTDB TOCID: E_2QDPOrzxh4P4bzCOZtqseJP.A-] found
Submit result: E_2QDPOrzxh4P4bzCOZtqseJP.A- has been confirmed
Track | CTDB Status
1 | (20/20) Accurately ripped
2 | (20/20) Accurately ripped
3 | (20/20) Accurately ripped
4 | (20/20) Accurately ripped
5 | (20/20) Accurately ripped
6 | (20/20) Accurately ripped
7 | (20/20) Accurately ripped
8 | (20/20) Accurately ripped
9 | (20/20) Accurately ripped
10 | (20/20) Accurately ripped
11 | (20/20) Accurately ripped
12 | (20/20) Accurately ripped
13 | (20/20) Accurately ripped
14 | (20/20) Accurately ripped
15 | (20/20) Accurately ripped
16 | (20/20) Accurately ripped
17 | (20/20) Accurately ripped
18 | (20/20) Accurately ripped
19 | (20/20) Accurately ripped
20 | (20/20) Accurately ripped

Exact Audio Copy V1.3 from 2. September 2016

EAC extraction logfile from 5. May 2018, 16:53

Various / 100 Hits - The Best - Seventies Album - CD03

Used drive : HL-DT-STDVDRAM GSA-E40N Adapter: 1 ID: 1

Read mode : Secure
Utilize accurate stream : Yes
Defeat audio cache : No
Make use of C2 pointers : Yes

Read offset correction : 667
Overread into Lead-In and Lead-Out : No
Fill up missing offset samples with silence : Yes
Delete leading and trailing silent blocks : No
Null samples used in CRC calculations : Yes
Used interface : Native Win32 interface for Win NT & 2000
Gap handling : Not detected, thus appended to previous track

Used output format : User Defined Encoder
Selected bitrate : 896 kBit/s
Quality : High
Add ID3 tag : No
Command line compressor : C:\Program Files (x86)\Exact Audio Copy\FLAC\FLAC.EXE
Additional command line options : -6 -V -T "ARTIST=%artist%" -T "TITLE=%title%" -T "ALBUM=%albumtitle%" -T "DATE=%year%" -T "TRACKNUMBER=%tracknr%" -T "GENRE=%genre%" -T "COMMENT=%comment%" -T "BAND=%albuminterpret%" -T "ALBUMARTIST=%albuminterpret%" -T "COMPOSER=%composer%" %haslyrics%–tag-from-file=LYRICS="%lyricsfile%"%haslyrics% -T "DISCNUMBER=%cdnumber%" -T "TOTALDISCS=%totalcds%" -T "TOTALTRACKS=%numtracks%" %hascover%–picture="%coverfile%"%hascover% %source% -o %dest%


TOC of the extracted CD

Track | Start | Length | Start sector | End sector
––––––––––––––––––––––––––––-
1 | 0:00.00 | 3:53.62 | 0 | 17536
2 | 3:53.62 | 2:37.36 | 17537 | 29347
3 | 6:31.23 | 2:51.64 | 29348 | 42236
4 | 9:23.12 | 3:22.72 | 42237 | 57458
5 | 12:46.09 | 3:38.65 | 57459 | 73873
6 | 16:24.74 | 3:14.28 | 73874 | 88451
7 | 19:39.27 | 2:37.51 | 88452 | 100277
8 | 22:17.03 | 3:07.07 | 100278 | 114309
9 | 25:24.10 | 3:38.36 | 114310 | 130695
10 | 29:02.46 | 3:20.29 | 130696 | 145724
11 | 32:23.00 | 3:38.47 | 145725 | 162121
12 | 36:01.47 | 3:10.63 | 162122 | 176434
13 | 39:12.35 | 3:42.31 | 176435 | 193115
14 | 42:54.66 | 3:15.50 | 193116 | 207790
15 | 46:10.41 | 2:57.02 | 207791 | 221067
16 | 49:07.43 | 3:10.21 | 221068 | 235338
17 | 52:17.64 | 3:03.46 | 235339 | 249109
18 | 55:21.35 | 3:01.28 | 249110 | 262712
19 | 58:22.63 | 2:38.69 | 262713 | 274631
20 | 61:01.57 | 2:43.05 | 274632 | 286861


Track 1

Filename A:\PsPBuRnOuT's MUSIC\100 HITS\- 100 HITS - THE BEST -\100 HITS - THE BEST - SEVENTIES ALBUM\100 HITS - THE BEST - SEVENTIES ALBUM - CD03\01.David Essex - Hold Me Close.wav

Peak level 94.3 %
Extraction speed 10.1 X
Track quality 100.0 %
Copy CRC 3AB1FC84
Accurately ripped (confidence 4) [3B0C9598] (AR v2)
Copy OK

Track 2

Filename A:\PsPBuRnOuT's MUSIC\100 HITS\- 100 HITS - THE BEST -\100 HITS - THE BEST - SEVENTIES ALBUM\100 HITS - THE BEST - SEVENTIES ALBUM - CD03\02.The Three Degrees - When Will I See You Again.wav

Peak level 94.3 %
Extraction speed 12.1 X
Track quality 100.0 %
Copy CRC 6BCCB466
Accurately ripped (confidence 4) [9F88E747] (AR v2)
Copy OK

Track 3

Filename A:\PsPBuRnOuT's MUSIC\100 HITS\- 100 HITS - THE BEST -\100 HITS - THE BEST - SEVENTIES ALBUM\100 HITS - THE BEST - SEVENTIES ALBUM - CD03\03.Leo Sayer - You Make Me Feel Like Dancing.wav

Peak level 82.7 %
Extraction speed 12.9 X
Track quality 100.0 %
Copy CRC ABC1465F
Accurately ripped (confidence 4) [1A5FF27E] (AR v2)
Copy OK

Track 4

Filename A:\PsPBuRnOuT's MUSIC\100 HITS\- 100 HITS - THE BEST -\100 HITS - THE BEST - SEVENTIES ALBUM\100 HITS - THE BEST - SEVENTIES ALBUM - CD03\04.Bay City Rollers - Give A Little Love.wav

Peak level 77.6 %
Extraction speed 12.4 X
Track quality 100.0 %
Copy CRC 135B0664
Accurately ripped (confidence 4) [FDFE77AE] (AR v2)
Copy OK

Track 5

Filename A:\PsPBuRnOuT's MUSIC\100 HITS\- 100 HITS - THE BEST -\100 HITS - THE BEST - SEVENTIES ALBUM\100 HITS - THE BEST - SEVENTIES ALBUM - CD03\05.Slik - Forever And Ever.wav

Peak level 94.3 %
Extraction speed 13.2 X
Track quality 100.0 %
Copy CRC 79B2447B
Accurately ripped (confidence 4) [B143A43D] (AR v2)
Copy OK

Track 6

Filename A:\PsPBuRnOuT's MUSIC\100 HITS\- 100 HITS - THE BEST -\100 HITS - THE BEST - SEVENTIES ALBUM\100 HITS - THE BEST - SEVENTIES ALBUM - CD03\06.Guys 'N Dolls - There's A Whole Lot Of Loving.wav

Peak level 94.3 %
Extraction speed 12.6 X
Track quality 99.8 %
Copy CRC 3A0C83C9
Accurately ripped (confidence 4) [0574346C] (AR v2)
Copy OK

Track 7

Filename A:\PsPBuRnOuT's MUSIC\100 HITS\- 100 HITS - THE BEST -\100 HITS - THE BEST - SEVENTIES ALBUM\100 HITS - THE BEST - SEVENTIES ALBUM - CD03\07.Co-Co - Bad Old Days.wav

Peak level 85.0 %
Extraction speed 13.4 X
Track quality 100.0 %
Copy CRC F91BB486
Accurately ripped (confidence 4) [46978EE0] (AR v2)
Copy OK

Track 8

Filename A:\PsPBuRnOuT's MUSIC\100 HITS\- 100 HITS - THE BEST -\100 HITS - THE BEST - SEVENTIES ALBUM\100 HITS - THE BEST - SEVENTIES ALBUM - CD03\08.Dana - Fairytale.wav

Peak level 94.3 %
Extraction speed 16.7 X
Track quality 100.0 %
Copy CRC 5148C0D0
Accurately ripped (confidence 4) [3AC9CCEA] (AR v2)
Copy OK

Track 9

Filename A:\PsPBuRnOuT's MUSIC\100 HITS\- 100 HITS - THE BEST -\100 HITS - THE BEST - SEVENTIES ALBUM\100 HITS - THE BEST - SEVENTIES ALBUM - CD03\09.Baccara - Sorry, I'm A Lady.wav

Peak level 91.1 %
Extraction speed 15.7 X
Track quality 100.0 %
Copy CRC 6A8C8EC5
Accurately ripped (confidence 4) [2BC9F161] (AR v2)
Copy OK

Track 10

Filename A:\PsPBuRnOuT's MUSIC\100 HITS\- 100 HITS - THE BEST -\100 HITS - THE BEST - SEVENTIES ALBUM\100 HITS - THE BEST - SEVENTIES ALBUM - CD03\10.R & J Stone - We Do It.wav

Peak level 94.3 %
Extraction speed 16.1 X
Track quality 100.0 %
Copy CRC B13AFC5A
Accurately ripped (confidence 4) [D9A7C2D2] (AR v2)
Copy OK

Track 11

Filename A:\PsPBuRnOuT's MUSIC\100 HITS\- 100 HITS - THE BEST -\100 HITS - THE BEST - SEVENTIES ALBUM\100 HITS - THE BEST - SEVENTIES ALBUM - CD03\11.The Dooleys - Wanted.wav

Peak level 94.3 %
Extraction speed 18.8 X
Track quality 100.0 %
Copy CRC 9600982B
Accurately ripped (confidence 4) [0F0B272B] (AR v2)
Copy OK

Track 12

Filename A:\PsPBuRnOuT's MUSIC\100 HITS\- 100 HITS - THE BEST -\100 HITS - THE BEST - SEVENTIES ALBUM\100 HITS - THE BEST - SEVENTIES ALBUM - CD03\12.The New Edition - Get A Little Sand Between Your Toes.wav

Peak level 85.1 %
Extraction speed 17.2 X
Track quality 100.0 %
Copy CRC 7FE415CA
Accurately ripped (confidence 4) [60EDFDCD] (AR v2)
Copy OK

Track 13

Filename A:\PsPBuRnOuT's MUSIC\100 HITS\- 100 HITS - THE BEST -\100 HITS - THE BEST - SEVENTIES ALBUM\100 HITS - THE BEST - SEVENTIES ALBUM - CD03\13.Boz Scaggs - Lido Shuffle.wav

Peak level 94.3 %
Extraction speed 16.5 X
Track quality 99.9 %
Copy CRC BBD46580
Accurately ripped (confidence 4) [9CD00F7E] (AR v2)
Copy OK

Track 14

Filename A:\PsPBuRnOuT's MUSIC\100 HITS\- 100 HITS - THE BEST -\100 HITS - THE BEST - SEVENTIES ALBUM\100 HITS - THE BEST - SEVENTIES ALBUM - CD03\14.Labelle - Lady Marmalade.wav

Peak level 94.3 %
Extraction speed 16.0 X
Track quality 99.8 %
Copy CRC 31999333
Accurately ripped (confidence 4) [9F3CF6CF] (AR v2)
Copy OK

Track 15

Filename A:\PsPBuRnOuT's MUSIC\100 HITS\- 100 HITS - THE BEST -\100 HITS - THE BEST - SEVENTIES ALBUM\100 HITS - THE BEST - SEVENTIES ALBUM - CD03\15.Johnny Mathis With Deniece Williams - Too Much, Too Little, Too Late.wav

Peak level 94.3 %
Extraction speed 17.6 X
Track quality 100.0 %
Copy CRC FCA88035
Accurately ripped (confidence 4) [9B800600] (AR v2)
Copy OK

Track 16

Filename A:\PsPBuRnOuT's MUSIC\100 HITS\- 100 HITS - THE BEST -\100 HITS - THE BEST - SEVENTIES ALBUM\100 HITS - THE BEST - SEVENTIES ALBUM - CD03\16.Showaddywaddy - Under The Moon Of Love.wav

Peak level 90.6 %
Extraction speed 21.5 X
Track quality 100.0 %
Copy CRC ADF9DBBB
Accurately ripped (confidence 4) [DA9864DE] (AR v2)
Copy OK

Track 17

Filename A:\PsPBuRnOuT's MUSIC\100 HITS\- 100 HITS - THE BEST -\100 HITS - THE BEST - SEVENTIES ALBUM\100 HITS - THE BEST - SEVENTIES ALBUM - CD03\17.Brotherhood Of Man - Save Your Kisses For Me.wav

Peak level 94.3 %
Extraction speed 22.2 X
Track quality 100.0 %
Copy CRC 2CD29CF8
Accurately ripped (confidence 4) [64B69876] (AR v2)
Copy OK

Track 18

Filename A:\PsPBuRnOuT's MUSIC\100 HITS\- 100 HITS - THE BEST -\100 HITS - THE BEST - SEVENTIES ALBUM\100 HITS - THE BEST - SEVENTIES ALBUM - CD03\18.Clodagh Rodgers - Jack In The Box.wav

Peak level 91.1 %
Extraction speed 22.8 X
Track quality 100.0 %
Copy CRC D289BBF1
Accurately ripped (confidence 4) [AE455798] (AR v2)
Copy OK

Track 19

Filename A:\PsPBuRnOuT's MUSIC\100 HITS\- 100 HITS - THE BEST -\100 HITS - THE BEST - SEVENTIES ALBUM\100 HITS - THE BEST - SEVENTIES ALBUM - CD03\19.Anne-Marie David - Wonderful Dream.wav

Peak level 77.5 %
Extraction speed 19.7 X
Track quality 100.0 %
Copy CRC 73063695
Accurately ripped (confidence 4) [6B319FAE] (AR v2)
Copy OK

Track 20

Filename A:\PsPBuRnOuT's MUSIC\100 HITS\- 100 HITS - THE BEST -\100 HITS - THE BEST - SEVENTIES ALBUM\100 HITS - THE BEST - SEVENTIES ALBUM - CD03\20.Raffaella Carra - Do It Do It Again.wav

Peak level 79.4 %
Extraction speed 20.9 X
Track quality 100.0 %
Copy CRC E7513555
Accurately ripped (confidence 4) [C4D92A65] (AR v2)
Copy OK


All tracks accurately ripped

No errors occurred

End of status report

–– CUETools DB Plugin V2.1.6

[CTDB TOCID: NCRx_qQgAzD4ZC45zwE13_fywns-] found
Submit result: NCRx_qQgAzD4ZC45zwE13_fywns- has been confirmed
Track | CTDB Status
1 | (20/20) Accurately ripped
2 | (20/20) Accurately ripped
3 | (20/20) Accurately ripped
4 | (20/20) Accurately ripped
5 | (20/20) Accurately ripped
6 | (20/20) Accurately ripped
7 | (20/20) Accurately ripped
8 | (20/20) Accurately ripped
9 | (20/20) Accurately ripped
10 | (20/20) Accurately ripped
11 | (20/20) Accurately ripped
12 | (20/20) Accurately ripped
13 | (20/20) Accurately ripped
14 | (20/20) Accurately ripped
15 | (20/20) Accurately ripped
16 | (20/20) Accurately ripped
17 | (20/20) Accurately ripped
18 | (20/20) Accurately ripped
19 | (20/20) Accurately ripped
20 | (20/20) Accurately ripped

Exact Audio Copy V1.3 from 2. September 2016

EAC extraction logfile from 5. May 2018, 18:15

Various / 100 Hits - The Best - Seventies Album - CD04

Used drive : HL-DT-STDVDRAM GSA-E40N Adapter: 1 ID: 1

Read mode : Secure
Utilize accurate stream : Yes
Defeat audio cache : No
Make use of C2 pointers : Yes

Read offset correction : 667
Overread into Lead-In and Lead-Out : No
Fill up missing offset samples with silence : Yes
Delete leading and trailing silent blocks : No
Null samples used in CRC calculations : Yes
Used interface : Native Win32 interface for Win NT & 2000
Gap handling : Not detected, thus appended to previous track

Used output format : User Defined Encoder
Selected bitrate : 896 kBit/s
Quality : High
Add ID3 tag : No
Command line compressor : C:\Program Files (x86)\Exact Audio Copy\FLAC\FLAC.EXE
Additional command line options : -6 -V -T "ARTIST=%artist%" -T "TITLE=%title%" -T "ALBUM=%albumtitle%" -T "DATE=%year%" -T "TRACKNUMBER=%tracknr%" -T "GENRE=%genre%" -T "COMMENT=%comment%" -T "BAND=%albuminterpret%" -T "ALBUMARTIST=%albuminterpret%" -T "COMPOSER=%composer%" %haslyrics%–tag-from-file=LYRICS="%lyricsfile%"%haslyrics% -T "DISCNUMBER=%cdnumber%" -T "TOTALDISCS=%totalcds%" -T "TOTALTRACKS=%numtracks%" %hascover%–picture="%coverfile%"%hascover% %source% -o %dest%


TOC of the extracted CD

Track | Start | Length | Start sector | End sector
––––––––––––––––––––––––––––-
1 | 0:00.00 | 4:48.14 | 0 | 21613
2 | 4:48.14 | 3:04.60 | 21614 | 35473
3 | 7:52.74 | 3:29.70 | 35474 | 51218
4 | 11:22.69 | 3:00.15 | 51219 | 64733
5 | 14:23.09 | 3:11.38 | 64734 | 79096
6 | 17:34.47 | 3:50.00 | 79097 | 96346
7 | 21:24.47 | 2:25.63 | 96347 | 107284
8 | 23:50.35 | 2:53.50 | 107285 | 120309
9 | 26:44.10 | 2:49.44 | 120310 | 133028
10 | 29:33.54 | 2:37.09 | 133029 | 144812
11 | 32:10.63 | 3:02.15 | 144813 | 158477
12 | 35:13.03 | 2:58.39 | 158478 | 171866
13 | 38:11.42 | 3:24.21 | 171867 | 187187
14 | 41:35.63 | 3:02.56 | 187188 | 200893
15 | 44:38.44 | 3:17.54 | 200894 | 215722
16 | 47:56.23 | 3:31.69 | 215723 | 231616
17 | 51:28.17 | 2:42.17 | 231617 | 243783
18 | 54:10.34 | 4:35.16 | 243784 | 264424
19 | 58:45.50 | 4:05.17 | 264425 | 282816
20 | 62:50.67 | 3:29.14 | 282817 | 298505


Track 1

Filename A:\PsPBuRnOuT's MUSIC\100 HITS\- 100 HITS - THE BEST -\100 HITS - THE BEST - SEVENTIES ALBUM\100 HITS - THE BEST - SEVENTIES ALBUM - CD04\01.Earth, Wind & Fire With The Emotions - Boogie Wonderland.wav

Peak level 94.3 %
Extraction speed 18.6 X
Track quality 100.0 %
Copy CRC BB5D448C
Accurately ripped (confidence 4) [0C20D070] (AR v2)
Copy OK

Track 2

Filename A:\PsPBuRnOuT's MUSIC\100 HITS\- 100 HITS - THE BEST -\100 HITS - THE BEST - SEVENTIES ALBUM\100 HITS - THE BEST - SEVENTIES ALBUM - CD04\02.Sly & The Family Stone - Family Affair.wav

Peak level 94.3 %
Extraction speed 18.0 X
Track quality 100.0 %
Copy CRC 3A15F848
Accurately ripped (confidence 4) [BACF0A3B] (AR v2)
Copy OK

Track 3

Filename A:\PsPBuRnOuT's MUSIC\100 HITS\- 100 HITS - THE BEST -\100 HITS - THE BEST - SEVENTIES ALBUM\100 HITS - THE BEST - SEVENTIES ALBUM - CD04\03.Harold Melvin & The Blue Notes - Don't Leave Me This Way.wav

Peak level 94.3 %
Extraction speed 19.2 X
Track quality 100.0 %
Copy CRC 1865C7F2
Accurately ripped (confidence 4) [7FC3B539] (AR v2)
Copy OK

Track 4

Filename A:\PsPBuRnOuT's MUSIC\100 HITS\- 100 HITS - THE BEST -\100 HITS - THE BEST - SEVENTIES ALBUM\100 HITS - THE BEST - SEVENTIES ALBUM - CD04\04.Billy Ocean - Love Really Hurts Without You.wav

Peak level 67.0 %
Extraction speed 20.0 X
Track quality 100.0 %
Copy CRC D9070D60
Accurately ripped (confidence 4) [199E14A1] (AR v2)
Copy OK

Track 5

Filename A:\PsPBuRnOuT's MUSIC\100 HITS\- 100 HITS - THE BEST -\100 HITS - THE BEST - SEVENTIES ALBUM\100 HITS - THE BEST - SEVENTIES ALBUM - CD04\05.Gladys Knight & The Pips - Baby Don't Change Your Mind.wav

Peak level 90.0 %
Extraction speed 15.5 X
Track quality 99.8 %
Copy CRC 79C59D2E
Accurately ripped (confidence 4) [55843AA8] (AR v2)
Copy OK

Track 6

Filename A:\PsPBuRnOuT's MUSIC\100 HITS\- 100 HITS - THE BEST -\100 HITS - THE BEST - SEVENTIES ALBUM\100 HITS - THE BEST - SEVENTIES ALBUM - CD04\06.Bill Withers - Lovely Day.wav

Peak level 94.3 %
Extraction speed 18.7 X
Track quality 100.0 %
Copy CRC 93548E0A
Accurately ripped (confidence 4) [B7A55B51] (AR v2)
Copy OK

Track 7

Filename A:\PsPBuRnOuT's MUSIC\100 HITS\- 100 HITS - THE BEST -\100 HITS - THE BEST - SEVENTIES ALBUM\100 HITS - THE BEST - SEVENTIES ALBUM - CD04\07.Daryl Hall & John Oates - Rich Girl.wav

Peak level 94.3 %
Extraction speed 21.7 X
Track quality 100.0 %
Copy CRC 63100080
Accurately ripped (confidence 4) [DB1434AA] (AR v2)
Copy OK

Track 8

Filename A:\PsPBuRnOuT's MUSIC\100 HITS\- 100 HITS - THE BEST -\100 HITS - THE BEST - SEVENTIES ALBUM\100 HITS - THE BEST - SEVENTIES ALBUM - CD04\08.Freda Payne - Band Of Gold.wav

Peak level 76.7 %
Extraction speed 17.2 X
Track quality 99.8 %
Copy CRC A89BBF18
Accurately ripped (confidence 4) [56BFFD1F] (AR v2)
Copy OK

Track 9

Filename A:\PsPBuRnOuT's MUSIC\100 HITS\- 100 HITS - THE BEST -\100 HITS - THE BEST - SEVENTIES ALBUM\100 HITS - THE BEST - SEVENTIES ALBUM - CD04\09.Edison Lighthouse - Love Grows (Where My Rosmary Goes).wav

Peak level 77.1 %
Extraction speed 20.7 X
Track quality 100.0 %
Copy CRC 791198FE
Accurately ripped (confidence 4) [D934DD1D] (AR v2)
Copy OK

Track 10

Filename A:\PsPBuRnOuT's MUSIC\100 HITS\- 100 HITS - THE BEST -\100 HITS - THE BEST - SEVENTIES ALBUM\100 HITS - THE BEST - SEVENTIES ALBUM - CD04\10.Chairmen Of The Board - Give Me Just A Little More Time.wav

Peak level 83.6 %
Extraction speed 18.1 X
Track quality 99.8 %
Copy CRC DC589D24
Accurately ripped (confidence 3) [EF19E128] (AR v2)
Copy OK

Track 11

Filename A:\PsPBuRnOuT's MUSIC\100 HITS\- 100 HITS - THE BEST -\100 HITS - THE BEST - SEVENTIES ALBUM\100 HITS - THE BEST - SEVENTIES ALBUM - CD04\11.The Hues Corporation - Rock The Boat.wav

Peak level 94.3 %
Extraction speed 19.5 X
Track quality 100.0 %
Copy CRC 25EC8286
Accurately ripped (confidence 3) [3C519CDA] (AR v2)
Copy OK

Track 12

Filename A:\PsPBuRnOuT's MUSIC\100 HITS\- 100 HITS - THE BEST -\100 HITS - THE BEST - SEVENTIES ALBUM\100 HITS - THE BEST - SEVENTIES ALBUM - CD04\12.The O'Jays - Love Train.wav

Peak level 91.1 %
Extraction speed 30.1 X
Track quality 100.0 %
Copy CRC 4CEF1BBF
Accurately ripped (confidence 3) [871EC934] (AR v2)
Copy OK

Track 13

Filename A:\PsPBuRnOuT's MUSIC\100 HITS\- 100 HITS - THE BEST -\100 HITS - THE BEST - SEVENTIES ALBUM\100 HITS - THE BEST - SEVENTIES ALBUM - CD04\13.The Tymes - Ms. Grace.wav

Peak level 94.3 %
Extraction speed 20.3 X
Track quality 99.8 %
Copy CRC 0622FCE4
Accurately ripped (confidence 3) [52A200BA] (AR v2)
Copy OK

Track 14

Filename A:\PsPBuRnOuT's MUSIC\100 HITS\- 100 HITS - THE BEST -\100 HITS - THE BEST - SEVENTIES ALBUM\100 HITS - THE BEST - SEVENTIES ALBUM - CD04\14.The Drifters - There Goes My First Love.wav

Peak level 94.3 %
Extraction speed 20.6 X
Track quality 100.0 %
Copy CRC 5ADE2D01
Accurately ripped (confidence 3) [5A833F7F] (AR v2)
Copy OK

Track 15

Filename A:\PsPBuRnOuT's MUSIC\100 HITS\- 100 HITS - THE BEST -\100 HITS - THE BEST - SEVENTIES ALBUM\100 HITS - THE BEST - SEVENTIES ALBUM - CD04\15.The Trammps - Hold Back The Night.wav

Peak level 89.1 %
Extraction speed 32.9 X
Track quality 100.0 %
Copy CRC F0D55637
Accurately ripped (confidence 3) [0302D098] (AR v2)
Copy OK

Track 16

Filename A:\PsPBuRnOuT's MUSIC\100 HITS\- 100 HITS - THE BEST -\100 HITS - THE BEST - SEVENTIES ALBUM\100 HITS - THE BEST - SEVENTIES ALBUM - CD04\16.The Isley Brothers - Harvest For The World, Pt. 1.wav

Peak level 94.3 %
Extraction speed 21.5 X
Track quality 99.8 %
Copy CRC 83C4F472
Accurately ripped (confidence 3) [231B3871] (AR v2)
Copy OK

Track 17

Filename A:\PsPBuRnOuT's MUSIC\100 HITS\- 100 HITS - THE BEST -\100 HITS - THE BEST - SEVENTIES ALBUM\100 HITS - THE BEST - SEVENTIES ALBUM - CD04\17.Dee Clark - Ride A Wild Horse.wav

Peak level 94.3 %
Extraction speed 23.0 X
Track quality 100.0 %
Copy CRC 29589F78
Accurately ripped (confidence 3) [07C9A28A] (AR v2)
Copy OK

Track 18

Filename A:\PsPBuRnOuT's MUSIC\100 HITS\- 100 HITS - THE BEST -\100 HITS - THE BEST - SEVENTIES ALBUM\100 HITS - THE BEST - SEVENTIES ALBUM - CD04\18.Raydio - Jack And Jill.wav

Peak level 86.0 %
Extraction speed 31.8 X
Track quality 100.0 %
Copy CRC 5084BD0E
Accurately ripped (confidence 3) [B1E6D5C5] (AR v2)
Copy OK

Track 19

Filename A:\PsPBuRnOuT's MUSIC\100 HITS\- 100 HITS - THE BEST -\100 HITS - THE BEST - SEVENTIES ALBUM\100 HITS - THE BEST - SEVENTIES ALBUM - CD04\19.Archie Bell & The Drells - The Soul City Walk.wav

Peak level 87.8 %
Extraction speed 31.1 X
Track quality 100.0 %
Copy CRC 2677F39C
Accurately ripped (confidence 3) [ACE54AE1] (AR v2)
Copy OK

Track 20

Filename A:\PsPBuRnOuT's MUSIC\100 HITS\- 100 HITS - THE BEST -\100 HITS - THE BEST - SEVENTIES ALBUM\100 HITS - THE BEST - SEVENTIES ALBUM - CD04\20.Melba Moore - This Is It.wav

Peak level 87.0 %
Extraction speed 35.6 X
Track quality 100.0 %
Copy CRC 2A63BFCF
Accurately ripped (confidence 3) [0DF89437] (AR v2)
Copy OK


All tracks accurately ripped

No errors occurred

End of status report

–– CUETools DB Plugin V2.1.6

[CTDB TOCID: zGXOoCdLeIqe.8cLNP6.B1aUAd4-] found
Submit result: zGXOoCdLeIqe.8cLNP6.B1aUAd4- has been confirmed
Track | CTDB Status
1 | (20/20) Accurately ripped
2 | (20/20) Accurately ripped
3 | (20/20) Accurately ripped
4 | (20/20) Accurately ripped
5 | (20/20) Accurately ripped
6 | (20/20) Accurately ripped
7 | (20/20) Accurately ripped
8 | (20/20) Accurately ripped
9 | (20/20) Accurately ripped
10 | (20/20) Accurately ripped
11 | (20/20) Accurately ripped
12 | (20/20) Accurately ripped
13 | (20/20) Accurately ripped
14 | (20/20) Accurately ripped
15 | (20/20) Accurately ripped
16 | (20/20) Accurately ripped
17 | (20/20) Accurately ripped
18 | (20/20) Accurately ripped
19 | (20/20) Accurately ripped
20 | (20/20) Accurately ripped

Exact Audio Copy V1.3 from 2. September 2016

EAC extraction logfile from 5. May 2018, 18:41

Various / 100 Hits - The Best - Seventies Album - CD05

Used drive : HL-DT-STDVDRAM GSA-E40N Adapter: 1 ID: 1

Read mode : Secure
Utilize accurate stream : Yes
Defeat audio cache : No
Make use of C2 pointers : Yes

Read offset correction : 667
Overread into Lead-In and Lead-Out : No
Fill up missing offset samples with silence : Yes
Delete leading and trailing silent blocks : No
Null samples used in CRC calculations : Yes
Used interface : Native Win32 interface for Win NT & 2000
Gap handling : Not detected, thus appended to previous track

Used output format : User Defined Encoder
Selected bitrate : 896 kBit/s
Quality : High
Add ID3 tag : No
Command line compressor : C:\Program Files (x86)\Exact Audio Copy\FLAC\FLAC.EXE
Additional command line options : -6 -V -T "ARTIST=%artist%" -T "TITLE=%title%" -T "ALBUM=%albumtitle%" -T "DATE=%year%" -T "TRACKNUMBER=%tracknr%" -T "GENRE=%genre%" -T "COMMENT=%comment%" -T "BAND=%albuminterpret%" -T "ALBUMARTIST=%albuminterpret%" -T "COMPOSER=%composer%" %haslyrics%–tag-from-file=LYRICS="%lyricsfile%"%haslyrics% -T "DISCNUMBER=%cdnumber%" -T "TOTALDISCS=%totalcds%" -T "TOTALTRACKS=%numtracks%" %hascover%–picture="%coverfile%"%hascover% %source% -o %dest%


TOC of the extracted CD

Track | Start | Length | Start sector | End sector
––––––––––––––––––––––––––––-
1 | 0:00.00 | 3:54.01 | 0 | 17550
2 | 3:54.01 | 3:04.67 | 17551 | 31417
3 | 6:58.68 | 3:18.14 | 31418 | 46281
4 | 10:17.07 | 4:53.59 | 46282 | 68315
5 | 15:10.66 | 3:56.50 | 68316 | 86065
6 | 19:07.41 | 3:22.70 | 86066 | 101285
7 | 22:30.36 | 4:08.23 | 101286 | 119908
8 | 26:38.59 | 2:39.60 | 119909 | 131893
9 | 29:18.44 | 3:36.18 | 131894 | 148111
10 | 32:54.62 | 2:58.46 | 148112 | 161507
11 | 35:53.33 | 3:13.39 | 161508 | 176021
12 | 39:06.72 | 3:09.22 | 176022 | 190218
13 | 42:16.19 | 4:45.21 | 190219 | 211614
14 | 47:01.40 | 3:59.31 | 211615 | 229570
15 | 51:00.71 | 3:49.58 | 229571 | 246803
16 | 54:50.54 | 3:05.13 | 246804 | 260691
17 | 57:55.67 | 2:48.20 | 260692 | 273311
18 | 60:44.12 | 3:45.11 | 273312 | 290197
19 | 64:29.23 | 2:38.22 | 290198 | 302069
20 | 67:07.45 | 3:29.25 | 302070 | 317769


Track 1

Filename A:\PsPBuRnOuT's MUSIC\100 HITS\- 100 HITS - THE BEST -\100 HITS - THE BEST - SEVENTIES ALBUM\100 HITS - THE BEST - SEVENTIES ALBUM - CD05\01.Lou Reed - Walk On The Wild Side.wav

Peak level 94.3 %
Extraction speed 14.7 X
Track quality 100.0 %
Copy CRC 80D3DC21
Accurately ripped (confidence 4) [70FB3DD8] (AR v2)
Copy OK

Track 2

Filename A:\PsPBuRnOuT's MUSIC\100 HITS\- 100 HITS - THE BEST -\100 HITS - THE BEST - SEVENTIES ALBUM\100 HITS - THE BEST - SEVENTIES ALBUM - CD05\02.Fleetwood Mac - Albatross.wav

Peak level 94.3 %
Extraction speed 16.1 X
Track quality 100.0 %
Copy CRC 3B3195D7
Accurately ripped (confidence 4) [80B40AC1] (AR v2)
Copy OK

Track 3

Filename A:\PsPBuRnOuT's MUSIC\100 HITS\- 100 HITS - THE BEST -\100 HITS - THE BEST - SEVENTIES ALBUM\100 HITS - THE BEST - SEVENTIES ALBUM - CD05\03.Santana - She's Not There.wav

Peak level 94.2 %
Extraction speed 12.9 X
Track quality 99.8 %
Copy CRC 85E574D5
Accurately ripped (confidence 4) [9EBE071B] (AR v2)
Copy OK

Track 4

Filename A:\PsPBuRnOuT's MUSIC\100 HITS\- 100 HITS - THE BEST -\100 HITS - THE BEST - SEVENTIES ALBUM\100 HITS - THE BEST - SEVENTIES ALBUM - CD05\04.Meat Loaf - Bat Out Of Hell.wav

Peak level 91.1 %
Extraction speed 14.4 X
Track quality 99.9 %
Copy CRC 14DEB569
Accurately ripped (confidence 4) [96EE7676] (AR v2)
Copy OK

Track 5

Filename A:\PsPBuRnOuT's MUSIC\100 HITS\- 100 HITS - THE BEST -\100 HITS - THE BEST - SEVENTIES ALBUM\100 HITS - THE BEST - SEVENTIES ALBUM - CD05\05.Ram Jam - Black Betty.wav

Peak level 79.4 %
Extraction speed 16.5 X
Track quality 100.0 %
Copy CRC 66416D63
Accurately ripped (confidence 4) [27A85112] (AR v2)
Copy OK

Track 6

Filename A:\PsPBuRnOuT's MUSIC\100 HITS\- 100 HITS - THE BEST -\100 HITS - THE BEST - SEVENTIES ALBUM\100 HITS - THE BEST - SEVENTIES ALBUM - CD05\06.Patti Smith Group - Because The Night.wav

Peak level 85.1 %
Extraction speed 18.5 X
Track quality 100.0 %
Copy CRC A49FB201
Accurately ripped (confidence 4) [B4B382ED] (AR v2)
Copy OK

Track 7

Filename A:\PsPBuRnOuT's MUSIC\100 HITS\- 100 HITS - THE BEST -\100 HITS - THE BEST - SEVENTIES ALBUM\100 HITS - THE BEST - SEVENTIES ALBUM - CD05\07.Justin Hayward - Forever Autumn.wav

Peak level 94.3 %
Extraction speed 21.7 X
Track quality 100.0 %
Copy CRC E4C4D66A
Accurately ripped (confidence 4) [8FB736EE] (AR v2)
Copy OK

Track 8

Filename A:\PsPBuRnOuT's MUSIC\100 HITS\- 100 HITS - THE BEST -\100 HITS - THE BEST - SEVENTIES ALBUM\100 HITS - THE BEST - SEVENTIES ALBUM - CD05\08.Dolly Parton - Jolene.wav

Peak level 77.6 %
Extraction speed 19.5 X
Track quality 100.0 %
Copy CRC A7BAEF88
Accurately ripped (confidence 4) [234B0810] (AR v2)
Copy OK

Track 9

Filename A:\PsPBuRnOuT's MUSIC\100 HITS\- 100 HITS - THE BEST -\100 HITS - THE BEST - SEVENTIES ALBUM\100 HITS - THE BEST - SEVENTIES ALBUM - CD05\09.The Charlie Daniels Band - The Devil Went Down To Georgia.wav

Peak level 94.3 %
Extraction speed 20.8 X
Track quality 100.0 %
Copy CRC 3AAA931B
Accurately ripped (confidence 4) [8D8243D2] (AR v2)
Copy OK

Track 10

Filename A:\PsPBuRnOuT's MUSIC\100 HITS\- 100 HITS - THE BEST -\100 HITS - THE BEST - SEVENTIES ALBUM\100 HITS - THE BEST - SEVENTIES ALBUM - CD05\10.Billy Swan - I Can Help.wav

Peak level 94.3 %
Extraction speed 21.1 X
Track quality 100.0 %
Copy CRC 4E599A12
Accurately ripped (confidence 4) [BC9CD9EF] (AR v2)
Copy OK

Track 11

Filename A:\PsPBuRnOuT's MUSIC\100 HITS\- 100 HITS - THE BEST -\100 HITS - THE BEST - SEVENTIES ALBUM\100 HITS - THE BEST - SEVENTIES ALBUM - CD05\11.City Boy - 5.7.0.5.wav

Peak level 94.3 %
Extraction speed 24.8 X
Track quality 100.0 %
Copy CRC 2D58BD99
Accurately ripped (confidence 4) [86EE1136] (AR v2)
Copy OK

Track 12

Filename A:\PsPBuRnOuT's MUSIC\100 HITS\- 100 HITS - THE BEST -\100 HITS - THE BEST - SEVENTIES ALBUM\100 HITS - THE BEST - SEVENTIES ALBUM - CD05\12.Mott The Hoople - Roll Away The Stone.wav

Peak level 94.3 %
Extraction speed 18.4 X
Track quality 99.8 %
Copy CRC CA3E3D18
Accurately ripped (confidence 4) [3B3D9331] (AR v2)
Copy OK

Track 13

Filename A:\PsPBuRnOuT's MUSIC\100 HITS\- 100 HITS - THE BEST -\100 HITS - THE BEST - SEVENTIES ALBUM\100 HITS - THE BEST - SEVENTIES ALBUM - CD05\13.Ian Dury - Reasons To Be Cheerful Part 3.wav

Peak level 94.3 %
Extraction speed 24.1 X
Track quality 100.0 %
Copy CRC A22B95C2
Accurately ripped (confidence 4) [B459B0A1] (AR v2)
Copy OK

Track 14

Filename A:\PsPBuRnOuT's MUSIC\100 HITS\- 100 HITS - THE BEST -\100 HITS - THE BEST - SEVENTIES ALBUM\100 HITS - THE BEST - SEVENTIES ALBUM - CD05\14.Average White Band - Pick Up The Pieces.wav

Peak level 82.2 %
Extraction speed 27.1 X
Track quality 100.0 %
Copy CRC 3121C626
Accurately ripped (confidence 4) [A1C5E8AF] (AR v2)
Copy OK

Track 15

Filename A:\PsPBuRnOuT's MUSIC\100 HITS\- 100 HITS - THE BEST -\100 HITS - THE BEST - SEVENTIES ALBUM\100 HITS - THE BEST - SEVENTIES ALBUM - CD05\15.Fox - S-S-S Single Bed.wav

Peak level 94.3 %
Extraction speed 20.6 X
Track quality 99.9 %
Copy CRC 2160DCA5
Accurately ripped (confidence 4) [20AD592B] (AR v2)
Copy OK

Track 16

Filename A:\PsPBuRnOuT's MUSIC\100 HITS\- 100 HITS - THE BEST -\100 HITS - THE BEST - SEVENTIES ALBUM\100 HITS - THE BEST - SEVENTIES ALBUM - CD05\16.Tina Charles - Dr Love.wav

Peak level 94.3 %
Extraction speed 17.8 X
Track quality 99.8 %
Copy CRC B6C0C664
Accurately ripped (confidence 4) [7575E3EE] (AR v2)
Copy OK

Track 17

Filename A:\PsPBuRnOuT's MUSIC\100 HITS\- 100 HITS - THE BEST -\100 HITS - THE BEST - SEVENTIES ALBUM\100 HITS - THE BEST - SEVENTIES ALBUM - CD05\17.5000 Volts - I'm On Fire.wav

Peak level 85.1 %
Extraction speed 17.6 X
Track quality 99.8 %
Copy CRC 81821A22
Accurately ripped (confidence 4) [8D53B6AC] (AR v2)
Copy OK

Track 18

Filename A:\PsPBuRnOuT's MUSIC\100 HITS\- 100 HITS - THE BEST -\100 HITS - THE BEST - SEVENTIES ALBUM\100 HITS - THE BEST - SEVENTIES ALBUM - CD05\18.Boney M. - Ma Baker.wav

Peak level 94.3 %
Extraction speed 23.6 X
Track quality 100.0 %
Copy CRC 202CB6D3
Accurately ripped (confidence 4) [C3E46876] (AR v2)
Copy OK

Track 19

Filename A:\PsPBuRnOuT's MUSIC\100 HITS\- 100 HITS - THE BEST -\100 HITS - THE BEST - SEVENTIES ALBUM\100 HITS - THE BEST - SEVENTIES ALBUM - CD05\19.First Choice - Smarty Pants.wav

Peak level 82.2 %
Extraction speed 25.2 X
Track quality 100.0 %
Copy CRC FDEE5EF7
Accurately ripped (confidence 4) [84DA003A] (AR v2)
Copy OK

Track 20

Filename A:\PsPBuRnOuT's MUSIC\100 HITS\- 100 HITS - THE BEST -\100 HITS - THE BEST - SEVENTIES ALBUM\100 HITS - THE BEST - SEVENTIES ALBUM - CD05\20.Billy Ocean - Red Light Spells Danger.wav

Peak level 94.3 %
Extraction speed 26.6 X
Track quality 100.0 %
Copy CRC 61406D4F
Accurately ripped (confidence 4) [8B893AE3] (AR v2)
Copy OK


All tracks accurately ripped

No errors occurred

End of status report

–– CUETools DB Plugin V2.1.6

[CTDB TOCID: av2hp9X_I0yzK9iWZ6xX3V.ANG8-] found
Submit result: av2hp9X_I0yzK9iWZ6xX3V.ANG8- has been confirmed
Track | CTDB Status
1 | (22/22) Accurately ripped
2 | (22/22) Accurately ripped
3 | (22/22) Accurately ripped
4 | (22/22) Accurately ripped
5 | (22/22) Accurately ripped
6 | (22/22) Accurately ripped
7 | (22/22) Accurately ripped
8 | (22/22) Accurately ripped
9 | (22/22) Accurately ripped
10 | (22/22) Accurately ripped
11 | (22/22) Accurately ripped
12 | (22/22) Accurately ripped
13 | (22/22) Accurately ripped
14 | (22/22) Accurately ripped
15 | (22/22) Accurately ripped
16 | (22/22) Accurately ripped
17 | (22/22) Accurately ripped
18 | (22/22) Accurately ripped
19 | (22/22) Accurately ripped
20 | (21/22) Accurately ripped