Tags
Language
Tags

VA - Be-Bop Masters (2005) 'Jazz & Tzaz' (Issue 142)

Posted By: Designol
VA - Be-Bop Masters (2005) 'Jazz & Tzaz' (Issue 142)

VA - Be-Bop Masters (2005)
EAC | FLAC | Tracks (Cue&Log) ~ 241 Mb | Mp3 (CBR320) ~ 160 Mb | Scans included
Bop, Swing, Big Band, Afro-Cuban Jazz | Label: Jazz & Tzaz | # 0046-2 | Time: 00:53:47

A Greek-only premium compilation, released with the music magazine 'Jazz & Tzaz' (Issue 142). Featuring Charlie Parker, Dizzy Gillespie, Dexter Gordon, Kenny Clarke, Thelonious Monk, Bud Powell, Fats Navarro and many others.

VA - Be-Bop Masters (2005) 'Jazz & Tzaz' (Issue 142)


Tracklist:

01. Kenny Clarke - 52nd Street Theme (02:48)
02. Dizzy Gillespie - BeBop (03:08)
03. Dizzy Gillespie, Charlie Parker - Hot House (03:06)
04. Billy Eckstine - Blowin' The Blues Away (03:09)
05. Dexter Gordon, Wardell Gray - The Chase (06:34)
06. Jay McShann - Swingmatism (02:38)
07. Thelonious Monk - Round Midnight (03:11)
08. Bud Powell - Dance Of The Infidels (02:52)
09. Lennie Tristano - Interlude (03:06)
10. Howard McGhee - Down Home (02:48)
11. Fats Navarro - Nostalgia (02:43)
12. Serge Chaloff - Blue Serge (03:02)
13. Al Haig - Pennies From Heaven (03:22)
14. Woody Herman - Apple Honey (03:20)
15. Metronome All Stars - Victory Ball (02:42)
16. Charlie Parker, Dizzy Gillespie - A Night in Tunisia (05:12)


Exact Audio Copy V1.0 beta 4 from 7. December 2014

EAC extraction logfile from 23. February 2016, 22:41

Various Artists / Be-Bop Masters (Jazz & Tzaz 142)

Used drive : TSSTcorpCDDVDW SH-224DB Adapter: 1 ID: 0

Read mode : Secure
Utilize accurate stream : Yes
Defeat audio cache : Yes
Make use of C2 pointers : No

Read offset correction : 6
Overread into Lead-In and Lead-Out : No
Fill up missing offset samples with silence : Yes
Delete leading and trailing silent blocks : No
Null samples used in CRC calculations : Yes
Used interface : Native Win32 interface for Win NT & 2000
Gap handling : Appended to previous track

Used output format : User Defined Encoder
Selected bitrate : 896 kBit/s
Quality : High
Add ID3 tag : No
Command line compressor : C:\Program Files\Exact Audio Copy\Flac\flac.exe
Additional command line options : -6 -V -T "ARTIST=%artist%" -T "TITLE=%title%" -T "ALBUM=%albumtitle%" -T "DATE=%year%" -T "TRACKNUMBER=%tracknr%" -T "GENRE=%genre%" -T "COMMENT=%comment%" %source% -o %dest%


TOC of the extracted CD

Track | Start | Length | Start sector | End sector
––––––––––––––––––––––––––––-
1 | 0:00.00 | 2:48.67 | 0 | 12666
2 | 2:48.67 | 3:08.48 | 12667 | 26814
3 | 5:57.40 | 3:06.17 | 26815 | 40781
4 | 9:03.57 | 3:09.13 | 40782 | 54969
5 | 12:12.70 | 6:34.12 | 54970 | 84531
6 | 18:47.07 | 2:38.45 | 84532 | 96426
7 | 21:25.52 | 3:11.58 | 96427 | 110809
8 | 24:37.35 | 2:52.12 | 110810 | 123721
9 | 27:29.47 | 3:06.30 | 123722 | 137701
10 | 30:36.02 | 2:48.58 | 137702 | 150359
11 | 33:24.60 | 2:43.67 | 150360 | 162651
12 | 36:08.52 | 3:02.38 | 162652 | 176339
13 | 39:11.15 | 3:22.12 | 176340 | 191501
14 | 42:33.27 | 3:20.00 | 191502 | 206501
15 | 45:53.27 | 2:42.18 | 206502 | 218669
16 | 48:35.45 | 5:12.00 | 218670 | 242069


Track 1

Filename C:\New Folder\01 - Kenny Clarke - 52nd Street Theme.wav

Pre-gap length 0:00:02.00

Peak level 89.0 %
Extraction speed 1.7 X
Track quality 100.0 %
Test CRC 36FD7575
Copy CRC 36FD7575
Track not present in AccurateRip database
Copy OK

Track 2

Filename C:\New Folder\02 - Dizzy Gillespie - BeBop.wav

Pre-gap length 0:00:01.42

Peak level 89.2 %
Extraction speed 1.9 X
Track quality 100.0 %
Test CRC 9AA50935
Copy CRC 9AA50935
Track not present in AccurateRip database
Copy OK

Track 3

Filename C:\New Folder\03 - Dizzy Gillespie, Charlie Parker - Hot House.wav

Pre-gap length 0:00:01.43

Peak level 97.0 %
Extraction speed 1.7 X
Track quality 99.9 %
Test CRC 67B130CA
Copy CRC 67B130CA
Track not present in AccurateRip database
Copy OK

Track 4

Filename C:\New Folder\04 - Billy Eckstine - Blowin' The Blues Away.wav

Pre-gap length 0:00:01.42

Peak level 80.6 %
Extraction speed 2.1 X
Track quality 100.0 %
Test CRC 778A7C57
Copy CRC 778A7C57
Track not present in AccurateRip database
Copy OK

Track 5

Filename C:\New Folder\05 - Dexter Gordon, Wardell Gray - The Chase.wav

Pre-gap length 0:00:01.43

Peak level 90.4 %
Extraction speed 2.5 X
Track quality 100.0 %
Test CRC 95827550
Copy CRC 95827550
Track not present in AccurateRip database
Copy OK

Track 6

Filename C:\New Folder\06 - Jay McShann - Swingmatism.wav

Pre-gap length 0:00:01.42

Peak level 89.1 %
Extraction speed 2.4 X
Track quality 100.0 %
Test CRC 2C864CB5
Copy CRC 2C864CB5
Track not present in AccurateRip database
Copy OK

Track 7

Filename C:\New Folder\07 - Thelonious Monk - Round Midnight.wav

Pre-gap length 0:00:01.42

Peak level 87.3 %
Extraction speed 2.6 X
Track quality 100.0 %
Test CRC D3F2E701
Copy CRC D3F2E701
Track not present in AccurateRip database
Copy OK

Track 8

Filename C:\New Folder\08 - Bud Powell - Dance Of The Infidels.wav

Pre-gap length 0:00:01.43

Peak level 87.3 %
Extraction speed 2.6 X
Track quality 100.0 %
Test CRC 52921773
Copy CRC 52921773
Track not present in AccurateRip database
Copy OK

Track 9

Filename C:\New Folder\09 - Lennie Tristano - Interlude.wav

Pre-gap length 0:00:01.42

Peak level 93.4 %
Extraction speed 2.7 X
Track quality 100.0 %
Test CRC 4BD43181
Copy CRC 4BD43181
Track not present in AccurateRip database
Copy OK

Track 10

Filename C:\New Folder\10 - Howard McGhee - Down Home.wav

Pre-gap length 0:00:01.42

Peak level 87.8 %
Extraction speed 2.8 X
Track quality 100.0 %
Test CRC 1AFE00F3
Copy CRC 1AFE00F3
Track not present in AccurateRip database
Copy OK

Track 11

Filename C:\New Folder\11 - Fats Navarro - Nostalgia.wav

Pre-gap length 0:00:01.43

Peak level 47.3 %
Extraction speed 2.8 X
Track quality 100.0 %
Test CRC FC08D53F
Copy CRC FC08D53F
Track not present in AccurateRip database
Copy OK

Track 12

Filename C:\New Folder\12 - Serge Chaloff - Blue Serge.wav

Pre-gap length 0:00:01.42

Peak level 100.0 %
Extraction speed 3.0 X
Track quality 100.0 %
Test CRC 4D20CE08
Copy CRC 4D20CE08
Track not present in AccurateRip database
Copy OK

Track 13

Filename C:\New Folder\13 - Al Haig - Pennies From Heaven.wav

Pre-gap length 0:00:01.43

Peak level 83.9 %
Extraction speed 2.4 X
Track quality 99.9 %
Test CRC BCF8C329
Copy CRC BCF8C329
Track not present in AccurateRip database
Copy OK

Track 14

Filename C:\New Folder\14 - Woody Herman - Apple Honey.wav

Pre-gap length 0:00:01.42

Peak level 94.4 %
Extraction speed 3.1 X
Track quality 100.0 %
Test CRC 50D4DF4A
Copy CRC 50D4DF4A
Track not present in AccurateRip database
Copy OK

Track 15

Filename C:\New Folder\15 - Metronome All Stars - Victory Ball.wav

Pre-gap length 0:00:01.42

Peak level 100.0 %
Extraction speed 3.1 X
Track quality 100.0 %
Test CRC 014FCF6A
Copy CRC 014FCF6A
Track not present in AccurateRip database
Copy OK

Track 16

Filename C:\New Folder\16 - Charlie Parker, Dizzy Gillespie - A Night in Tunisia.wav

Pre-gap length 0:00:01.43

Peak level 99.9 %
Extraction speed 3.5 X
Track quality 100.0 %
Test CRC B0874180
Copy CRC B0874180
Track not present in AccurateRip database
Copy OK


None of the tracks are present in the AccurateRip database

No errors occurred

End of status report

–– CUETools DB Plugin V2.1.4

[CTDB TOCID: h0T31ySwkj61tzE9KTpE8Qx5NLk-] found
Submit result: h0T31ySwkj61tzE9KTpE8Qx5NLk- has been confirmed
Track | CTDB Status
1 | (1/1) Accurately ripped
2 | (1/1) Accurately ripped
3 | (1/1) Accurately ripped
4 | (1/1) Accurately ripped
5 | (1/1) Accurately ripped
6 | (1/1) Accurately ripped
7 | (1/1) Accurately ripped
8 | (1/1) Accurately ripped
9 | (1/1) Accurately ripped
10 | (1/1) Accurately ripped
11 | (1/1) Accurately ripped
12 | (1/1) Accurately ripped
13 | (1/1) Accurately ripped
14 | (1/1) Accurately ripped
15 | (1/1) Accurately ripped
16 | (1/1) Accurately ripped


==== Log checksum E5AF6D1F2330BBA2E59011CD1893F04EAD605953BA523DC2EE1404507223B9F3 ====

foobar2000 1.2 / Dynamic Range Meter 1.1.1
log date: 2016-04-07 16:14:50

––––––––––––––––––––––––––––––––––––––––
Analyzed: Al Haig / Be-Bop Masters (Jazz & Tzaz 142) (1)
Billy Eckstine / Be-Bop Masters (Jazz & Tzaz 142) (2)
Bud Powell / Be-Bop Masters (Jazz & Tzaz 142) (3)
Charlie Parker, Dizzy Gillespie / Be-Bop Masters (Jazz & Tzaz 142) (4)
Dexter Gordon, Wardell Gray / Be-Bop Masters (Jazz & Tzaz 142) (5)
Dizzy Gillespie, Charlie Parker / Be-Bop Masters (Jazz & Tzaz 142) (6)
Dizzy Gillespie / Be-Bop Masters (Jazz & Tzaz 142) (7)
Fats Navarro / Be-Bop Masters (Jazz & Tzaz 142) (8)
Howard McGhee / Be-Bop Masters (Jazz & Tzaz 142) (9)
Jay McShann / Be-Bop Masters (Jazz & Tzaz 142) (10)
Kenny Clarke / Be-Bop Masters (Jazz & Tzaz 142) (11)
Lennie Tristano / Be-Bop Masters (Jazz & Tzaz 142) (12)
Metronome All Stars / Be-Bop Masters (Jazz & Tzaz 142) (13)
Serge Chaloff / Be-Bop Masters (Jazz & Tzaz 142) (14)
Thelonious Monk / Be-Bop Masters (Jazz & Tzaz 142) (15)
Woody Herman / Be-Bop Masters (Jazz & Tzaz 142) (16)
––––––––––––––––––––––––––––––––––––––––

DR Peak RMS Duration Track
––––––––––––––––––––––––––––––––––––––––
DR13 -1.52 dB -16.39 dB 3:22 13-Pennies From Heaven
DR10 -1.87 dB -15.11 dB 3:09 04-Blowin' The Blues Away
DR11 -1.18 dB -13.57 dB 2:52 08-Dance Of The Infidels
DR13 0.00 dB -15.14 dB 5:12 16-A Night in Tunisia
DR14 -0.87 dB -16.74 dB 6:34 05-The Chase
DR9 -0.26 dB -10.90 dB 3:06 03-Hot House
DR12 -0.98 dB -14.67 dB 3:09 02-BeBop
DR11 -6.50 dB -19.70 dB 2:44 11-Nostalgia
DR10 -1.13 dB -14.57 dB 2:49 10-Down Home
DR13 -1.00 dB -16.47 dB 2:39 06-Swingmatism
DR10 -1.01 dB -13.25 dB 2:49 01-52nd Street Theme
DR13 -0.59 dB -15.57 dB 3:06 09-Interlude
DR12 0.00 dB -14.17 dB 2:42 15-Victory Ball
DR14 0.00 dB -17.02 dB 3:03 12-Blue Serge
DR10 -1.18 dB -12.85 dB 3:12 07-Round Midnight
DR12 -0.49 dB -14.84 dB 3:20 14-Apple Honey
––––––––––––––––––––––––––––––––––––––––

Number of tracks: 16
Official DR value: DR12

Samplerate: 44100 Hz
Channels: 2
Bits per sample: 16
Bitrate: 638 kbps
Codec: FLAC
================================================================================

VA - Be-Bop Masters (2005) 'Jazz & Tzaz' (Issue 142)

VA - Be-Bop Masters (2005) 'Jazz & Tzaz' (Issue 142)

All thanks to original releaser - alekow

More interesting music in My Blog