Subcategories

VA - Blues Guitar Women (2005)

Posted By: popsakov
VA - Blues Guitar Women (2005)

VA - Blues Guitar Women (2005)
2CD | EAC Rip | FLAC (Img) + Cue + Log ~ 764 Mb | MP3 CBR320 ~ 281 Mb
Full Scans (JPG, 600 dpi) ~ 53 Mb | RAR 5% Recovery
Blues | Ruf Records #RUF 1110

These two discs reflect, in their way, the incredibly rich, varied lineage of women in the blues. And of course, given the title, we're not talking about singers – though many of these women do sing. With liner notes by Sue Foley, who compiled the set, this collection reaches backward and forward to mirror back to the culture the wild, wooly underside of the blues via its female six-string slingers. There are relative newcomers like Laura Chavez (who plays with Lara Price), Finland's Erja Lyytinen, and Austin's Eve Monses; seasoned veterans like Alice Stuart, Foley, Debbie Davies, Jesse Mae Hemphill, Joann Kelly, Rory Block, Bonnie Raitt with Maria Muldaur, Ellen McIlwaine, the scorching Joanna Connor, Barbara Lynn; and the legendary Memphis Minnie, Etta Baker, Algia Mae Hinton, and Precious Bryant, just to name a few. From originals to blues standards, there's something for everyone here. What's most surprising is how little known so many of these fine performers are, and the way the heritage gets passed down, guitar to guitar for over 70 years. This is one for the shelf, folks.
~ Thom Jurek, All Music

***************

VA - Blues Guitar Women (2005)

Track List CD1 - Contemporary Blues Guitar Women:

01. Lara Price Band - Can't Quit the Blues [3:57]
02. Debbie Davies - Takin' It to Vegas [3:15]
03. Alice Stuart - The Man's So Good [4:44]
04. Sue Foley - Mediterranean Breakfast [4:33]
05. Deborah Coleman - The River Wild [5:37]
06. Joanna Connor - Living on the Road [4:15]
07. Ana Popovic - Navajo Moon [4:49]
08. Carolyn Wonderland - Judgement Day Blues [4:26]
09. Eve Monsees - Lonely Lonely Nights [3:58]
10. Maria Muldaur - It's a Blessing [3:50]
11. Erja Lyytinen - Dreamland Blues [4:14]
12. Barbara Lynn - Lynn's Blues [5:05]
13. Tracy Conover - Goin' Down [7:32]
14. Beverly 'Guitar' Watkins - Baghdad Blues [3:21]
15. Ruthie Foster - Woke Up This Mornin' [3:52]

Exact Audio Copy V1.3 from 2. September 2016

Отчёт EAC об извлечении, выполненном 16. декабря 2017, 20:39

Various Artists / Blues Guitar Women

Дисковод: HL-DT-STDVDRAM GSA-4167B Adapter: 1 ID: 0

Режим чтения : Достоверность
Использование точного потока : Да
Отключение кэша аудио : Да
Использование указателей C2 : Нет

Коррекция смещения при чтении : 667
Способность читать области Lead-in и Lead-out : Нет
Заполнение пропущенных сэмплов тишиной : Да
Удаление блоков с тишиной в начале и конце : Нет
При вычислениях CRC использовались нулевые сэмплы : Да
Интерфейс : Встроенный Win32-интерфейс для Win NT/2000

Выходной формат : Пользовательский кодировщик
Выбранный битрейт : 128 kBit/s
Качество : Высокий
Добавление ID3-тега : Нет
Утилита сжатия : C:\Program Files\Exact Audio Copy\Flac\flac.exe
Дополнительные параметры : -V -8 -T "Date=%year%" -T "Genre=%genre%" %source%


TOC извлечённого CD

Трек | Старт | Длительность | Начальный сектор | Конечный сектор
––––––––––––––––––––––––––––––––––-
1 | 0:00.00 | 3:56.47 | 0 | 17746
2 | 3:56.47 | 3:15.17 | 17747 | 32388
3 | 7:11.64 | 4:44.31 | 32389 | 53719
4 | 11:56.20 | 4:32.62 | 53720 | 74181
5 | 16:29.07 | 5:36.44 | 74182 | 99425
6 | 22:05.51 | 4:15.08 | 99426 | 118558
7 | 26:20.59 | 4:48.51 | 118559 | 140209
8 | 31:09.35 | 4:26.27 | 140210 | 160186
9 | 35:35.62 | 3:57.69 | 160187 | 178030
10 | 39:33.56 | 3:50.14 | 178031 | 195294
11 | 43:23.70 | 4:14.18 | 195295 | 214362
12 | 47:38.13 | 5:04.62 | 214363 | 237224
13 | 52:43.00 | 7:32.25 | 237225 | 271149
14 | 60:15.25 | 3:20.47 | 271150 | 286196
15 | 63:35.72 | 3:51.58 | 286197 | 303579


Характеристики диапазона извлечения и сообщения об ошибках

Выбранный диапазон

Имя файла C:\Users\khokh\Desktop\Various Artists - Blues Guitar Women.wav

Пиковый уровень 99.1 %
Скорость извлечения 7.2 X
Качество диапазона 99.9 %
CRC теста 246B78A9
CRC копии 246B78A9
Копирование… OK

Ошибок не произошло


AccurateRip: сводка

Трек 1 : извлечено точно (доверие 4) [470B556F] (AR v2)
Трек 2 : извлечено точно (доверие 4) [611E417A] (AR v2)
Трек 3 : извлечено точно (доверие 4) [AE215BBF] (AR v2)
Трек 4 : извлечено точно (доверие 4) [5425187B] (AR v2)
Трек 5 : извлечено точно (доверие 4) [539591F3] (AR v2)
Трек 6 : извлечено точно (доверие 4) [4A22EAFB] (AR v2)
Трек 7 : извлечено точно (доверие 4) [05E7DF9F] (AR v2)
Трек 8 : извлечено точно (доверие 4) [8BB5C84A] (AR v2)
Трек 9 : извлечено точно (доверие 4) [910392D0] (AR v2)
Трек 10 : извлечено точно (доверие 4) [10B8EC46] (AR v2)
Трек 11 : извлечено точно (доверие 4) [6CAD0A9E] (AR v2)
Трек 12 : извлечено точно (доверие 4) [B8814824] (AR v2)
Трек 13 : извлечено точно (доверие 4) [C93DEC54] (AR v2)
Трек 14 : извлечено точно (доверие 4) [E4F42BEE] (AR v2)
Трек 15 : извлечено точно (доверие 4) [55ED9F67] (AR v2)

Все треки извлечены точно

Конец отчёта

–– CUETools DB Plugin V2.1.6

[CTDB TOCID: T7WqfGBlVxHRoy036sxAV6O.oL0-] found
Submit result: T7WqfGBlVxHRoy036sxAV6O.oL0- has been confirmed
Track | CTDB Status
1 | (29/29) Accurately ripped
2 | (29/29) Accurately ripped
3 | (29/29) Accurately ripped
4 | (29/29) Accurately ripped
5 | (29/29) Accurately ripped
6 | (29/29) Accurately ripped
7 | (29/29) Accurately ripped
8 | (29/29) Accurately ripped
9 | (29/29) Accurately ripped
10 | (29/29) Accurately ripped
11 | (28/29) Accurately ripped
12 | (28/29) Accurately ripped
13 | (28/29) Accurately ripped
14 | (28/29) Accurately ripped
15 | (28/29) Accurately ripped


==== Контрольная сумма отчёта 07DF10BBC103F556A1F183E73DF7F0C8D17A24B2ADE19896B66919D6DD46021D ====

VA - Blues Guitar Women (2005)

Track List CD2 - Traditional Blues Guitar Women:

01. Precious Bryant - Fool Me Good [3:33]
02. Algia Mae Hinton - Going Down This Road [2:16]
03. Sue Foley - Doggie Treats [6:17]
04. Rory Block - Fixin' to Die [2:30]
05. Ellen McIlwaine - Dead End Street [4:35]
06. Alice Stuart - Rather Be the Devil [4:18]
07. Jessie Mae Hemphill - Streamline Train [5:34]
08. Gaye Adegbalola feat. Rory Block - Nothing's Changed [3:34]
09. Etta Baker - One Dime Blues [1:37]
10. Jo Ann Kelly - Ain't Nothing in Ramblin' [2:57]
11. Mattie Delaney - Down the Big Road Blues [3:13]
12. Elvie Thomas - Motherless Child Blues [3:23]
13. Geeshie Wiley - Skinny Leg Blues [3:13]
14. Memphis Minnie - In My Girlish Days [2:33]

Exact Audio Copy V1.3 from 2. September 2016

Отчёт EAC об извлечении, выполненном 16. декабря 2017, 21:09

Various Artists / Blues Guitar Women

Дисковод: HL-DT-STDVDRAM GSA-4167B Adapter: 1 ID: 0

Режим чтения : Достоверность
Использование точного потока : Да
Отключение кэша аудио : Да
Использование указателей C2 : Нет

Коррекция смещения при чтении : 667
Способность читать области Lead-in и Lead-out : Нет
Заполнение пропущенных сэмплов тишиной : Да
Удаление блоков с тишиной в начале и конце : Нет
При вычислениях CRC использовались нулевые сэмплы : Да
Интерфейс : Встроенный Win32-интерфейс для Win NT/2000

Выходной формат : Пользовательский кодировщик
Выбранный битрейт : 128 kBit/s
Качество : Высокий
Добавление ID3-тега : Нет
Утилита сжатия : C:\Program Files\Exact Audio Copy\Flac\flac.exe
Дополнительные параметры : -V -8 -T "Date=%year%" -T "Genre=%genre%" %source%


TOC извлечённого CD

Трек | Старт | Длительность | Начальный сектор | Конечный сектор
––––––––––––––––––––––––––––––––––-
1 | 0:00.00 | 3:32.48 | 0 | 15947
2 | 3:32.48 | 2:15.39 | 15948 | 26111
3 | 5:48.12 | 6:17.05 | 26112 | 54391
4 | 12:05.17 | 2:29.39 | 54392 | 65605
5 | 14:34.56 | 4:35.11 | 65606 | 86241
6 | 19:09.67 | 4:18.27 | 86242 | 105618
7 | 23:28.19 | 5:34.16 | 105619 | 130684
8 | 29:02.35 | 3:33.52 | 130685 | 146711
9 | 32:36.12 | 1:36.66 | 146712 | 153977
10 | 34:13.03 | 2:56.57 | 153978 | 167234
11 | 37:09.60 | 3:13.10 | 167235 | 181719
12 | 40:22.70 | 3:23.14 | 181720 | 196958
13 | 43:46.09 | 3:12.63 | 196959 | 211421
14 | 46:58.72 | 2:32.63 | 211422 | 222884


Характеристики диапазона извлечения и сообщения об ошибках

Выбранный диапазон

Имя файла C:\Users\khokh\Desktop\Various Artists - Blues Guitar Women.wav

Пиковый уровень 99.1 %
Скорость извлечения 4.3 X
Качество диапазона 100.0 %
CRC теста 659B3EE7
CRC копии 659B3EE7
Копирование… OK

Ошибок не произошло


AccurateRip: сводка

Трек 1 : извлечено точно (доверие 4) [27BA0FBA] (AR v2)
Трек 2 : извлечено точно (доверие 4) [3EA57AB3] (AR v2)
Трек 3 : извлечено точно (доверие 4) [2452A8A7] (AR v2)
Трек 4 : извлечено точно (доверие 4) [9FAA81C3] (AR v2)
Трек 5 : извлечено точно (доверие 4) [A2E60BB0] (AR v2)
Трек 6 : извлечено точно (доверие 4) [A282A570] (AR v2)
Трек 7 : извлечено точно (доверие 4) [B9EE65D8] (AR v2)
Трек 8 : извлечено точно (доверие 4) [AAED0AD4] (AR v2)
Трек 9 : извлечено точно (доверие 4) [1C41FF77] (AR v2)
Трек 10 : извлечено точно (доверие 4) [628392BC] (AR v2)
Трек 11 : извлечено точно (доверие 4) [A2196237] (AR v2)
Трек 12 : извлечено точно (доверие 4) [9ADEFFDF] (AR v2)
Трек 13 : извлечено точно (доверие 4) [177C22E2] (AR v2)
Трек 14 : извлечено точно (доверие 4) [E0041952] (AR v2)

Все треки извлечены точно

Конец отчёта

–– CUETools DB Plugin V2.1.6

[CTDB TOCID: yzbEcsRqtkc1OG.8kOpVE50lvUU-] found
Submit result: yzbEcsRqtkc1OG.8kOpVE50lvUU- has been confirmed
Track | CTDB Status
1 | (29/29) Accurately ripped
2 | (29/29) Accurately ripped
3 | (29/29) Accurately ripped
4 | (24/29) Accurately ripped
5 | (29/29) Accurately ripped
6 | (29/29) Accurately ripped
7 | (29/29) Accurately ripped
8 | (28/29) Accurately ripped
9 | (28/29) Accurately ripped
10 | (27/29) Accurately ripped
11 | (27/29) Accurately ripped
12 | (27/29) Accurately ripped
13 | (27/29) Accurately ripped
14 | (27/29) Accurately ripped


==== Контрольная сумма отчёта 8922FD55F0FB0C7CCB78C0EC04760CFC194BF26836003E2AEA9551697F5E37CE ====

VA - Blues Guitar Women (2005)

All thanks go to xoxol

>>> My Blog <<<

Download from icerbox.com: