Subcategories

VA - Dave Godins Deep Soul Treasures Volume 5 (2019)

Posted By: ciklon5
VA - Dave Godins Deep Soul Treasures Volume 5 (2019)

VA - Dave Godins Deep Soul Treasures Volume 5 (2019)
FLAC (tracks+.cue, artwork) | 01:15:56 | 350 Mb
Genre: Soul, Funk / Label: Kent

15 years on from both Dave Godin's passing and his fourth volume of Deep Soul Treasures, Kent has compiled a further 25 tracks using titles chosen by Dave for future projects in the series. Many are recordings he wanted from day one of the Treasures concept, but licensing quirks made them unavailable until now. The Emotions' Somebody New, Helena Ferguson's Where Is The Party, George Jackson's My Desires Are Getting The Best Of Me and others are tracks he had wanted to include from the outset.

Track List:
01 Who Knows - The Soul City
02 Without Love - Ronnie Taylor
03 Don't Pass Me By - Big Maybelle
04 Where Is The Party - Helena Ferguson
05 Dead! - Carolyn Sullivan
06 Home Is Where The Hatred Is - Esther Phillips
07 I Ain't Got To Love Nobody Else - The Masqueraders
08 I'll Be Right There (To Make Love To You) - Mark IV
09 I'm Not The One - Kenny Carter
10 Somebody New - The Emotions
11 (Until Then) I'll Suffer - Barbara Lynn
12 Foolish Fool - Dee Dee Warwick
13 My Desires Are Getting The Best Of Me - George Jackson
14 These Ain't Raindrops - James Carr
15 Standing At The Crossroads - Eddie & Ernie
16 Can't Last Much Longer - Betty Harris
17 Lovers Always Forgive - Gladys Knight & The Pips
18 Every Night (I Pray) - The Chantels
19 Satisfaction Guaranteed - Judy White
20 Right Here Is Where You Belong - Jerry Washington
21 I Will - Lattimore Brown
22 It's Too Late (For Tears) - René Bailey
23 All I Want Is You - Zilla Mayes
24 What Can I Do (Without You) - Linda Jones
25 Nothing Can Change The Love I Have For You - Z.Z. Hill

Exact Audio Copy V1.3 from 2. September 2016

EAC extraction logfile from 9. November 2019, 8:54

Various Artists / Dave Godin's Deep Soul Treasures Volume 5

Used drive : PIONEER DVR-113NP Adapter: 1 ID: 0

Read mode : Secure
Utilize accurate stream : Yes
Defeat audio cache : Yes
Make use of C2 pointers : No

Read offset correction : 6
Overread into Lead-In and Lead-Out : No
Fill up missing offset samples with silence : Yes
Delete leading and trailing silent blocks : No
Null samples used in CRC calculations : Yes
Used interface : Native Win32 interface for Win NT & 2000
Gap handling : Appended to previous track

Used output format : User Defined Encoder
Selected bitrate : 1024 kBit/s
Quality : High
Add ID3 tag : No
Command line compressor : C:\Program Files (x86)\Exact Audio Copy\Flac\flac.exe
Additional command line options : -8 -V -T "ARTIST=%artist%" -T "TITLE=%title%" -T "ALBUM=%albumtitle%" -T "DATE=%year%" -T "TRACKNUMBER=%tracknr%" -T "GENRE=%genre%" -T "PERFORMER=%albuminterpret%" -T "COMPOSER=%composer%" %haslyrics%–tag-from-file=LYRICS="%lyricsfile%"%haslyrics% -T "ALBUMARTIST=%albumartist%" -T "DISCNUMBER=%cdnumber%" -T "TOTALDISCS=%totalcds%" -T "TOTALTRACKS=%numtracks%" -T "COMMENT=%comment%" %source% -o %dest%


TOC of the extracted CD

Track | Start | Length | Start sector | End sector
––––––––––––––––––––––––––––-
1 | 0:00.00 | 2:43.15 | 0 | 12239
2 | 2:43.15 | 2:57.30 | 12240 | 25544
3 | 5:40.45 | 3:10.16 | 25545 | 39810
4 | 8:50.61 | 2:51.55 | 39811 | 52690
5 | 11:42.41 | 2:53.71 | 52691 | 65736
6 | 14:36.37 | 3:25.19 | 65737 | 81130
7 | 18:01.56 | 2:55.33 | 81131 | 94288
8 | 20:57.14 | 3:40.36 | 94289 | 110824
9 | 24:37.50 | 4:00.47 | 110825 | 128871
10 | 28:38.22 | 2:41.57 | 128872 | 141003
11 | 31:20.04 | 2:54.45 | 141004 | 154098
12 | 34:14.49 | 3:27.00 | 154099 | 169623
13 | 37:41.49 | 3:08.28 | 169624 | 183751
14 | 40:50.02 | 2:34.05 | 183752 | 195306
15 | 43:24.07 | 3:01.15 | 195307 | 208896
16 | 46:25.22 | 2:51.55 | 208897 | 221776
17 | 49:17.02 | 2:35.49 | 221777 | 233450
18 | 51:52.51 | 2:03.66 | 233451 | 242741
19 | 53:56.42 | 3:29.52 | 242742 | 258468
20 | 57:26.19 | 4:15.32 | 258469 | 277625
21 | 61:41.51 | 3:02.60 | 277626 | 291335
22 | 64:44.36 | 2:53.50 | 291336 | 304360
23 | 67:38.11 | 2:10.62 | 304361 | 314172
24 | 69:48.73 | 3:04.38 | 314173 | 328010
25 | 72:53.36 | 3:15.36 | 328011 | 342671


Track 1

Filename C:\Users\jbrav\Music\VA - Dave Godin's Deep Soul Treasures Volume 5 (2019) [FLAC] {CDKEND 485}\01 - The Soul City - Who Knows.wav

Pre-gap length 0:00:02.00

Peak level 94.4 %
Extraction speed 4.4 X
Track quality 100.0 %
Test CRC 17524D2F
Copy CRC 17524D2F
Track not present in AccurateRip database
Copy OK

Track 2

Filename C:\Users\jbrav\Music\VA - Dave Godin's Deep Soul Treasures Volume 5 (2019) [FLAC] {CDKEND 485}\02 - Ronnie Taylor - Without Love.wav

Pre-gap length 0:00:01.81

Peak level 96.6 %
Extraction speed 4.8 X
Track quality 100.0 %
Test CRC 5C10448E
Copy CRC 5C10448E
Track not present in AccurateRip database
Copy OK

Track 3

Filename C:\Users\jbrav\Music\VA - Dave Godin's Deep Soul Treasures Volume 5 (2019) [FLAC] {CDKEND 485}\03 - Big Maybelle - Don't Pass Me By.wav

Pre-gap length 0:00:00.98

Peak level 92.1 %
Extraction speed 3.6 X
Track quality 99.9 %
Test CRC 9F695E96
Copy CRC 9F695E96
Track not present in AccurateRip database
Copy OK

Track 4

Filename C:\Users\jbrav\Music\VA - Dave Godin's Deep Soul Treasures Volume 5 (2019) [FLAC] {CDKEND 485}\04 - Helena Ferguson - Where Is The Party.wav

Pre-gap length 0:00:01.76

Peak level 94.4 %
Extraction speed 4.4 X
Track quality 100.0 %
Test CRC 6512AB35
Copy CRC 6512AB35
Track not present in AccurateRip database
Copy OK

Track 5

Filename C:\Users\jbrav\Music\VA - Dave Godin's Deep Soul Treasures Volume 5 (2019) [FLAC] {CDKEND 485}\05 - Carolyn Sullivan - Dead!.wav

Pre-gap length 0:00:02.24

Peak level 96.6 %
Extraction speed 3.9 X
Track quality 99.9 %
Test CRC A5FC5148
Copy CRC A5FC5148
Track not present in AccurateRip database
Copy OK

Track 6

Filename C:\Users\jbrav\Music\VA - Dave Godin's Deep Soul Treasures Volume 5 (2019) [FLAC] {CDKEND 485}\06 - Esther Phillips - Home Is Where The Hatred Is.wav

Pre-gap length 0:00:01.88

Peak level 94.4 %
Extraction speed 6.1 X
Track quality 100.0 %
Test CRC 7BB0F7FA
Copy CRC 7BB0F7FA
Track not present in AccurateRip database
Copy OK

Track 7

Filename C:\Users\jbrav\Music\VA - Dave Godin's Deep Soul Treasures Volume 5 (2019) [FLAC] {CDKEND 485}\07 - The Masqueraders - I Ain't Got To Love Nobody Else.wav

Pre-gap length 0:00:02.46

Peak level 94.4 %
Extraction speed 6.1 X
Track quality 100.0 %
Test CRC B100B8EE
Copy CRC B100B8EE
Track not present in AccurateRip database
Copy OK

Track 8

Filename C:\Users\jbrav\Music\VA - Dave Godin's Deep Soul Treasures Volume 5 (2019) [FLAC] {CDKEND 485}\08 - Mark IV - I'll Be Right There (To Make Love To You).wav

Pre-gap length 0:00:02.74

Peak level 94.4 %
Extraction speed 6.6 X
Track quality 100.0 %
Test CRC D203516D
Copy CRC D203516D
Track not present in AccurateRip database
Copy OK

Track 9

Filename C:\Users\jbrav\Music\VA - Dave Godin's Deep Soul Treasures Volume 5 (2019) [FLAC] {CDKEND 485}\09 - Kenny Carter - I'm Not The One.wav

Pre-gap length 0:00:01.82

Peak level 94.4 %
Extraction speed 7.0 X
Track quality 100.0 %
Test CRC FE6BF8ED
Copy CRC FE6BF8ED
Track not present in AccurateRip database
Copy OK

Track 10

Filename C:\Users\jbrav\Music\VA - Dave Godin's Deep Soul Treasures Volume 5 (2019) [FLAC] {CDKEND 485}\10 - The Emotions - Somebody New.wav

Pre-gap length 0:00:02.84

Peak level 94.4 %
Extraction speed 6.8 X
Track quality 100.0 %
Test CRC A6F500E7
Copy CRC A6F500E7
Track not present in AccurateRip database
Copy OK

Track 11

Filename C:\Users\jbrav\Music\VA - Dave Godin's Deep Soul Treasures Volume 5 (2019) [FLAC] {CDKEND 485}\11 - Barbara Lynn - (Until Then) I'll Suffer.wav

Pre-gap length 0:00:01.78

Peak level 96.6 %
Extraction speed 4.8 X
Track quality 99.9 %
Test CRC 9CEC7DEA
Copy CRC 9CEC7DEA
Track not present in AccurateRip database
Copy OK

Track 12

Filename C:\Users\jbrav\Music\VA - Dave Godin's Deep Soul Treasures Volume 5 (2019) [FLAC] {CDKEND 485}\12 - Dee Dee Warwick - Foolish Fool.wav

Pre-gap length 0:00:01.80

Peak level 94.4 %
Extraction speed 6.0 X
Track quality 100.0 %
Test CRC 87AA742C
Copy CRC 87AA742C
Track not present in AccurateRip database
Copy OK

Track 13

Filename C:\Users\jbrav\Music\VA - Dave Godin's Deep Soul Treasures Volume 5 (2019) [FLAC] {CDKEND 485}\13 - George Jackson - My Desires Are Getting The Best Of Me.wav

Pre-gap length 0:00:02.12

Peak level 96.6 %
Extraction speed 7.5 X
Track quality 100.0 %
Test CRC 95FEA5E6
Copy CRC 95FEA5E6
Track not present in AccurateRip database
Copy OK

Track 14

Filename C:\Users\jbrav\Music\VA - Dave Godin's Deep Soul Treasures Volume 5 (2019) [FLAC] {CDKEND 485}\14 - James Carr - These Ain't Raindrops.wav

Pre-gap length 0:00:01.92

Peak level 90.7 %
Extraction speed 7.3 X
Track quality 100.0 %
Test CRC A3C37180
Copy CRC A3C37180
Track not present in AccurateRip database
Copy OK

Track 15

Filename C:\Users\jbrav\Music\VA - Dave Godin's Deep Soul Treasures Volume 5 (2019) [FLAC] {CDKEND 485}\15 - Eddie & Ernie - Standing At The Crossroads.wav

Pre-gap length 0:00:02.08

Peak level 96.6 %
Extraction speed 7.6 X
Track quality 100.0 %
Test CRC F66C0D25
Copy CRC F66C0D25
Track not present in AccurateRip database
Copy OK

Track 16

Filename C:\Users\jbrav\Music\VA - Dave Godin's Deep Soul Treasures Volume 5 (2019) [FLAC] {CDKEND 485}\16 - Betty Harris - Can't Last Much Longer.wav

Pre-gap length 0:00:02.58

Peak level 96.6 %
Extraction speed 7.9 X
Track quality 100.0 %
Test CRC D31B45C9
Copy CRC D31B45C9
Track not present in AccurateRip database
Copy OK

Track 17

Filename C:\Users\jbrav\Music\VA - Dave Godin's Deep Soul Treasures Volume 5 (2019) [FLAC] {CDKEND 485}\17 - Gladys Knight & The Pips - Lovers Always Forgive.wav

Pre-gap length 0:00:01.80

Peak level 96.6 %
Extraction speed 7.1 X
Track quality 100.0 %
Test CRC 5AC54526
Copy CRC 5AC54526
Track not present in AccurateRip database
Copy OK

Track 18

Filename C:\Users\jbrav\Music\VA - Dave Godin's Deep Soul Treasures Volume 5 (2019) [FLAC] {CDKEND 485}\18 - The Chantels - Every Night (I Pray).wav

Pre-gap length 0:00:02.40

Peak level 94.4 %
Extraction speed 7.3 X
Track quality 100.0 %
Test CRC 8F2B73A7
Copy CRC 8F2B73A7
Track not present in AccurateRip database
Copy OK

Track 19

Filename C:\Users\jbrav\Music\VA - Dave Godin's Deep Soul Treasures Volume 5 (2019) [FLAC] {CDKEND 485}\19 - Judy White - Satisfaction Guaranteed.wav

Pre-gap length 0:00:01.90

Peak level 96.6 %
Extraction speed 8.5 X
Track quality 100.0 %
Test CRC 776EBF06
Copy CRC 776EBF06
Track not present in AccurateRip database
Copy OK

Track 20

Filename C:\Users\jbrav\Music\VA - Dave Godin's Deep Soul Treasures Volume 5 (2019) [FLAC] {CDKEND 485}\20 - Jerry Washington - Right Here Is Where You Belong.wav

Pre-gap length 0:00:02.60

Peak level 99.1 %
Extraction speed 6.1 X
Track quality 100.0 %
Test CRC 45D02536
Copy CRC 45D02536
Track not present in AccurateRip database
Copy OK

Track 21

Filename C:\Users\jbrav\Music\VA - Dave Godin's Deep Soul Treasures Volume 5 (2019) [FLAC] {CDKEND 485}\21 - Lattimore Brown - I Will.wav

Pre-gap length 0:00:02.30

Peak level 96.6 %
Extraction speed 6.3 X
Track quality 100.0 %
Test CRC BD9DABCC
Copy CRC BD9DABCC
Track not present in AccurateRip database
Copy OK

Track 22

Filename C:\Users\jbrav\Music\VA - Dave Godin's Deep Soul Treasures Volume 5 (2019) [FLAC] {CDKEND 485}\22 - Rene Bailey - It's Too Late (For Tears).wav

Pre-gap length 0:00:01.89

Peak level 81.2 %
Extraction speed 7.1 X
Track quality 100.0 %
Test CRC 3C5DD337
Copy CRC 3C5DD337
Track not present in AccurateRip database
Copy OK

Track 23

Filename C:\Users\jbrav\Music\VA - Dave Godin's Deep Soul Treasures Volume 5 (2019) [FLAC] {CDKEND 485}\23 - Zilla Mayes - All I Want Is You.wav

Pre-gap length 0:00:02.61

Peak level 92.3 %
Extraction speed 4.1 X
Track quality 99.9 %
Test CRC B450D081
Copy CRC B450D081
Track not present in AccurateRip database
Copy OK

Track 24

Filename C:\Users\jbrav\Music\VA - Dave Godin's Deep Soul Treasures Volume 5 (2019) [FLAC] {CDKEND 485}\24 - Linda Jones - What Can I Do (Without You).wav

Pre-gap length 0:00:02.12

Peak level 96.6 %
Extraction speed 7.4 X
Track quality 100.0 %
Test CRC A52655D4
Copy CRC A52655D4
Track not present in AccurateRip database
Copy OK

Track 25

Filename C:\Users\jbrav\Music\VA - Dave Godin's Deep Soul Treasures Volume 5 (2019) [FLAC] {CDKEND 485}\25 - Z.Z. Hill - Nothing Can Change The Love I Have For You.wav

Pre-gap length 0:00:02.44

Peak level 96.2 %
Extraction speed 5.3 X
Track quality 100.0 %
Test CRC 3FC203BA
Copy CRC 3FC203BA
Track not present in AccurateRip database
Copy OK


None of the tracks are present in the AccurateRip database

No errors occurred

End of status report

–– CUETools DB Plugin V2.1.6

[CTDB TOCID: NlskO7F9ZztDClMsm6IWE9vMstk-] found
Submit result: NlskO7F9ZztDClMsm6IWE9vMstk- has been confirmed
Track | CTDB Status
1 | (1/1) Accurately ripped
2 | (1/1) Accurately ripped
3 | (1/1) Accurately ripped
4 | (1/1) Accurately ripped
5 | (1/1) Accurately ripped
6 | (1/1) Accurately ripped
7 | (1/1) Accurately ripped
8 | (1/1) Accurately ripped
9 | (1/1) Accurately ripped
10 | (1/1) Accurately ripped
11 | (1/1) Accurately ripped
12 | (1/1) Accurately ripped
13 | (1/1) Accurately ripped
14 | (1/1) Accurately ripped
15 | (1/1) Accurately ripped
16 | (1/1) Accurately ripped
17 | (1/1) Accurately ripped
18 | (1/1) Accurately ripped
19 | (1/1) Accurately ripped
20 | (1/1) Accurately ripped
21 | (1/1) Accurately ripped
22 | (1/1) Accurately ripped
23 | (1/1) Accurately ripped
24 | (1/1) Accurately ripped
25 | (1/1) Accurately ripped


==== Log checksum 614419F8439260A309A18077E103EC0AAC31B1447BB72447A0A5E01CC3F94192 ====