V.A. - Mojo Presents: Return To The Dark Side Of The Moon / Wish You Were Here Again (2011)

Posted By: Andi_Deris
V.A. - Mojo Presents: Return To The Dark Side Of The Moon / Wish You Were Here Again (2011)

V.A. - Mojo Presents: Return To The Dark Side Of The Moon / Wish You Were Here Again (2011)
EAC Rip | FLAC: Tracks+Cue+Log | 421 Mb | MP3 CBR 320 kbps | 168 Mb | Scans | Time: 01:07:24
Genre: Electronic, Leftfield, Alternative Rock, Tribute | Label: Mojo Magazine | Cat.: 0946 3 52586 2 2

RETURN TO THE DARK SIDE OF THE MOON + WISH YOU WERE HERE AGAIN: Two classic Pink Floyd albums re-imagined by some of MOJO's favourite contemporary artists. Featuring Doug Paisley, Wolf People, Of Arrowe Hill, Lia Ices, Gallops, Matt Berry, Neville Skelly and more! Not to be confused with a 2006 retail release of the same name, MOJO Magazine's October, 2011 free CD is an exclusive gathering of not-so-well-known artists commissioned to re-imagine an etched-in-stone classic, Pink Floyd's Dark Side Of The Moon.

V.A. - Mojo Presents: Return To The Dark Side Of The Moon / Wish You Were Here Again (2011)




Track Listing

01. Gallops - Speak To Me (1:00)
02. Our Broken Garden - Breathe (3:36)
03. The Oscillation - On The Run (4:44)
04. Wolf People - Time (4:33)
05. The Last Hurrah!! - The Great Gig In The Sky (4:38)
06. The Pineapple Thief - Money (6:36)
07. Doug Paisley featuring Garth and Maud Hudson - Us And Them (7:37)
08. Matt Berry - Any Colour You Like (3:23)
09. Neville Skelly - Brain Damage (3:13)
10. of Arrowe Hill - Eclipse (2:02)
11. Malachai - Shine On You Crazy Diamond (Part One) (3:47)
12. Beak> - Welcome To The Machine (5:53)
13. John Foxx And The Maths - Have A Cigar (3:53)
14. Lia Ices - Wish You Were Here (4:27)
15. The Orb - Shine On You Crazy Diamond (Part Two) (8:01)

Notes

On front: Return To The Dark Side Of The Moon: Mojo Proudly Presents Pink Floyd's Classic 1973 Album Re-Imagined.
On back: Wish You Were Here Again: Mojo Proudly Presents Pink Floyd's Classic 1975 Album Re-Booted.

Title on left spine: Mojo Presents Return To The Dark Side Of The Moon.
Title on right spine: Mojo Presents Wish You Were Here Again.

Following an unfortunate production error, John Foxx & The Maths' version of Have A Cigar on the CD is not the finished version of the track.
The correct and completed track was available for download for free from the MOJO Website.

Exact Audio Copy V1.0 beta 1 from 15. November 2010

EAC extraction logfile from 14. September 2011, 14:45

Various / Return to the Dark Side of the Moon

Used drive : PIONEER BD-RW BDR-205 Adapter: 1 ID: 0

Read mode : Secure
Utilize accurate stream : Yes
Defeat audio cache : Yes
Make use of C2 pointers : No

Read offset correction : 667
Overread into Lead-In and Lead-Out : No
Fill up missing offset samples with silence : Yes
Delete leading and trailing silent blocks : No
Null samples used in CRC calculations : Yes
Used interface : Installed external ASPI interface
Gap handling : Appended to previous track

Used output format : User Defined Encoder
Selected bitrate : 896 kBit/s
Quality : High
Add ID3 tag : No
Command line compressor : C:\Exact Audio Copy\Flac\flac.exe
Additional command line options : -V -8 -T "artist=%a" -T "title=%t" -T "album=%g" -T "date=%y" -T "tracknumber=%n" -T "genre=%m" %s


TOC of the extracted CD

Track | Start | Length | Start sector | End sector
––––––––––––––––––––––––––––-
1 | 0:00.00 | 1:00.12 | 0 | 4511
2 | 1:00.12 | 3:35.41 | 4512 | 20677
3 | 4:35.53 | 4:44.30 | 20678 | 42007
4 | 9:20.08 | 4:32.41 | 42008 | 62448
5 | 13:52.49 | 4:38.14 | 62449 | 83312
6 | 18:30.63 | 6:35.41 | 83313 | 112978
7 | 25:06.29 | 7:36.70 | 112979 | 147248
8 | 32:43.24 | 3:23.12 | 147249 | 162485
9 | 36:06.36 | 3:12.51 | 162486 | 176936
10 | 39:19.12 | 2:02.10 | 176937 | 186096
11 | 41:21.22 | 3:47.31 | 186097 | 203152
12 | 45:08.53 | 5:52.67 | 203153 | 229619
13 | 51:01.45 | 3:52.49 | 229620 | 247068
14 | 54:54.19 | 4:27.04 | 247069 | 267097
15 | 59:21.23 | 8:01.16 | 267098 | 303188


Track 1

Filename C:\Rips\01 - Gallops - Speak To Me.wav

Pre-gap length 0:00:02.00

Peak level 100.0 %
Extraction speed 3.3 X
Track quality 100.0 %
Test CRC 2C52F214
Copy CRC 2C52F214
Track not present in AccurateRip database
Copy OK

Track 2

Filename C:\Rips\02 - Our Broken Garden - Breathe.wav

Peak level 100.0 %
Extraction speed 4.9 X
Track quality 100.0 %
Test CRC 5CB68737
Copy CRC 5CB68737
Track not present in AccurateRip database
Copy OK

Track 3

Filename C:\Rips\03 - The Oscillation - On The Run.wav

Peak level 100.0 %
Extraction speed 5.5 X
Track quality 100.0 %
Test CRC 1EDD20B7
Copy CRC 1EDD20B7
Track not present in AccurateRip database
Copy OK

Track 4

Filename C:\Rips\04 - Wolf People - Time.wav

Peak level 100.0 %
Extraction speed 5.9 X
Track quality 100.0 %
Test CRC 865CDC1B
Copy CRC 865CDC1B
Track not present in AccurateRip database
Copy OK

Track 5

Filename C:\Rips\05 - The Last Hurrah!! - The Great Gig In The Sky.wav

Peak level 100.0 %
Extraction speed 6.3 X
Track quality 100.0 %
Test CRC 67A8EA65
Copy CRC 67A8EA65
Track not present in AccurateRip database
Copy OK

Track 6

Filename C:\Rips\06 - The Pineapple Thief - Money.wav

Peak level 84.6 %
Extraction speed 7.0 X
Track quality 100.0 %
Test CRC 8DE90754
Copy CRC 8DE90754
Track not present in AccurateRip database
Copy OK

Track 7

Filename C:\Rips\07 - Doug Paisley featuring Garth & Maud Hudson - Us And Them.wav

Peak level 100.0 %
Extraction speed 7.1 X
Track quality 99.9 %
Test CRC C141C339
Copy CRC C141C339
Track not present in AccurateRip database
Copy OK

Track 8

Filename C:\Rips\08 - Matt Berry - Any Colour You Like.wav

Peak level 100.0 %
Extraction speed 7.2 X
Track quality 100.0 %
Test CRC 50E59B80
Copy CRC 50E59B80
Track not present in AccurateRip database
Copy OK

Track 9

Filename C:\Rips\09 - Neville Skelly - Brain Damage.wav

Peak level 85.1 %
Extraction speed 7.3 X
Track quality 100.0 %
Test CRC E056A1D5
Copy CRC E056A1D5
Track not present in AccurateRip database
Copy OK

Track 10

Filename C:\Rips\10 - Of Arrowe Hill - Eclipse.wav

Peak level 85.1 %
Extraction speed 6.7 X
Track quality 100.0 %
Test CRC C785C0F9
Copy CRC C785C0F9
Track not present in AccurateRip database
Copy OK

Track 11

Filename C:\Rips\11 - Malachai - Shine On You Crazy Diamond (Part 1).wav

Peak level 100.0 %
Extraction speed 7.8 X
Track quality 100.0 %
Test CRC 9F6BDDEB
Copy CRC 9F6BDDEB
Track not present in AccurateRip database
Copy OK

Track 12

Filename C:\Rips\12 - Beak] - Welcome To The Machine.wav

Peak level 99.9 %
Extraction speed 8.6 X
Track quality 100.0 %
Test CRC ABF0B3A1
Copy CRC ABF0B3A1
Track not present in AccurateRip database
Copy OK

Track 13

Filename C:\Rips\13 - John Foxx and the Maths - Have A Cigar.wav

Peak level 100.0 %
Extraction speed 8.3 X
Track quality 100.0 %
Test CRC FCAF16A4
Copy CRC FCAF16A4
Track not present in AccurateRip database
Copy OK

Track 14

Filename C:\Rips\14 - Lia Ices - Wish You Were Here.wav

Peak level 100.0 %
Extraction speed 8.7 X
Track quality 100.0 %
Test CRC 094266FB
Copy CRC 094266FB
Track not present in AccurateRip database
Copy OK

Track 15

Filename C:\Rips\15 - The Orb - Shine On You Crazy Diamond (Part 2).wav

Peak level 100.0 %
Extraction speed 9.7 X
Track quality 100.0 %
Test CRC C22612AC
Copy CRC C22612AC
Track not present in AccurateRip database
Copy OK


None of the tracks are present in the AccurateRip database

No errors occurred

End of status report

==== Log checksum ECE7CD1FA231B0EA7AE42F104D2554E4520CCB308BAB0EFB6F54CF520452E9A2 ====


Many thanks to the original uploader: Trifolius


Pink Floyd 1973 The Dark Side Of The Moon [Experience Edition, 2CD, Japan 2011]
Pink Floyd 1973 The Dark Side Of The Moon [Immersion Edition, Box Set 3CD+2DVD+1Blu-ray, 2011]
Pink Floyd 1975 Spaceball Ricochet - US-Tour 1975 [Bootleg, 2CD]
Pink Floyd 1975 Wish You Were Here [Immersion Edition, Box Set 2CD+2DVD+1Blu-ray, 2011]
Pink Floyd 1979 The Wall [Experience Edition, 3CD Box Set, 2012]
Pink Floyd 1979 The Wall [Immersion Edition, Box Set 6CD+1DVD, 2012]
Pink Floyd 1989 StarClub Phyco [Bootleg]
Pink Floyd 1990 Ultra Rare Trax, Vol. 1, 2, 3 [Bootleg, 3CD]
Pink Floyd 1992 The Complete ''Top Gear'' Sessions 1967-1969 [Bootleg, 2CD]
Pink Floyd 1992 The Man & The Journey [Bootleg]
Pink Floyd & The Stringman 1994 Absolutely Ambient [The Ultimate Remix Collection]
Pink Floyd 1994 Live In USA [Bootleg, 2CD]
Pink Floyd 1994 Wish You Were Here - Trance Remixes [Limited Ed.]
Pink Floyd 1995 P·U·L·S·E [Japan, 3rd issue 2005]
Pink Floyd 1997 The Wall (The Soundtrack Of The Motion Picture) [Bootleg, 2CD]
Pink Floyd 1997 1967: The First 3 Singles [EP]
Pink Floyd 2000 A Tree Full Of Secrets [Bootleg, 17+1 (data) CDs]
Pink Floyd 2000 Crackers [Bootleg, 2CD]
Pink Floyd - Echoes: The Best Of Pink Floyd (2001) 2CD
Pink Floyd 2002 Archives: If You Were A Bluebird [Bootleg]
Pink Floyd 2002 Archives: Pink Days And Fat Old Suns [Bootleg]
Pink Floyd 2002 Early Flights CD Serie, Vol. 1-10
Pink Floyd 2005 Naniwa: Natural Dark In Osaka 1972 [Bootleg, 2CD]
Pink Floyd 2005 Old Symphonies [Bootleg]
Pink Floyd 2008 Watching The World Upon The Wall [Bootleg, 2CD]

Pink Floyd 1982 The Wall 25th Anniversary [Deluxe Ed.] (DVD9)
Pink Floyd 1987 Would You Buy A Ticket To This Show? (2xDVD5)
Pink Floyd 2000 Divided We Fall: The Wall Live at Earl's Court (2xDVD5)
Pink Floyd 2006 Live in Saint-Tropez, Music Festival, 08.08.1970 (DVD5)
Pink Floyd 2008 The Great Gig In The Sky: The Album By Album Guide [8xDVD5 & Book Set]
Pink Floyd 2010 In Toronto 1987 (DVD5)
Pink Floyd 2010 Video Collection [Custom DVD9]
Pink Floyd 2013 Classic Albums: Making Of Dark Side Of The Moon [Blu-ray]

The Pink Floyd Chamber Suite 2004 A Classic Rock Tribute to Pink Floyd (DVD5)
The Led Zeppelin Chamber Suite 2003 A Classic Rock Tribute to Led Zeppelin (DVD5)

Roger Waters 1990 The Wall - Live In Berlin [Japan Promo 2CD]
Roger Waters 2011 The Wall - Live In Berlin 1990 [Limited Deluxe Tour Edition] (DVD+2CD)

The Australian Pink Floyd Show 2004 Dark Side Of The Moon - Live at Liverpool Kings Dock Arena 2004 (2 DVD Set)
The Australian Pink Floyd Show 2007 Best Of Pink Floyd - Live At The Royal Albert Hall 2007 (DVD9)
The Australian Pink Floyd Show 2012 Live At The Hammersmith Apollo 2011 (Blu-ray)

Celtic Pink Floyd 2011 Celtic Pink Floyd

David Palmer And The Royal Philharmonic Orchestra 1989 Music Of Pink Floyd - Orchestral Maneuvers [Japanese Ed. 1994]

Dream Theater 2006 Dark Side Of The Moon [Official Bootleg] (DVD5)
Dream Theater 2006 Dark Side of the Moon [Official Bootleg, 2CD]

Easy Star All-Stars 2003 Dub Side Of The Moon

Echoes 2015 Barefoot To The Moon: An Acoustic Tribute To Pink Floyd
Echoes 2015 Barefoot To The Moon: An Acoustic Tribute To Pink Floyd (DVD9)

The Flaming Lips 2009 The Flaming Lips & Stardeath and White Dwarfs with Henry Rollins and Peaches Doing The Dark Side of the Moon

Lazy 2006 F • L • O • Y • D : A Chillout Experience [Digipak]

The London Philharmonic Orchestra 1995 Us And Them: Symphonic Pink Floyd

Michael Armstrong 2006 Rockabye Baby! Lullaby Renditions Of Pink Floyd

Misriat 1999 Another Brick In The Wall (A Tribute to Pink Floyd)

Sam Yahel • Ari Hoenig • Mike Moreno • Seamu Blake 2008 Jazz Side Of The Moon: Music Of Pink Floyd

The Squirrels 2000 The Not-So-Bright Side Of The Moon

Voices On The Dark Side 2005 Dark Side Of The Moon A Cappella (Digipak)

V.A. 1995 The Moon Revisited (A Tribute to Pink Floyd)
V.A. 2000/2002 The Electronic Tribute To Pink Floyd [Volume 1 & 2]
V.A. 2001 Pickin' On Pink Floyd: A Bluegrass Tribute
V.A. 2002 The Reggae Tribute To Pink Floyd
V.A. 2002 Pigs And Pyramids: An All Star Lineup Performing The Songs Of Pink Floyd
V.A. 2004 Breathe: A Tribute To Pink Floyd
V.A. 2005 Back Against The Wall - A Tribute to Pink Floyd (2CD)
V.A. 2006 Pink Floyd Redux: A New Music Experience [Digipak]
V.A. 2007 The Music Of Pink Floyd
V.A. 2007 Pink Box: Songs Of Pink Floyd (2CD)
V.A. 2007 Top Musicians Play: Pink Floyd The Wall (2CD)
V.A. 2010 Pink Floyd: Greatest Hits Covered (2CD) vbr
V.A. 2010 Pink Floyd: Greatest Hits Covered (2CD)
V.A. 2011 A Collection of Delicate Diamonds: A Tribute to Pink Floyd (2CD Album Digipak)
V.A. 2013 The Many Faces of Pink Floyd: A Journey Through The Inner World of Pink Floyd (2013) 3CD Set
V.A. 2015 The Everlasting Songs: An All Star Tribute To Pink Floyd


––––––––––––––––––––––––––––––

V.A. - Mojo Presents: Return To The Dark Side Of The Moon / Wish You Were Here Again (2011)


–––––––––––