Tags
Language
Tags
June 2024
Su Mo Tu We Th Fr Sa
26 27 28 29 30 31 1
2 3 4 5 6 7 8
9 10 11 12 13 14 15
16 17 18 19 20 21 22
23 24 25 26 27 28 29
30 1 2 3 4 5 6

VA - Summer: The Ultimate Collection (5 CD, 2018)

Posted By: ciklon5
VA - Summer: The Ultimate Collection (5 CD, 2018)

VA - Summer: The Ultimate Collection (5 CD, 2018)
FLAC (tracks + cue+ log + artwork) / MP3 320 kbps | 6:03:47 | 855 Mb / 2,35 Gb
Genre: Pop, Rock / Label: Union Square Music Ltd

The summer countdown is on and whether that means going on holiday, taking a roadtrip or firing up the BBQ, we have the perfect summer soundtrack to suit all occasions. Ultimate Summer is a superb collection delivering 100 popular summer anthems across all genres from contemporary hits to laid-back classic grooves. The big newer artists include Justin Bieber, Maroon 5, Lady Gaga, Ellie Goulding, Ariana Grande, Nicki Minaj, Bastille, Avicii and Swedish House Mafia to name but a few. Also included are the staple feel-good summer gems from Blondie, 10CC, The Beach Boys, Katrina & The Waves, Texas, UB40, Bob Marley, Kool & The Gang, Marlena Shaw, Dusty Springfield plus a host of others great artists. These are 100 essential songs that perfectly capture the mood of summer and will see you through the long hot summer months.

Track List:

CD 1
01. Blondie - The Tide Is High (2001 Remaster)
02. Y&T - Summertime Girls (Studio Version)
03. 10CC - Dreadlock Holiday
04. Katrina And The Waves - Walking On Sunshine
05. Steve Winwood - Higher Love (Single Version)
06. Frankie Goes To Hollywood - Born To Run
07. Lynyrd Skynyrd - Sweet Home Alabama (Short Radio Edit)
08. Status Quo - Pictures Of Matchstick Men
09. UB40 - (I Can't Help) Falling In Love With You (2009 Remaster)
10. The Mavericks - Dance The Night Away
11. Rick Astley - Never Gonna Give You Up
12. Madness - It Must Be Love
13. Womack & Womack - Teardrops (7" Edit)
14. Donna Summer - Bad Girls (Single Version / Edited)
15. Midnight Star - Midas Touch
16. Shalamar - I Can Make You Feel Good
17. Midnight Star - Curious
18. Nina Simone - Feeling Good
19. The Archies - Sugar Sugar
20. The Belle Stars - Iko Iko (Single Version)

CD 2
01. UB40 - Red Red Wine (7" Version)
02. N.W.A. - Express Yourself
03. Grandmaster Flash & The Furious Five - The Message
04. Eric B & Rakim - Paid In Full
05. The Sugarhill Gang - Rapper's Delight (Single Version)
06. Musical Youth - Pass The Dutchie (Original 7" Version)
07. Arrow - Hot Hot Hot (Edit)
08. Althea & Donna - Uptown Top Ranking
09. The Maytals - 54
10. Desmond Dekker & The Aces - 007 (Shanty Town)
11. Sophia George - Girlie Girlie
12. Desmond Dekker & The Aces - Israelites
13. Dandy Livingstone - Rudy, A Message To You
14. Dawn Penn - You Don't Love Me (No, No, No) (Trojan Mix)
15. Dennis Brown - Money In My Pocket
16. Harry J Allstars - Liquidator
17. Dave & Ansel Collins - Double Barrel
18. The Maytals - Monkey Man
19. Mungo Jerry - In The Summertime
20. Nu Yorican Soul - I Am The Black Gold Of The Sun

CD 3
01. The Beach Boys - Good Vibrations (2001 Remaster)
02. Bobby Hebb - Sunny (Album Version)
03. The Mamas And The Papas - California Dreamin' (Single Version)
04. Dusty Springfield - Son Of A Preacher Man
05. Marlena Shaw - California Soul (Album Version)
06. Kool & The Gang - Summer Madness
07. Roy Ayers - Everybody Loves The Sunshine
08. Norman Greenbaum - Spirit In The Sky
09. The Troggs - Wild Thing (Edit)
10. The Flower Pot Men - Let's Go to San Francisco
11. James Brown - I Got You (I Feel Good) (1966 Album Version)
12. The Real Thing - You To Me Are Everything
13. The Whispers - It's A Love Thing (7" Version)
14. Blue Mink - Melting Pot
15. Martha Reeves And The Vandellas - Dancing In The Street (Single Version)
16. Marvin Gaye - I Heard It Through The Grapevine (Album Version)
17. The Supremes - Where Did Our Love Go? (Stereo Version)
18. Martha Reeves And The Vandellas - Heat Wave (Stereo Version)
19. The Jackson 5 - I Want You Back (Single Version)
20. Stan Getz, Joan Gilberto & Astrud Gilberto - The Girl From Ipanema

CD 4
01. Nelly - Hot In Herre (Album Version)
02. Shaggy Feat. Rayvon - In The Summertime
03. Bob Marley Vs. Funkstar De Luxe - Sun Is Shining
04. Moloko - Sing It Back (Boris Musical Mix Edit)
05. Ultra Nate - Free (Album Version)
06. Gabrielle - Sunshine (Wookie Remix)
07. Arrested Development - People Everyday
08. Omar - There's Nothing Like This (7" Edit)
09. Dodgy - Staying Out For The Summer
10. The La's - There She Goes
11. James - Sit Down (Album Version)
12. Texas - Summer Son
13. Bastille - Pompeii
14. Hanson - MMMBop (Single Version)
15. Pato Banton, Ali & Robin Campbell & The Reggae Revolution - Baby Come Back
16. New Radicals - You Get What You Give (Radio Edit)
17. Babybird - You're Gorgeous
18. D'Influence - Rock With You (DI Radio Edit)
19. Daddy's Groove Feat. Little Nancy - It's Not Right, But It's Okay (Radio Edit)
20. Wookie Feat. Eliza Doolittle - The Hype (Original Edit)

CD 5
01. Maroon 5 - Sugar
02. Justin Bieber - Sorry
03. Demi Lovato - Cool For The Summer
04. Lana Del Rey Vs. Cedric Gervais - Summertime Sadness (Cedric Gervais Remix / Radio Edit)
05. Avicii - Wake Me Up (Radio Edit)
06. Ellie Goulding - Burn
07. Ariana Grande Feat. Nicki Minaj - Side To Side
08. Nicki Minaj - Starships (Edited Version)
09. Dizzee Rascal - Holiday (Radio Edit)
10. Gorgon City Feat. MNEK - Ready For Your Love
11. Lady Gaga - Poker Face
12. Swedish House Mafia Feat. John Martin - Don't You Worry Child
13. Kiesza - Hideaway
14. Mike Posner - I Took A Pill In Ibiza (Seeb Remix)
15. Jennifer Lopez - I'm Into You
16. Nina Sky - Move Ya Body (Radio Edit)
17. Fatman Scoop Feat. The Crooklyn Clan - Be Faithful (Album Version)
18. Ms. Dynamite - Dy
19. Wild Culture Vs. Karmin - Sugar (Radio Mix)
20. The Black Eyed Peas - I Gotta Feeling (Album Version)

Exact Audio Copy V1.3 from 2. September 2016

EAC extraction logfile from 27. July 2018, 13:59

Various / Summer - The Ultimate Collection - CD1

Used drive : HL-DT-STDVDRAM GSA-E40N Adapter: 1 ID: 1

Read mode : Secure
Utilize accurate stream : Yes
Defeat audio cache : No
Make use of C2 pointers : Yes

Read offset correction : 667
Overread into Lead-In and Lead-Out : No
Fill up missing offset samples with silence : Yes
Delete leading and trailing silent blocks : No
Null samples used in CRC calculations : Yes
Used interface : Native Win32 interface for Win NT & 2000
Gap handling : Not detected, thus appended to previous track

Used output format : User Defined Encoder
Selected bitrate : 896 kBit/s
Quality : High
Add ID3 tag : No
Command line compressor : C:\Program Files (x86)\Exact Audio Copy\FLAC\FLAC.EXE
Additional command line options : -6 -V -T "ARTIST=%artist%" -T "TITLE=%title%" -T "ALBUM=%albumtitle%" -T "DATE=%year%" -T "TRACKNUMBER=%tracknr%" -T "GENRE=%genre%" -T "COMMENT=%comment%" -T "BAND=%albuminterpret%" -T "ALBUMARTIST=%albuminterpret%" -T "COMPOSER=%composer%" %haslyrics%–tag-from-file=LYRICS="%lyricsfile%"%haslyrics% -T "DISCNUMBER=%cdnumber%" -T "TOTALDISCS=%totalcds%" -T "TOTALTRACKS=%numtracks%" %hascover%–picture="%coverfile%"%hascover% %source% -o %dest%


TOC of the extracted CD

Track | Start | Length | Start sector | End sector
––––––––––––––––––––––––––––-
1 | 0:00.00 | 4:39.61 | 0 | 20985
2 | 4:39.61 | 3:27.46 | 20986 | 36556
3 | 8:07.32 | 4:28.03 | 36557 | 56659
4 | 12:35.35 | 3:58.23 | 56660 | 74532
5 | 16:33.58 | 4:13.04 | 74533 | 93511
6 | 20:46.62 | 3:56.34 | 93512 | 111245
7 | 24:43.21 | 3:24.52 | 111246 | 126597
8 | 28:07.73 | 3:15.01 | 126598 | 141223
9 | 31:22.74 | 3:25.63 | 141224 | 156661
10 | 34:48.62 | 4:21.53 | 156662 | 176289
11 | 39:10.40 | 3:32.38 | 176290 | 192227
12 | 42:43.03 | 3:19.15 | 192228 | 207167
13 | 46:02.18 | 3:51.10 | 207168 | 224502
14 | 49:53.28 | 3:52.70 | 224503 | 241972
15 | 53:46.23 | 3:53.72 | 241973 | 259519
16 | 57:40.20 | 4:17.08 | 259520 | 278802
17 | 61:57.28 | 5:00.05 | 278803 | 301307
18 | 66:57.33 | 2:54.23 | 301308 | 314380
19 | 69:51.56 | 2:50.09 | 314381 | 327139
20 | 72:41.65 | 2:57.74 | 327140 | 340488


Track 1

Filename A:\PsPBuRnOuT's MUSIC\SORTED BY YEAR\2000 PLUS\SUMMER - THE ULTIMATE COLLECTION\Summer - The Ultimate Collection - CD1\01.Blondie - The Tide Is High.wav

Peak level 89.1 %
Extraction speed 5.7 X
Track quality 99.1 %
Copy CRC A49B9264
Track not present in AccurateRip database
Copy OK

Track 2

Filename A:\PsPBuRnOuT's MUSIC\SORTED BY YEAR\2000 PLUS\SUMMER - THE ULTIMATE COLLECTION\Summer - The Ultimate Collection - CD1\02.Y&T - Summertime Girls.wav

Peak level 98.9 %
Extraction speed 18.2 X
Track quality 100.0 %
Copy CRC A6A3994E
Track not present in AccurateRip database
Copy OK

Track 3

Filename A:\PsPBuRnOuT's MUSIC\SORTED BY YEAR\2000 PLUS\SUMMER - THE ULTIMATE COLLECTION\Summer - The Ultimate Collection - CD1\03.10CC - Dreadlock Holiday.wav

Peak level 94.9 %
Extraction speed 21.3 X
Track quality 100.0 %
Copy CRC FAEC4EA3
Track not present in AccurateRip database
Copy OK

Track 4

Filename A:\PsPBuRnOuT's MUSIC\SORTED BY YEAR\2000 PLUS\SUMMER - THE ULTIMATE COLLECTION\Summer - The Ultimate Collection - CD1\04.Katrina & The Waves - Walking On Sunshine.wav

Peak level 83.8 %
Extraction speed 21.6 X
Track quality 100.0 %
Copy CRC 7241F2B5
Track not present in AccurateRip database
Copy OK

Track 5

Filename A:\PsPBuRnOuT's MUSIC\SORTED BY YEAR\2000 PLUS\SUMMER - THE ULTIMATE COLLECTION\Summer - The Ultimate Collection - CD1\05.Steve Winwood - Higher Love.wav

Peak level 92.5 %
Extraction speed 24.5 X
Track quality 100.0 %
Copy CRC ED69421A
Track not present in AccurateRip database
Copy OK

Track 6

Filename A:\PsPBuRnOuT's MUSIC\SORTED BY YEAR\2000 PLUS\SUMMER - THE ULTIMATE COLLECTION\Summer - The Ultimate Collection - CD1\06.Frankie Goes To Hollywood - Born To Run.wav

Peak level 100.0 %
Extraction speed 22.2 X
Track quality 99.9 %
Copy CRC 5F148F7F
Track not present in AccurateRip database
Copy OK

Track 7

Filename A:\PsPBuRnOuT's MUSIC\SORTED BY YEAR\2000 PLUS\SUMMER - THE ULTIMATE COLLECTION\Summer - The Ultimate Collection - CD1\07.Lynyrd Skynyrd - Sweet Home Alabama.wav

Peak level 83.8 %
Extraction speed 26.9 X
Track quality 100.0 %
Copy CRC 9AB6A848
Track not present in AccurateRip database
Copy OK

Track 8

Filename A:\PsPBuRnOuT's MUSIC\SORTED BY YEAR\2000 PLUS\SUMMER - THE ULTIMATE COLLECTION\Summer - The Ultimate Collection - CD1\08.Status Quo - Pictures Of Matchstick Men.wav

Peak level 92.4 %
Extraction speed 23.3 X
Track quality 99.8 %
Copy CRC A362D6FC
Track not present in AccurateRip database
Copy OK

Track 9

Filename A:\PsPBuRnOuT's MUSIC\SORTED BY YEAR\2000 PLUS\SUMMER - THE ULTIMATE COLLECTION\Summer - The Ultimate Collection - CD1\09.UB40 - (I Can't Help) Falling In Love With You.wav

Peak level 100.0 %
Extraction speed 23.1 X
Track quality 99.8 %
Copy CRC 28964B0F
Track not present in AccurateRip database
Copy OK

Track 10

Filename A:\PsPBuRnOuT's MUSIC\SORTED BY YEAR\2000 PLUS\SUMMER - THE ULTIMATE COLLECTION\Summer - The Ultimate Collection - CD1\10.The Mavericks - Dance The Night Away.wav

Peak level 100.0 %
Extraction speed 29.8 X
Track quality 100.0 %
Copy CRC DED9EF22
Track not present in AccurateRip database
Copy OK

Track 11

Filename A:\PsPBuRnOuT's MUSIC\SORTED BY YEAR\2000 PLUS\SUMMER - THE ULTIMATE COLLECTION\Summer - The Ultimate Collection - CD1\11.Rick Astley - Never Gonna Give You Up.wav

Peak level 100.0 %
Extraction speed 27.7 X
Track quality 100.0 %
Copy CRC 76BD487D
Track not present in AccurateRip database
Copy OK

Track 12

Filename A:\PsPBuRnOuT's MUSIC\SORTED BY YEAR\2000 PLUS\SUMMER - THE ULTIMATE COLLECTION\Summer - The Ultimate Collection - CD1\12.Madness - It Must Be Love.wav

Peak level 99.8 %
Extraction speed 30.8 X
Track quality 100.0 %
Copy CRC 01F9BB5D
Track not present in AccurateRip database
Copy OK

Track 13

Filename A:\PsPBuRnOuT's MUSIC\SORTED BY YEAR\2000 PLUS\SUMMER - THE ULTIMATE COLLECTION\Summer - The Ultimate Collection - CD1\13.Womack & Womack - Teardrops.wav

Peak level 100.0 %
Extraction speed 33.8 X
Track quality 100.0 %
Copy CRC 7542E723
Track not present in AccurateRip database
Copy OK

Track 14

Filename A:\PsPBuRnOuT's MUSIC\SORTED BY YEAR\2000 PLUS\SUMMER - THE ULTIMATE COLLECTION\Summer - The Ultimate Collection - CD1\14.Donna Summer - Bad Girls.wav

Peak level 98.0 %
Extraction speed 27.6 X
Track quality 99.9 %
Copy CRC 332EFEC5
Track not present in AccurateRip database
Copy OK

Track 15

Filename A:\PsPBuRnOuT's MUSIC\SORTED BY YEAR\2000 PLUS\SUMMER - THE ULTIMATE COLLECTION\Summer - The Ultimate Collection - CD1\15.Midnight Star - Midas Touch.wav

Peak level 100.0 %
Extraction speed 33.3 X
Track quality 100.0 %
Copy CRC BC430007
Track not present in AccurateRip database
Copy OK

Track 16

Filename A:\PsPBuRnOuT's MUSIC\SORTED BY YEAR\2000 PLUS\SUMMER - THE ULTIMATE COLLECTION\Summer - The Ultimate Collection - CD1\16.Shalamar - I Can Make You Feel Good.wav

Peak level 100.0 %
Extraction speed 29.9 X
Track quality 100.0 %
Copy CRC 79DD6F6E
Track not present in AccurateRip database
Copy OK

Track 17

Filename A:\PsPBuRnOuT's MUSIC\SORTED BY YEAR\2000 PLUS\SUMMER - THE ULTIMATE COLLECTION\Summer - The Ultimate Collection - CD1\17.Midnight Star - Curious.wav

Peak level 85.6 %
Extraction speed 30.9 X
Track quality 100.0 %
Copy CRC 9B9223CF
Track not present in AccurateRip database
Copy OK

Track 18

Filename A:\PsPBuRnOuT's MUSIC\SORTED BY YEAR\2000 PLUS\SUMMER - THE ULTIMATE COLLECTION\Summer - The Ultimate Collection - CD1\18.Nina Simone - Feeling Good.wav

Peak level 99.7 %
Extraction speed 27.6 X
Track quality 99.8 %
Copy CRC 43E6979F
Track not present in AccurateRip database
Copy OK

Track 19

Filename A:\PsPBuRnOuT's MUSIC\SORTED BY YEAR\2000 PLUS\SUMMER - THE ULTIMATE COLLECTION\Summer - The Ultimate Collection - CD1\19.The Archies - Sugar Sugar.wav

Peak level 100.0 %
Extraction speed 30.4 X
Track quality 100.0 %
Copy CRC 9A455F96
Track not present in AccurateRip database
Copy OK

Track 20

Filename A:\PsPBuRnOuT's MUSIC\SORTED BY YEAR\2000 PLUS\SUMMER - THE ULTIMATE COLLECTION\Summer - The Ultimate Collection - CD1\20.The Belle Stars - Iko Iko.wav

Peak level 91.6 %
Extraction speed 32.8 X
Track quality 100.0 %
Copy CRC 6B41A2CD
Track not present in AccurateRip database
Copy OK


None of the tracks are present in the AccurateRip database

No errors occurred

End of status report

–– CUETools DB Plugin V2.1.6

[CTDB TOCID: L4WEUFKWQ8qfgfAoEHU3tSrw66Q-] found
Submit result: L4WEUFKWQ8qfgfAoEHU3tSrw66Q- has been confirmed
Track | CTDB Status
1 | (2/2) Accurately ripped
2 | (2/2) Accurately ripped
3 | (2/2) Accurately ripped
4 | (2/2) Accurately ripped
5 | (2/2) Accurately ripped
6 | (2/2) Accurately ripped
7 | (2/2) Accurately ripped
8 | (2/2) Accurately ripped
9 | (2/2) Accurately ripped
10 | (2/2) Accurately ripped
11 | (2/2) Accurately ripped
12 | (2/2) Accurately ripped
13 | (2/2) Accurately ripped
14 | (2/2) Accurately ripped
15 | (2/2) Accurately ripped
16 | (2/2) Accurately ripped
17 | (2/2) Accurately ripped
18 | (2/2) Accurately ripped
19 | (2/2) Accurately ripped
20 | (2/2) Accurately ripped

Exact Audio Copy V1.3 from 2. September 2016

EAC extraction logfile from 27. July 2018, 14:21

Various / Summer - The Ultimate Collection - CD2

Used drive : HL-DT-STDVDRAM GSA-E40N Adapter: 1 ID: 1

Read mode : Secure
Utilize accurate stream : Yes
Defeat audio cache : No
Make use of C2 pointers : Yes

Read offset correction : 667
Overread into Lead-In and Lead-Out : No
Fill up missing offset samples with silence : Yes
Delete leading and trailing silent blocks : No
Null samples used in CRC calculations : Yes
Used interface : Native Win32 interface for Win NT & 2000
Gap handling : Not detected, thus appended to previous track

Used output format : User Defined Encoder
Selected bitrate : 896 kBit/s
Quality : High
Add ID3 tag : No
Command line compressor : C:\Program Files (x86)\Exact Audio Copy\FLAC\FLAC.EXE
Additional command line options : -6 -V -T "ARTIST=%artist%" -T "TITLE=%title%" -T "ALBUM=%albumtitle%" -T "DATE=%year%" -T "TRACKNUMBER=%tracknr%" -T "GENRE=%genre%" -T "COMMENT=%comment%" -T "BAND=%albuminterpret%" -T "ALBUMARTIST=%albuminterpret%" -T "COMPOSER=%composer%" %haslyrics%–tag-from-file=LYRICS="%lyricsfile%"%haslyrics% -T "DISCNUMBER=%cdnumber%" -T "TOTALDISCS=%totalcds%" -T "TOTALTRACKS=%numtracks%" %hascover%–picture="%coverfile%"%hascover% %source% -o %dest%


TOC of the extracted CD

Track | Start | Length | Start sector | End sector
––––––––––––––––––––––––––––-
1 | 0:00.00 | 3:02.04 | 0 | 13653
2 | 3:02.04 | 4:23.11 | 13654 | 33389
3 | 7:25.15 | 3:12.27 | 33390 | 47816
4 | 10:37.42 | 3:48.12 | 47817 | 64928
5 | 14:25.54 | 3:56.09 | 64929 | 82637
6 | 18:21.63 | 3:23.63 | 82638 | 97925
7 | 21:45.51 | 6:43.37 | 97926 | 128187
8 | 28:29.13 | 3:52.38 | 128188 | 145625
9 | 32:21.51 | 3:19.45 | 145626 | 160595
10 | 35:41.21 | 2:29.51 | 160596 | 171821
11 | 38:10.72 | 3:03.52 | 171822 | 185598
12 | 41:14.49 | 2:33.60 | 185599 | 197133
13 | 43:48.34 | 2:33.04 | 197134 | 208612
14 | 46:21.38 | 3:16.22 | 208613 | 223334
15 | 49:37.60 | 3:49.59 | 223335 | 240568
16 | 53:27.44 | 2:52.30 | 240569 | 253498
17 | 56:19.74 | 2:44.65 | 253499 | 265863
18 | 59:04.64 | 3:43.70 | 265864 | 282658
19 | 62:48.59 | 3:31.34 | 282659 | 298517
20 | 66:20.18 | 6:31.43 | 298518 | 327885


Track 1

Filename A:\PsPBuRnOuT's MUSIC\SORTED BY YEAR\2000 PLUS\SUMMER - THE ULTIMATE COLLECTION\Summer - The Ultimate Collection - CD2\01.UB40 - Red Red Wine.wav

Peak level 83.1 %
Extraction speed 5.1 X
Track quality 99.0 %
Copy CRC 6CB88F6A
Track not present in AccurateRip database
Copy OK

Track 2

Filename A:\PsPBuRnOuT's MUSIC\SORTED BY YEAR\2000 PLUS\SUMMER - THE ULTIMATE COLLECTION\Summer - The Ultimate Collection - CD2\02.N.W.A. - Express Yourself.wav

Peak level 97.3 %
Extraction speed 9.0 X
Track quality 99.5 %
Copy CRC A0C74474
Track not present in AccurateRip database
Copy OK

Track 3

Filename A:\PsPBuRnOuT's MUSIC\SORTED BY YEAR\2000 PLUS\SUMMER - THE ULTIMATE COLLECTION\Summer - The Ultimate Collection - CD2\03.Grandmaster Flash & The Furious Five - The Message.wav

Peak level 92.5 %
Extraction speed 18.8 X
Track quality 100.0 %
Copy CRC FBA41FB3
Track not present in AccurateRip database
Copy OK

Track 4

Filename A:\PsPBuRnOuT's MUSIC\SORTED BY YEAR\2000 PLUS\SUMMER - THE ULTIMATE COLLECTION\Summer - The Ultimate Collection - CD2\04.Eric B. & Rakim - Paid In Full.wav

Peak level 100.0 %
Extraction speed 19.6 X
Track quality 99.9 %
Copy CRC F119CA10
Track not present in AccurateRip database
Copy OK

Track 5

Filename A:\PsPBuRnOuT's MUSIC\SORTED BY YEAR\2000 PLUS\SUMMER - THE ULTIMATE COLLECTION\Summer - The Ultimate Collection - CD2\05.The Sugarhill Gang - Rapper's Delight.wav

Peak level 100.0 %
Extraction speed 18.4 X
Track quality 99.9 %
Copy CRC 0FFA74F2
Track not present in AccurateRip database
Copy OK

Track 6

Filename A:\PsPBuRnOuT's MUSIC\SORTED BY YEAR\2000 PLUS\SUMMER - THE ULTIMATE COLLECTION\Summer - The Ultimate Collection - CD2\06.Musical Youth - Pass The Dutchie.wav

Peak level 100.0 %
Extraction speed 22.2 X
Track quality 100.0 %
Copy CRC E59CCDE7
Track not present in AccurateRip database
Copy OK

Track 7

Filename A:\PsPBuRnOuT's MUSIC\SORTED BY YEAR\2000 PLUS\SUMMER - THE ULTIMATE COLLECTION\Summer - The Ultimate Collection - CD2\07.Arrow - Hot Hot Hot.wav

Peak level 100.0 %
Extraction speed 27.5 X
Track quality 100.0 %
Copy CRC F18576BF
Track not present in AccurateRip database
Copy OK

Track 8

Filename A:\PsPBuRnOuT's MUSIC\SORTED BY YEAR\2000 PLUS\SUMMER - THE ULTIMATE COLLECTION\Summer - The Ultimate Collection - CD2\08.Althea & Donna - Uptown Top Ranking.wav

Peak level 74.1 %
Extraction speed 25.2 X
Track quality 100.0 %
Copy CRC 7BF2DC69
Track not present in AccurateRip database
Copy OK

Track 9

Filename A:\PsPBuRnOuT's MUSIC\SORTED BY YEAR\2000 PLUS\SUMMER - THE ULTIMATE COLLECTION\Summer - The Ultimate Collection - CD2\09.The Maytals - 54-46 Was My Number.wav

Peak level 94.3 %
Extraction speed 30.1 X
Track quality 100.0 %
Copy CRC 1522BA1C
Track not present in AccurateRip database
Copy OK

Track 10

Filename A:\PsPBuRnOuT's MUSIC\SORTED BY YEAR\2000 PLUS\SUMMER - THE ULTIMATE COLLECTION\Summer - The Ultimate Collection - CD2\10.Desmond Dekker & The Aces - 007 (Shanty Town).wav

Peak level 86.4 %
Extraction speed 25.8 X
Track quality 100.0 %
Copy CRC 724D683B
Track not present in AccurateRip database
Copy OK

Track 11

Filename A:\PsPBuRnOuT's MUSIC\SORTED BY YEAR\2000 PLUS\SUMMER - THE ULTIMATE COLLECTION\Summer - The Ultimate Collection - CD2\11.Sophia George - Girlie Girlie.wav

Peak level 84.1 %
Extraction speed 30.3 X
Track quality 100.0 %
Copy CRC A1BA4A77
Track not present in AccurateRip database
Copy OK

Track 12

Filename A:\PsPBuRnOuT's MUSIC\SORTED BY YEAR\2000 PLUS\SUMMER - THE ULTIMATE COLLECTION\Summer - The Ultimate Collection - CD2\12.Desmond Dekker & The Aces - Israelites.wav

Peak level 92.0 %
Extraction speed 27.4 X
Track quality 100.0 %
Copy CRC CCED4610
Track not present in AccurateRip database
Copy OK

Track 13

Filename A:\PsPBuRnOuT's MUSIC\SORTED BY YEAR\2000 PLUS\SUMMER - THE ULTIMATE COLLECTION\Summer - The Ultimate Collection - CD2\13.Dandy Livingstone - Rudy, A Message To You.wav

Peak level 87.9 %
Extraction speed 32.6 X
Track quality 100.0 %
Copy CRC 33D4D4F0
Track not present in AccurateRip database
Copy OK

Track 14

Filename A:\PsPBuRnOuT's MUSIC\SORTED BY YEAR\2000 PLUS\SUMMER - THE ULTIMATE COLLECTION\Summer - The Ultimate Collection - CD2\14.Dawn Penn - You Don't Love Me (No, No, No) (Trojan Mix).wav

Peak level 83.1 %
Extraction speed 26.9 X
Track quality 99.8 %
Copy CRC A106DDAB
Track not present in AccurateRip database
Copy OK

Track 15

Filename A:\PsPBuRnOuT's MUSIC\SORTED BY YEAR\2000 PLUS\SUMMER - THE ULTIMATE COLLECTION\Summer - The Ultimate Collection - CD2\15.Dennis Brown - Money In My Pocket.wav

Peak level 83.0 %
Extraction speed 28.1 X
Track quality 99.9 %
Copy CRC A9BFAAAA
Track not present in AccurateRip database
Copy OK

Track 16

Filename A:\PsPBuRnOuT's MUSIC\SORTED BY YEAR\2000 PLUS\SUMMER - THE ULTIMATE COLLECTION\Summer - The Ultimate Collection - CD2\16.Harry J Allstars - Liquidator.wav

Peak level 74.2 %
Extraction speed 25.9 X
Track quality 99.8 %
Copy CRC 55350B4D
Track not present in AccurateRip database
Copy OK

Track 17

Filename A:\PsPBuRnOuT's MUSIC\SORTED BY YEAR\2000 PLUS\SUMMER - THE ULTIMATE COLLECTION\Summer - The Ultimate Collection - CD2\17.Dave & Ansel Collins - Double Barrel.wav

Peak level 84.1 %
Extraction speed 34.4 X
Track quality 100.0 %
Copy CRC B1386298
Track not present in AccurateRip database
Copy OK

Track 18

Filename A:\PsPBuRnOuT's MUSIC\SORTED BY YEAR\2000 PLUS\SUMMER - THE ULTIMATE COLLECTION\Summer - The Ultimate Collection - CD2\18.The Maytals - Monkey Man.wav

Peak level 81.3 %
Extraction speed 31.6 X
Track quality 100.0 %
Copy CRC 550F32DE
Track not present in AccurateRip database
Copy OK

Track 19

Filename A:\PsPBuRnOuT's MUSIC\SORTED BY YEAR\2000 PLUS\SUMMER - THE ULTIMATE COLLECTION\Summer - The Ultimate Collection - CD2\19.Mungo Jerry - In The Summertime.wav

Peak level 98.8 %
Extraction speed 32.5 X
Track quality 100.0 %
Copy CRC 562C27E2
Track not present in AccurateRip database
Copy OK

Track 20

Filename A:\PsPBuRnOuT's MUSIC\SORTED BY YEAR\2000 PLUS\SUMMER - THE ULTIMATE COLLECTION\Summer - The Ultimate Collection - CD2\20.Nu Yorican Soul - I Am The Black Gold Of The Sun.wav

Peak level 94.1 %
Extraction speed 33.9 X
Track quality 100.0 %
Copy CRC AD53E467
Track not present in AccurateRip database
Copy OK


None of the tracks are present in the AccurateRip database

No errors occurred

End of status report

–– CUETools DB Plugin V2.1.6

[CTDB TOCID: F.a1Pwbsm3wRHYuvy3fS3wUJhi8-] found
Submit result: F.a1Pwbsm3wRHYuvy3fS3wUJhi8- has been confirmed
Track | CTDB Status
1 | (2/2) Accurately ripped
2 | (2/2) Accurately ripped
3 | (2/2) Accurately ripped
4 | (2/2) Accurately ripped
5 | (2/2) Accurately ripped
6 | (2/2) Accurately ripped
7 | (2/2) Accurately ripped
8 | (2/2) Accurately ripped
9 | (2/2) Accurately ripped
10 | (2/2) Accurately ripped
11 | (2/2) Accurately ripped
12 | (2/2) Accurately ripped
13 | (2/2) Accurately ripped
14 | (2/2) Accurately ripped
15 | (2/2) Accurately ripped
16 | (2/2) Accurately ripped
17 | (2/2) Accurately ripped
18 | (2/2) Accurately ripped
19 | (2/2) Accurately ripped
20 | (2/2) Accurately ripped

Exact Audio Copy V1.3 from 2. September 2016

EAC extraction logfile from 27. July 2018, 14:50

Various / Summer - The Ultimate Collection - CD3

Used drive : HL-DT-STDVDRAM GSA-E40N Adapter: 1 ID: 1

Read mode : Secure
Utilize accurate stream : Yes
Defeat audio cache : No
Make use of C2 pointers : Yes

Read offset correction : 667
Overread into Lead-In and Lead-Out : No
Fill up missing offset samples with silence : Yes
Delete leading and trailing silent blocks : No
Null samples used in CRC calculations : Yes
Used interface : Native Win32 interface for Win NT & 2000
Gap handling : Not detected, thus appended to previous track

Used output format : User Defined Encoder
Selected bitrate : 896 kBit/s
Quality : High
Add ID3 tag : No
Command line compressor : C:\Program Files (x86)\Exact Audio Copy\FLAC\FLAC.EXE
Additional command line options : -6 -V -T "ARTIST=%artist%" -T "TITLE=%title%" -T "ALBUM=%albumtitle%" -T "DATE=%year%" -T "TRACKNUMBER=%tracknr%" -T "GENRE=%genre%" -T "COMMENT=%comment%" -T "BAND=%albuminterpret%" -T "ALBUMARTIST=%albuminterpret%" -T "COMPOSER=%composer%" %haslyrics%–tag-from-file=LYRICS="%lyricsfile%"%haslyrics% -T "DISCNUMBER=%cdnumber%" -T "TOTALDISCS=%totalcds%" -T "TOTALTRACKS=%numtracks%" %hascover%–picture="%coverfile%"%hascover% %source% -o %dest%


TOC of the extracted CD

Track | Start | Length | Start sector | End sector
––––––––––––––––––––––––––––-
1 | 0:00.00 | 3:36.47 | 0 | 16246
2 | 3:36.47 | 2:42.72 | 16247 | 28468
3 | 6:19.44 | 2:38.38 | 28469 | 40356
4 | 8:58.07 | 2:26.58 | 40357 | 51364
5 | 11:24.65 | 2:57.14 | 51365 | 64653
6 | 14:22.04 | 4:16.72 | 64654 | 83925
7 | 18:39.01 | 3:57.37 | 83926 | 101737
8 | 22:36.38 | 3:59.06 | 101738 | 119668
9 | 26:35.44 | 2:25.56 | 119669 | 130599
10 | 29:01.25 | 3:36.25 | 130600 | 146824
11 | 32:37.50 | 2:46.68 | 146825 | 159342
12 | 35:24.43 | 3:28.44 | 159343 | 174986
13 | 38:53.12 | 3:46.43 | 174987 | 191979
14 | 42:39.55 | 3:49.05 | 191980 | 209159
15 | 46:28.60 | 2:38.36 | 209160 | 221045
16 | 49:07.21 | 3:10.05 | 221046 | 235300
17 | 52:17.26 | 2:29.31 | 235301 | 246506
18 | 54:46.57 | 2:43.71 | 246507 | 258802
19 | 57:30.53 | 2:56.45 | 258803 | 272047
20 | 60:27.23 | 2:46.26 | 272048 | 284523


Track 1

Filename A:\PsPBuRnOuT's MUSIC\SORTED BY YEAR\2000 PLUS\SUMMER - THE ULTIMATE COLLECTION\Summer - The Ultimate Collection - CD3\01.The Beach Boys - Good Vibrations.wav

Peak level 89.1 %
Extraction speed 10.1 X
Track quality 100.0 %
Copy CRC 7143F063
Track not present in AccurateRip database
Copy OK

Track 2

Filename A:\PsPBuRnOuT's MUSIC\SORTED BY YEAR\2000 PLUS\SUMMER - THE ULTIMATE COLLECTION\Summer - The Ultimate Collection - CD3\02.Bobby Hebb - Sunny.wav

Peak level 96.5 %
Extraction speed 12.0 X
Track quality 100.0 %
Copy CRC 694AF29F
Track not present in AccurateRip database
Copy OK

Track 3

Filename A:\PsPBuRnOuT's MUSIC\SORTED BY YEAR\2000 PLUS\SUMMER - THE ULTIMATE COLLECTION\Summer - The Ultimate Collection - CD3\03.The Mamas & The Papas - California Dreamin'.wav

Peak level 92.6 %
Extraction speed 12.8 X
Track quality 100.0 %
Copy CRC BEEC57BE
Track not present in AccurateRip database
Copy OK

Track 4

Filename A:\PsPBuRnOuT's MUSIC\SORTED BY YEAR\2000 PLUS\SUMMER - THE ULTIMATE COLLECTION\Summer - The Ultimate Collection - CD3\04.Dusty Springfield - Son Of A Preacher Man.wav

Peak level 100.0 %
Extraction speed 11.7 X
Track quality 100.0 %
Copy CRC B927B986
Track not present in AccurateRip database
Copy OK

Track 5

Filename A:\PsPBuRnOuT's MUSIC\SORTED BY YEAR\2000 PLUS\SUMMER - THE ULTIMATE COLLECTION\Summer - The Ultimate Collection - CD3\05.Marlena Shaw - California Soul.wav

Peak level 83.1 %
Extraction speed 11.5 X
Track quality 99.8 %
Copy CRC 2D93A8B4
Track not present in AccurateRip database
Copy OK

Track 6

Filename A:\PsPBuRnOuT's MUSIC\SORTED BY YEAR\2000 PLUS\SUMMER - THE ULTIMATE COLLECTION\Summer - The Ultimate Collection - CD3\06.Kool & The Gang - Summer Madness.wav

Peak level 100.0 %
Extraction speed 14.8 X
Track quality 100.0 %
Copy CRC C73B2F49
Track not present in AccurateRip database
Copy OK

Track 7

Filename A:\PsPBuRnOuT's MUSIC\SORTED BY YEAR\2000 PLUS\SUMMER - THE ULTIMATE COLLECTION\Summer - The Ultimate Collection - CD3\07.Roy Ayers - Everybody Loves The Sunshine.wav

Peak level 88.3 %
Extraction speed 16.0 X
Track quality 100.0 %
Copy CRC ADE59044
Track not present in AccurateRip database
Copy OK

Track 8

Filename A:\PsPBuRnOuT's MUSIC\SORTED BY YEAR\2000 PLUS\SUMMER - THE ULTIMATE COLLECTION\Summer - The Ultimate Collection - CD3\08.Norman Greenbaum - Spirit In The Sky.wav

Peak level 87.4 %
Extraction speed 16.9 X
Track quality 100.0 %
Copy CRC CDF56BC4
Track not present in AccurateRip database
Copy OK

Track 9

Filename A:\PsPBuRnOuT's MUSIC\SORTED BY YEAR\2000 PLUS\SUMMER - THE ULTIMATE COLLECTION\Summer - The Ultimate Collection - CD3\09.The Troggs - Wild Thing.wav

Peak level 100.0 %
Extraction speed 17.2 X
Track quality 100.0 %
Copy CRC 107A18F4
Track not present in AccurateRip database
Copy OK

Track 10

Filename A:\PsPBuRnOuT's MUSIC\SORTED BY YEAR\2000 PLUS\SUMMER - THE ULTIMATE COLLECTION\Summer - The Ultimate Collection - CD3\10.The Flower Pot Men - Let's Go To San Francisco, Parts 1 & 2.wav

Peak level 97.7 %
Extraction speed 16.2 X
Track quality 100.0 %
Copy CRC A0871719
Track not present in AccurateRip database
Copy OK

Track 11

Filename A:\PsPBuRnOuT's MUSIC\SORTED BY YEAR\2000 PLUS\SUMMER - THE ULTIMATE COLLECTION\Summer - The Ultimate Collection - CD3\11.James Brown - I Got You (I Feel Good).wav

Peak level 92.3 %
Extraction speed 12.1 X
Track quality 99.8 %
Copy CRC 3246B0B1
Track not present in AccurateRip database
Copy OK

Track 12

Filename A:\PsPBuRnOuT's MUSIC\SORTED BY YEAR\2000 PLUS\SUMMER - THE ULTIMATE COLLECTION\Summer - The Ultimate Collection - CD3\12.The Real Thing - You To Me Are Everything.wav

Peak level 91.2 %
Extraction speed 17.0 X
Track quality 100.0 %
Copy CRC ECDBBCB8
Track not present in AccurateRip database
Copy OK

Track 13

Filename A:\PsPBuRnOuT's MUSIC\SORTED BY YEAR\2000 PLUS\SUMMER - THE ULTIMATE COLLECTION\Summer - The Ultimate Collection - CD3\13.The Whispers - It's A Love Thing.wav

Peak level 91.4 %
Extraction speed 16.4 X
Track quality 99.9 %
Copy CRC 322C252C
Track not present in AccurateRip database
Copy OK

Track 14

Filename A:\PsPBuRnOuT's MUSIC\SORTED BY YEAR\2000 PLUS\SUMMER - THE ULTIMATE COLLECTION\Summer - The Ultimate Collection - CD3\14.Blue Mink - Melting Pot.wav

Peak level 84.4 %
Extraction speed 17.8 X
Track quality 100.0 %
Copy CRC 6819799E
Track not present in AccurateRip database
Copy OK

Track 15

Filename A:\PsPBuRnOuT's MUSIC\SORTED BY YEAR\2000 PLUS\SUMMER - THE ULTIMATE COLLECTION\Summer - The Ultimate Collection - CD3\15.Martha Reeves & The Vandellas - Dancing In The Street.wav

Peak level 85.6 %
Extraction speed 20.8 X
Track quality 100.0 %
Copy CRC 0BD61136
Track not present in AccurateRip database
Copy OK

Track 16

Filename A:\PsPBuRnOuT's MUSIC\SORTED BY YEAR\2000 PLUS\SUMMER - THE ULTIMATE COLLECTION\Summer - The Ultimate Collection - CD3\16.Marvin Gaye - I Heard It Through The Grapevine.wav

Peak level 95.8 %
Extraction speed 21.5 X
Track quality 100.0 %
Copy CRC 792A9C06
Track not present in AccurateRip database
Copy OK

Track 17

Filename A:\PsPBuRnOuT's MUSIC\SORTED BY YEAR\2000 PLUS\SUMMER - THE ULTIMATE COLLECTION\Summer - The Ultimate Collection - CD3\17.The Supremes - Where Did Our Love Go.wav

Peak level 99.9 %
Extraction speed 16.0 X
Track quality 100.0 %
Copy CRC 9C1553BB
Track not present in AccurateRip database
Copy OK

Track 18

Filename A:\PsPBuRnOuT's MUSIC\SORTED BY YEAR\2000 PLUS\SUMMER - THE ULTIMATE COLLECTION\Summer - The Ultimate Collection - CD3\18.Martha Reeves & The Vandellas - Heat Wave.wav

Peak level 94.4 %
Extraction speed 11.4 X
Track quality 100.0 %
Copy CRC F02CCEF1
Track not present in AccurateRip database
Copy OK

Track 19

Filename A:\PsPBuRnOuT's MUSIC\SORTED BY YEAR\2000 PLUS\SUMMER - THE ULTIMATE COLLECTION\Summer - The Ultimate Collection - CD3\19.The Jackson 5 - I Want You Back.wav

Peak level 87.3 %
Extraction speed 15.2 X
Track quality 100.0 %
Copy CRC B21CBB68
Track not present in AccurateRip database
Copy OK

Track 20

Filename A:\PsPBuRnOuT's MUSIC\SORTED BY YEAR\2000 PLUS\SUMMER - THE ULTIMATE COLLECTION\Summer - The Ultimate Collection - CD3\20.Stan Getz, Joan Gilberto & Astrud Gilberto - The Girl From Ipanema.wav

Peak level 100.0 %
Extraction speed 15.5 X
Track quality 99.8 %
Copy CRC 0928916E
Track not present in AccurateRip database
Copy OK


None of the tracks are present in the AccurateRip database

No errors occurred

End of status report

–– CUETools DB Plugin V2.1.6

[CTDB TOCID: HXFG3QW.Js4a81szbdXfpY9xsK0-] found
Submit result: HXFG3QW.Js4a81szbdXfpY9xsK0- has been confirmed
Track | CTDB Status
1 | (2/2) Accurately ripped
2 | (2/2) Accurately ripped
3 | (2/2) Accurately ripped
4 | (2/2) Accurately ripped
5 | (2/2) Accurately ripped
6 | (2/2) Accurately ripped
7 | (2/2) Accurately ripped
8 | (2/2) Accurately ripped
9 | (2/2) Accurately ripped
10 | (2/2) Accurately ripped
11 | (2/2) Accurately ripped
12 | (2/2) Accurately ripped
13 | (2/2) Accurately ripped
14 | (2/2) Accurately ripped
15 | (2/2) Accurately ripped
16 | (2/2) Accurately ripped
17 | (2/2) Accurately ripped
18 | (2/2) Accurately ripped
19 | (2/2) Accurately ripped
20 | (2/2) Accurately ripped

Exact Audio Copy V1.3 from 2. September 2016

EAC extraction logfile from 27. July 2018, 15:38

Various / Summer - The Ultimate Collection - CD4

Used drive : HL-DT-STDVDRAM GSA-E40N Adapter: 1 ID: 1

Read mode : Secure
Utilize accurate stream : Yes
Defeat audio cache : No
Make use of C2 pointers : Yes

Read offset correction : 667
Overread into Lead-In and Lead-Out : No
Fill up missing offset samples with silence : Yes
Delete leading and trailing silent blocks : No
Null samples used in CRC calculations : Yes
Used interface : Native Win32 interface for Win NT & 2000
Gap handling : Not detected, thus appended to previous track

Used output format : User Defined Encoder
Selected bitrate : 896 kBit/s
Quality : High
Add ID3 tag : No
Command line compressor : C:\Program Files (x86)\Exact Audio Copy\FLAC\FLAC.EXE
Additional command line options : -6 -V -T "ARTIST=%artist%" -T "TITLE=%title%" -T "ALBUM=%albumtitle%" -T "DATE=%year%" -T "TRACKNUMBER=%tracknr%" -T "GENRE=%genre%" -T "COMMENT=%comment%" -T "BAND=%albuminterpret%" -T "ALBUMARTIST=%albuminterpret%" -T "COMPOSER=%composer%" %haslyrics%–tag-from-file=LYRICS="%lyricsfile%"%haslyrics% -T "DISCNUMBER=%cdnumber%" -T "TOTALDISCS=%totalcds%" -T "TOTALTRACKS=%numtracks%" %hascover%–picture="%coverfile%"%hascover% %source% -o %dest%


TOC of the extracted CD

Track | Start | Length | Start sector | End sector
––––––––––––––––––––––––––––-
1 | 0:00.00 | 3:50.31 | 0 | 17280
2 | 3:50.31 | 3:44.56 | 17281 | 34136
3 | 7:35.12 | 3:53.27 | 34137 | 51638
4 | 11:28.39 | 4:38.56 | 51639 | 72544
5 | 16:07.20 | 5:51.56 | 72545 | 98925
6 | 21:59.01 | 4:27.20 | 98926 | 118970
7 | 26:26.21 | 4:05.24 | 118971 | 137369
8 | 30:31.45 | 3:56.65 | 137370 | 155134
9 | 34:28.35 | 3:04.03 | 155135 | 168937
10 | 37:32.38 | 2:43.08 | 168938 | 181170
11 | 40:15.46 | 4:04.26 | 181171 | 199496
12 | 44:19.72 | 4:03.05 | 199497 | 217726
13 | 48:23.02 | 3:33.55 | 217727 | 233756
14 | 51:56.57 | 3:59.15 | 233757 | 251696
15 | 55:55.72 | 3:52.01 | 251697 | 269097
16 | 59:47.73 | 4:41.22 | 269098 | 290194
17 | 64:29.20 | 3:42.17 | 290195 | 306861
18 | 68:11.37 | 3:41.46 | 306862 | 323482
19 | 71:53.08 | 3:36.40 | 323483 | 339722
20 | 75:29.48 | 3:29.60 | 339723 | 355457


Track 1

Filename A:\PsPBuRnOuT's MUSIC\SORTED BY YEAR\2000 PLUS\SUMMER - THE ULTIMATE COLLECTION\Summer - The Ultimate Collection - CD4\01.Nelly - Hot In Herre.wav

Peak level 99.4 %
Extraction speed 9.2 X
Track quality 99.7 %
Copy CRC 45C37693
Track not present in AccurateRip database
Copy OK

Track 2

Filename A:\PsPBuRnOuT's MUSIC\SORTED BY YEAR\2000 PLUS\SUMMER - THE ULTIMATE COLLECTION\Summer - The Ultimate Collection - CD4\02.Shaggy Feat. Rayvon - In The Summertime.wav

Peak level 99.8 %
Extraction speed 16.3 X
Track quality 100.0 %
Copy CRC 40E201CC
Track not present in AccurateRip database
Copy OK

Track 3

Filename A:\PsPBuRnOuT's MUSIC\SORTED BY YEAR\2000 PLUS\SUMMER - THE ULTIMATE COLLECTION\Summer - The Ultimate Collection - CD4\03.Bob Marley Vs. Funkstar De Luxe - Sun Is Shining.wav

Peak level 100.0 %
Extraction speed 17.4 X
Track quality 100.0 %
Copy CRC EDA70497
Track not present in AccurateRip database
Copy OK

Track 4

Filename A:\PsPBuRnOuT's MUSIC\SORTED BY YEAR\2000 PLUS\SUMMER - THE ULTIMATE COLLECTION\Summer - The Ultimate Collection - CD4\04.Moloko - Sing It Back (Boris Musical Mix Edit).wav

Peak level 87.3 %
Extraction speed 17.3 X
Track quality 100.0 %
Copy CRC 74B7A942
Track not present in AccurateRip database
Copy OK

Track 5

Filename A:\PsPBuRnOuT's MUSIC\SORTED BY YEAR\2000 PLUS\SUMMER - THE ULTIMATE COLLECTION\Summer - The Ultimate Collection - CD4\05.Ultra Nate - Free.wav

Peak level 98.8 %
Extraction speed 18.7 X
Track quality 100.0 %
Copy CRC A9FA5B21
Track not present in AccurateRip database
Copy OK

Track 6

Filename A:\PsPBuRnOuT's MUSIC\SORTED BY YEAR\2000 PLUS\SUMMER - THE ULTIMATE COLLECTION\Summer - The Ultimate Collection - CD4\06.Gabrielle - Sunshine (Wookie Remix).wav

Peak level 100.0 %
Extraction speed 19.6 X
Track quality 100.0 %
Copy CRC 792FC149
Track not present in AccurateRip database
Copy OK

Track 7

Filename A:\PsPBuRnOuT's MUSIC\SORTED BY YEAR\2000 PLUS\SUMMER - THE ULTIMATE COLLECTION\Summer - The Ultimate Collection - CD4\07.Arrested Development - People Everyday.wav

Peak level 100.0 %
Extraction speed 20.3 X
Track quality 100.0 %
Copy CRC 3E48100E
Track not present in AccurateRip database
Copy OK

Track 8

Filename A:\PsPBuRnOuT's MUSIC\SORTED BY YEAR\2000 PLUS\SUMMER - THE ULTIMATE COLLECTION\Summer - The Ultimate Collection - CD4\08.Omar - There's Nothing Like This.wav

Peak level 100.0 %
Extraction speed 23.3 X
Track quality 100.0 %
Copy CRC E48F23B3
Track not present in AccurateRip database
Copy OK

Track 9

Filename A:\PsPBuRnOuT's MUSIC\SORTED BY YEAR\2000 PLUS\SUMMER - THE ULTIMATE COLLECTION\Summer - The Ultimate Collection - CD4\09.Dodgy - Staying Out For The Summer.wav

Peak level 95.3 %
Extraction speed 21.3 X
Track quality 100.0 %
Copy CRC DA65FE48
Track not present in AccurateRip database
Copy OK

Track 10

Filename A:\PsPBuRnOuT's MUSIC\SORTED BY YEAR\2000 PLUS\SUMMER - THE ULTIMATE COLLECTION\Summer - The Ultimate Collection - CD4\10.The LA's - There She Goes.wav

Peak level 100.0 %
Extraction speed 21.2 X
Track quality 100.0 %
Copy CRC 6DD02233
Track not present in AccurateRip database
Copy OK

Track 11

Filename A:\PsPBuRnOuT's MUSIC\SORTED BY YEAR\2000 PLUS\SUMMER - THE ULTIMATE COLLECTION\Summer - The Ultimate Collection - CD4\11.James - Sit Down.wav

Peak level 98.8 %
Extraction speed 22.3 X
Track quality 100.0 %
Copy CRC A6ACF29A
Track not present in AccurateRip database
Copy OK

Track 12

Filename A:\PsPBuRnOuT's MUSIC\SORTED BY YEAR\2000 PLUS\SUMMER - THE ULTIMATE COLLECTION\Summer - The Ultimate Collection - CD4\12.Texas - Summer Son.wav

Peak level 95.6 %
Extraction speed 23.5 X
Track quality 100.0 %
Copy CRC 1F5BB4A1
Track not present in AccurateRip database
Copy OK

Track 13

Filename A:\PsPBuRnOuT's MUSIC\SORTED BY YEAR\2000 PLUS\SUMMER - THE ULTIMATE COLLECTION\Summer - The Ultimate Collection - CD4\13.Bastille - Pompeii.wav

Peak level 98.9 %
Extraction speed 23.2 X
Track quality 100.0 %
Copy CRC C49CEE8D
Track not present in AccurateRip database
Copy OK

Track 14

Filename A:\PsPBuRnOuT's MUSIC\SORTED BY YEAR\2000 PLUS\SUMMER - THE ULTIMATE COLLECTION\Summer - The Ultimate Collection - CD4\14.Hanson - MMMBop.wav

Peak level 100.0 %
Extraction speed 24.5 X
Track quality 100.0 %
Copy CRC 5BE136BD
Track not present in AccurateRip database
Copy OK

Track 15

Filename A:\PsPBuRnOuT's MUSIC\SORTED BY YEAR\2000 PLUS\SUMMER - THE ULTIMATE COLLECTION\Summer - The Ultimate Collection - CD4\15.Pato Banton, Ali & Robin Campbell & The Reggae Revolution - Baby Come Back.wav

Peak level 93.3 %
Extraction speed 28.1 X
Track quality 100.0 %
Copy CRC 6C876D6B
Track not present in AccurateRip database
Copy OK

Track 16

Filename A:\PsPBuRnOuT's MUSIC\SORTED BY YEAR\2000 PLUS\SUMMER - THE ULTIMATE COLLECTION\Summer - The Ultimate Collection - CD4\16.New Radicals - You Get What You Give.wav

Peak level 98.3 %
Extraction speed 26.4 X
Track quality 100.0 %
Copy CRC BC5E9091
Track not present in AccurateRip database
Copy OK

Track 17

Filename A:\PsPBuRnOuT's MUSIC\SORTED BY YEAR\2000 PLUS\SUMMER - THE ULTIMATE COLLECTION\Summer - The Ultimate Collection - CD4\17.Babybird - You're Gorgeous.wav

Peak level 100.0 %
Extraction speed 29.5 X
Track quality 100.0 %
Copy CRC D21087B3
Track not present in AccurateRip database
Copy OK

Track 18

Filename A:\PsPBuRnOuT's MUSIC\SORTED BY YEAR\2000 PLUS\SUMMER - THE ULTIMATE COLLECTION\Summer - The Ultimate Collection - CD4\18.D'Influence - Rock With You.wav

Peak level 99.5 %
Extraction speed 31.0 X
Track quality 100.0 %
Copy CRC 7DE761EF
Track not present in AccurateRip database
Copy OK

Track 19

Filename A:\PsPBuRnOuT's MUSIC\SORTED BY YEAR\2000 PLUS\SUMMER - THE ULTIMATE COLLECTION\Summer - The Ultimate Collection - CD4\19.Daddy's Groove Feat. Little Nancy - It's Not Right, But It's Okay.wav

Peak level 74.9 %
Extraction speed 27.2 X
Track quality 100.0 %
Copy CRC 949855B7
Track not present in AccurateRip database
Copy OK

Track 20

Filename A:\PsPBuRnOuT's MUSIC\SORTED BY YEAR\2000 PLUS\SUMMER - THE ULTIMATE COLLECTION\Summer - The Ultimate Collection - CD4\20.Wookie Feat. Eliza Doolittle - The Hype.wav

Peak level 100.0 %
Extraction speed 31.1 X
Track quality 100.0 %
Copy CRC 6B7131FF
Track not present in AccurateRip database
Copy OK


None of the tracks are present in the AccurateRip database

No errors occurred

End of status report

–– CUETools DB Plugin V2.1.6

[CTDB TOCID: P9urk6LxTUlFpbgJvfiZBCXpvTI-] found
Submit result: P9urk6LxTUlFpbgJvfiZBCXpvTI- has been confirmed
Track | CTDB Status
1 | (2/2) Accurately ripped
2 | (2/2) Accurately ripped
3 | (2/2) Accurately ripped
4 | (2/2) Accurately ripped
5 | (2/2) Accurately ripped
6 | (2/2) Accurately ripped
7 | (2/2) Accurately ripped
8 | (2/2) Accurately ripped
9 | (2/2) Accurately ripped
10 | (2/2) Accurately ripped
11 | (2/2) Accurately ripped
12 | (2/2) Accurately ripped
13 | (2/2) Accurately ripped
14 | (2/2) Accurately ripped
15 | (2/2) Accurately ripped
16 | (2/2) Accurately ripped
17 | (2/2) Accurately ripped
18 | (2/2) Accurately ripped
19 | (2/2) Accurately ripped
20 | (2/2) Accurately ripped

Exact Audio Copy V1.3 from 2. September 2016

EAC extraction logfile from 27. July 2018, 16:16

Various / Summer - The Ultimate Collection - CD5

Used drive : HL-DT-STDVDRAM GSA-E40N Adapter: 1 ID: 1

Read mode : Secure
Utilize accurate stream : Yes
Defeat audio cache : No
Make use of C2 pointers : Yes

Read offset correction : 667
Overread into Lead-In and Lead-Out : No
Fill up missing offset samples with silence : Yes
Delete leading and trailing silent blocks : No
Null samples used in CRC calculations : Yes
Used interface : Native Win32 interface for Win NT & 2000
Gap handling : Not detected, thus appended to previous track

Used output format : User Defined Encoder
Selected bitrate : 896 kBit/s
Quality : High
Add ID3 tag : No
Command line compressor : C:\Program Files (x86)\Exact Audio Copy\FLAC\FLAC.EXE
Additional command line options : -6 -V -T "ARTIST=%artist%" -T "TITLE=%title%" -T "ALBUM=%albumtitle%" -T "DATE=%year%" -T "TRACKNUMBER=%tracknr%" -T "GENRE=%genre%" -T "COMMENT=%comment%" -T "BAND=%albuminterpret%" -T "ALBUMARTIST=%albuminterpret%" -T "COMPOSER=%composer%" %haslyrics%–tag-from-file=LYRICS="%lyricsfile%"%haslyrics% -T "DISCNUMBER=%cdnumber%" -T "TOTALDISCS=%totalcds%" -T "TOTALTRACKS=%numtracks%" %hascover%–picture="%coverfile%"%hascover% %source% -o %dest%


TOC of the extracted CD

Track | Start | Length | Start sector | End sector
––––––––––––––––––––––––––––-
1 | 0:00.00 | 3:54.30 | 0 | 17579
2 | 3:54.30 | 3:19.36 | 17580 | 32540
3 | 7:13.66 | 3:33.19 | 32541 | 48534
4 | 10:47.10 | 3:34.63 | 48535 | 64647
5 | 14:21.73 | 4:04.07 | 64648 | 82954
6 | 18:26.05 | 3:50.32 | 82955 | 100236
7 | 22:16.37 | 3:44.02 | 100237 | 117038
8 | 26:00.39 | 3:30.04 | 117039 | 132792
9 | 29:30.43 | 3:38.66 | 132793 | 149208
10 | 33:09.34 | 3:15.64 | 149209 | 163897
11 | 36:25.23 | 3:57.12 | 163898 | 181684
12 | 40:22.35 | 3:30.65 | 181685 | 197499
13 | 43:53.25 | 4:13.03 | 197500 | 216477
14 | 48:06.28 | 3:14.24 | 216478 | 231051
15 | 51:20.52 | 3:19.72 | 231052 | 246048
16 | 54:40.49 | 3:51.39 | 246049 | 263412
17 | 58:32.13 | 2:42.20 | 263413 | 275582
18 | 61:14.33 | 3:37.23 | 275583 | 291880
19 | 64:51.56 | 3:21.72 | 291881 | 307027
20 | 68:13.53 | 4:49.17 | 307028 | 328719


Track 1

Filename A:\PsPBuRnOuT's MUSIC\SORTED BY YEAR\2000 PLUS\SUMMER - THE ULTIMATE COLLECTION\Summer - The Ultimate Collection - CD5\01.Maroon 5 - Sugar.wav

Peak level 100.0 %
Extraction speed 10.2 X
Track quality 100.0 %
Copy CRC C9E364BF
Track not present in AccurateRip database
Copy OK

Track 2

Filename A:\PsPBuRnOuT's MUSIC\SORTED BY YEAR\2000 PLUS\SUMMER - THE ULTIMATE COLLECTION\Summer - The Ultimate Collection - CD5\02.Justin Bieber - Sorry.wav

Peak level 89.0 %
Extraction speed 10.1 X
Track quality 99.8 %
Copy CRC 8891ADD9
Track not present in AccurateRip database
Copy OK

Track 3

Filename A:\PsPBuRnOuT's MUSIC\SORTED BY YEAR\2000 PLUS\SUMMER - THE ULTIMATE COLLECTION\Summer - The Ultimate Collection - CD5\03.Demi Lovato - Cool For The Summer.wav

Peak level 94.3 %
Extraction speed 12.8 X
Track quality 100.0 %
Copy CRC B78B53E5
Track not present in AccurateRip database
Copy OK

Track 4

Filename A:\PsPBuRnOuT's MUSIC\SORTED BY YEAR\2000 PLUS\SUMMER - THE ULTIMATE COLLECTION\Summer - The Ultimate Collection - CD5\04.Lana Del Rey Vs. Cedric Gervais - Summertime Sadness.wav

Peak level 84.7 %
Extraction speed 13.9 X
Track quality 100.0 %
Copy CRC 9695B5A2
Track not present in AccurateRip database
Copy OK

Track 5

Filename A:\PsPBuRnOuT's MUSIC\SORTED BY YEAR\2000 PLUS\SUMMER - THE ULTIMATE COLLECTION\Summer - The Ultimate Collection - CD5\05.Avicii - Wake Me Up.wav

Peak level 100.0 %
Extraction speed 12.7 X
Track quality 99.9 %
Copy CRC E3D31AB4
Track not present in AccurateRip database
Copy OK

Track 6

Filename A:\PsPBuRnOuT's MUSIC\SORTED BY YEAR\2000 PLUS\SUMMER - THE ULTIMATE COLLECTION\Summer - The Ultimate Collection - CD5\06.Ellie Goulding - Burn.wav

Peak level 87.0 %
Extraction speed 15.3 X
Track quality 100.0 %
Copy CRC 0D5C81D8
Track not present in AccurateRip database
Copy OK

Track 7

Filename A:\PsPBuRnOuT's MUSIC\SORTED BY YEAR\2000 PLUS\SUMMER - THE ULTIMATE COLLECTION\Summer - The Ultimate Collection - CD5\07.Ariana Grande Feat. Nicki Minaj - Side To Side.wav

Peak level 99.8 %
Extraction speed 13.9 X
Track quality 99.9 %
Copy CRC B1E910F7
Track not present in AccurateRip database
Copy OK

Track 8

Filename A:\PsPBuRnOuT's MUSIC\SORTED BY YEAR\2000 PLUS\SUMMER - THE ULTIMATE COLLECTION\Summer - The Ultimate Collection - CD5\08.Nicki Minaj - Starships.wav

Peak level 89.0 %
Extraction speed 16.6 X
Track quality 100.0 %
Copy CRC 8FDDFA18
Track not present in AccurateRip database
Copy OK

Track 9

Filename A:\PsPBuRnOuT's MUSIC\SORTED BY YEAR\2000 PLUS\SUMMER - THE ULTIMATE COLLECTION\Summer - The Ultimate Collection - CD5\09.Dizzee Rascal - Holiday.wav

Peak level 89.1 %
Extraction speed 16.2 X
Track quality 100.0 %
Copy CRC D6411F29
Track not present in AccurateRip database
Copy OK

Track 10

Filename A:\PsPBuRnOuT's MUSIC\SORTED BY YEAR\2000 PLUS\SUMMER - THE ULTIMATE COLLECTION\Summer - The Ultimate Collection - CD5\10.Gorgon City Feat. MNEK - Ready For Your Love.wav

Peak level 99.0 %
Extraction speed 12.8 X
Track quality 99.8 %
Copy CRC 20F473F9
Track not present in AccurateRip database
Copy OK

Track 11

Filename A:\PsPBuRnOuT's MUSIC\SORTED BY YEAR\2000 PLUS\SUMMER - THE ULTIMATE COLLECTION\Summer - The Ultimate Collection - CD5\11.Lady Gaga - Poker Face.wav

Peak level 99.9 %
Extraction speed 12.9 X
Track quality 99.8 %
Copy CRC 7611F647
Track not present in AccurateRip database
Copy OK

Track 12

Filename A:\PsPBuRnOuT's MUSIC\SORTED BY YEAR\2000 PLUS\SUMMER - THE ULTIMATE COLLECTION\Summer - The Ultimate Collection - CD5\12.Swedish House Mafia Feat. John Martin - Don't You Worry Child.wav

Peak level 89.1 %
Extraction speed 14.7 X
Track quality 99.9 %
Copy CRC 5CE17672
Track not present in AccurateRip database
Copy OK

Track 13

Filename A:\PsPBuRnOuT's MUSIC\SORTED BY YEAR\2000 PLUS\SUMMER - THE ULTIMATE COLLECTION\Summer - The Ultimate Collection - CD5\13.Kiesza - Hideaway.wav

Peak level 100.0 %
Extraction speed 17.2 X
Track quality 99.9 %
Copy CRC 2DB3ED3A
Track not present in AccurateRip database
Copy OK

Track 14

Filename A:\PsPBuRnOuT's MUSIC\SORTED BY YEAR\2000 PLUS\SUMMER - THE ULTIMATE COLLECTION\Summer - The Ultimate Collection - CD5\14.Mike Posner - I Took A Pill In Ibiza.wav

Peak level 88.1 %
Extraction speed 16.2 X
Track quality 99.8 %
Copy CRC EFAA1BDD
Track not present in AccurateRip database
Copy OK

Track 15

Filename A:\PsPBuRnOuT's MUSIC\SORTED BY YEAR\2000 PLUS\SUMMER - THE ULTIMATE COLLECTION\Summer - The Ultimate Collection - CD5\15.Jennifer Lopez - I'm Into You.wav

Peak level 94.4 %
Extraction speed 18.2 X
Track quality 100.0 %
Copy CRC 661CF775
Track not present in AccurateRip database
Copy OK

Track 16

Filename A:\PsPBuRnOuT's MUSIC\SORTED BY YEAR\2000 PLUS\SUMMER - THE ULTIMATE COLLECTION\Summer - The Ultimate Collection - CD5\16.Nina Sky - Move Ya Body.wav

Peak level 94.4 %
Extraction speed 19.4 X
Track quality 100.0 %
Copy CRC 7128FDF0
Track not present in AccurateRip database
Copy OK

Track 17

Filename A:\PsPBuRnOuT's MUSIC\SORTED BY YEAR\2000 PLUS\SUMMER - THE ULTIMATE COLLECTION\Summer - The Ultimate Collection - CD5\17.Fatman Scoop Feat. Crooklyn Clan - Be Faithful.wav

Peak level 100.0 %
Extraction speed 22.1 X
Track quality 100.0 %
Copy CRC 5C7C4BB2
Track not present in AccurateRip database
Copy OK

Track 18

Filename A:\PsPBuRnOuT's MUSIC\SORTED BY YEAR\2000 PLUS\SUMMER - THE ULTIMATE COLLECTION\Summer - The Ultimate Collection - CD5\18.Ms. Dynamite - Dy-Na-Mi-Tee.wav

Peak level 100.0 %
Extraction speed 18.5 X
Track quality 99.9 %
Copy CRC 07405974
Track not present in AccurateRip database
Copy OK

Track 19

Filename A:\PsPBuRnOuT's MUSIC\SORTED BY YEAR\2000 PLUS\SUMMER - THE ULTIMATE COLLECTION\Summer - The Ultimate Collection - CD5\19.Wild Culture Vs. Karmin - Sugar.wav

Peak level 96.7 %
Extraction speed 19.5 X
Track quality 100.0 %
Copy CRC 6EB4D41F
Track not present in AccurateRip database
Copy OK

Track 20

Filename A:\PsPBuRnOuT's MUSIC\SORTED BY YEAR\2000 PLUS\SUMMER - THE ULTIMATE COLLECTION\Summer - The Ultimate Collection - CD5\20.The Black Eyed Peas - I Gotta Feeling.wav

Peak level 100.0 %
Extraction speed 22.2 X
Track quality 100.0 %
Copy CRC 266F569B
Track not present in AccurateRip database
Copy OK


None of the tracks are present in the AccurateRip database

No errors occurred

End of status report

–– CUETools DB Plugin V2.1.6

[CTDB TOCID: ExsTvWAfBw7jCH3i5fa.kKUVfFE-] found
Submit result: ExsTvWAfBw7jCH3i5fa.kKUVfFE- has been confirmed
Track | CTDB Status
1 | (2/2) Accurately ripped
2 | (2/2) Accurately ripped
3 | (2/2) Accurately ripped
4 | (2/2) Accurately ripped
5 | (2/2) Accurately ripped
6 | (2/2) Accurately ripped
7 | (2/2) Accurately ripped
8 | (2/2) Accurately ripped
9 | (2/2) Accurately ripped
10 | (2/2) Accurately ripped
11 | (2/2) Accurately ripped
12 | (2/2) Accurately ripped
13 | (2/2) Accurately ripped
14 | (2/2) Accurately ripped
15 | (2/2) Accurately ripped
16 | (2/2) Accurately ripped
17 | (2/2) Accurately ripped
18 | (2/2) Accurately ripped
19 | (2/2) Accurately ripped
20 | (2/2) Accurately ripped