Subcategories

VA - The Great Gatsby: Music From Baz Luhrmann's Film (2013) Deluxe Edition

Posted By: Efgrapha
VA - The Great Gatsby: Music From Baz Luhrmann's Film (2013) Deluxe Edition

VA - The Great Gatsby: Music From Baz Luhrmann's Film (2013) Deluxe Edition
XLD | FLAC (Tracks) + cue.+log ~ 483 Mb | Mp3, CBR320 kbps ~ 189 Mb | Scans included
Soundtrack, Pop Rock, Pop, R&B, Rap | Label: Interscope | # B0018359-02 | Time: 01:12:42

Original soundtrack to the 2013 motion picture directed by Baz Luhrman. The soundtrack features songs performed by Jay-Z, Beyonce & Andre 3000, Gotye, Jack White, Sia, Florence & The Machine, Lana Del Rey and many others. The film is an adaptation of F. Scott Fitzgerald's Long Island-set novel, where Midwesterner Nick Carraway is lured into the lavish world of his neighbor, Jay Gatsby. Soon enough, however, Carraway will see through the cracks of Gatsby's nouveau riche existence, where obsession, madness, and tragedy await. Deluxe Edition includes 3 Bonus Tracks and dialogue from the film.

After collecting a reverent and respectful collection of song's for his 2008 film Australia, The Great Gatsby is an opportunity for director Baz Luhrmann to get back to the glitz, garish, and campy ways that made his earlier soundtracks Romeo + Juliet and Moulin Rouge such delights. What made them delicious was how smart and savvy they were under all that glittery make-up. With Jay-Z and the Bullitts as executive producers, Luhrmann's soundtrack to his lavish adaptation of F. Scott Fitzgerald's famous 1925 novel is smart, savvy, and more than just a Jazz Age-meets-iPod Age mash-up, although sometimes, it is just the latter, like when will.i.am makes the Charleston flappers go electro with his entirely obvious and irresistibly fun "Bang Bang." Cute to hear Bryan Ferry doing the Roxy Music rag with his "and the Orchestra"'s take on "Love Is the Drug", and while the Fergie, Q-Tip, and GoonRock cut called "A Little Party Never Killed Nobody (All We Got)" is the film's fireworks exploding with posterity, decadence, and disco, many of the soundtrack's meatier cuts are post-explosion and post-paradise. Meatiest and most surprising has to be the Lana Del Rey and Luhrmann composition "Young and Beautiful" ("Will you still love me when I have nothing but my aching soul?"), but Fitzgerald fans could make a case for the tortured and "green light"-referencing "Over the Love" from Florence + the Machine. Elsewhere, there's Beyoncé and André 3000's icy cold reading of Amy Winehouse's "Back to Black," the xx offering intimate and indie chamber music with "Together," and Sia's wonderful closer "Kill and Run," an elegant ballad which is tossed about the sea before it crashes on the rocks. Buying into Luhrmann's vision is always the issue, but here, the music is crafted enough, inspired enough, and deep enough that it's worth diving into without reservations. Luckily, you can wring all that disappointment and despair out of your fine, stylish suit after surfacing.

Review by David Jeffries, Allmusic.com

VA - The Great Gatsby: Music From Baz Luhrmann's Film (2013) Deluxe Edition

VA - The Great Gatsby: Music From Baz Luhrmann's Film (2013) Deluxe Edition

VA - The Great Gatsby: Music From Baz Luhrmann's Film (2013) Deluxe Edition



Tracklist:

01. Jay‐Z - 100$ Bill (03:20)
02. Beyoncé & André 3000 - Back to Black (03:21)
03. Lana Del Rey - Young and Beautiful (03:56)
04. Jack White - Love Is Blindness (03:18)
05. Emeli Sandé & The Bryan Ferry Orchestra - Crazy in Love (Kid Koala version) (03:08)
06. will.i.am - Bang Bang (04:39)
07. Elizabeth Debicki - "I Like Large Parties" (00:09)
08. Fergie, Q-Tip & GoonRock - A Little Party Never Killed Nobody (All We Got) (04:00)
09. Bryan Ferry & The Bryan Ferry Orchestra - Love Is the Drug (02:41)
10. Leonardo DiCaprio & Tobey Maguire - "Can't Repeat the Past?" (00:08)
11. Gotye - Hearts a Mess (06:04)
12. Coco O - Where the Wind Blows (03:50)
13. Green Light - Green Light (00:07)
14. Jay‐Z, Kanye West - No Church in the Wild feat. Frank Ocean & The-Dream (04:32)
15. Florence + the Machine - Over the Love (04:21)
16. The xx - Together (05:25)
17. Nero - Into the Past (05:17)
18. Sia - Kill and Run (03:35)
19. Florence + the Machine & SBTRKT - Over the Love (of You) (02:59)
20. Lana Del Rey - Young and Beautiful (DH Orchestral Version) (03:51)
21. Tobey Maguire & Craig Armstrong - "Gatsby Believed in the Green Light" (03:52)


X Lossless Decoder version 20130602 (143.2)

XLD extraction logfile from 2013-06-15 02:13:42 -0400

Various Artists / Music From Baz Luhrmann's Film the Great Gatsby (Deluxe Edition)

Used drive : MATSHITA DVD-R UJ-898 (revision HC10)
Media type : Pressed CD

Ripper mode : XLD Secure Ripper
Disable audio cache : OK for the drive with a cache less than 1375KiB
Make use of C2 pointers : NO
Read offset correction : 102
Max retry count : 20
Gap status : Analyzed, Appended (except HTOA)

TOC of the extracted CD
Track | Start | Length | Start sector | End sector
––––––––––––––––––––––––––––-
1 | 00:00:00 | 03:20:49 | 0 | 15048
2 | 03:20:49 | 03:21:23 | 15049 | 30146
3 | 06:41:72 | 03:56:02 | 30147 | 47848
4 | 10:37:74 | 03:18:01 | 47849 | 62699
5 | 13:56:00 | 03:08:34 | 62700 | 76833
6 | 17:04:34 | 04:39:03 | 76834 | 97761
7 | 21:43:37 | 00:09:34 | 97762 | 98470
8 | 21:52:71 | 04:00:68 | 98471 | 116538
9 | 25:53:64 | 02:41:48 | 116539 | 128661
10 | 28:35:37 | 00:08:67 | 128662 | 129328
11 | 28:44:29 | 06:04:35 | 129329 | 156663
12 | 34:48:64 | 03:50:48 | 156664 | 173961
13 | 38:39:37 | 00:07:41 | 173962 | 174527
14 | 38:47:03 | 04:32:39 | 174528 | 194966
15 | 43:19:42 | 04:21:02 | 194967 | 214543
16 | 47:40:44 | 05:25:72 | 214544 | 238990
17 | 53:06:41 | 05:17:26 | 238991 | 262791
18 | 58:23:67 | 03:35:61 | 262792 | 278977
19 | 61:59:53 | 02:59:31 | 278978 | 292433
20 | 64:59:09 | 03:51:40 | 292434 | 309798
21 | 68:50:49 | 03:52:22 | 309799 | 327220

AccurateRip Summary (DiscID: 00344f7e-032746f1-01110a15)
Track 01 : OK (v2, confidence 1/1)
Track 02 : OK (v2, confidence 1/1)
Track 03 : OK (v2, confidence 1/1)
Track 04 : OK (v2, confidence 1/1)
Track 05 : OK (v2, confidence 1/1)
Track 06 : OK (v2, confidence 1/1)
Track 07 : OK (v2, confidence 1/1)
Track 08 : OK (v2, confidence 1/1)
Track 09 : OK (v2, confidence 1/1)
Track 10 : OK (v2, confidence 1/1)
Track 11 : OK (v2, confidence 1/1)
Track 12 : OK (v2, confidence 1/1)
Track 13 : OK (v2, confidence 1/1)
Track 14 : OK (v2, confidence 1/1)
Track 15 : OK (v2, confidence 1/1)
Track 16 : OK (v2, confidence 1/1)
Track 17 : OK (v2, confidence 1/1)
Track 18 : OK (v2, confidence 1/1)
Track 19 : OK (v2, confidence 1/1)
Track 20 : OK (v2, confidence 1/1)
Track 21 : OK (v2, confidence 1/1)
->All tracks accurately ripped.

All Tracks
Album gain : -9.98 dB
Peak : 1.000000
Statistics
Read error : 0
Jitter error (maybe fixed) : 0
Retry sector count : 0
Damaged sector count : 0

Track 01
Filename : /Users/aaziz/Desktop/Music From Baz Luhrmann's Film The Great Gatsby (Deluxe Edition)/Various Artists - Music From Baz Luhrmann's Film the Great Gatsby (Deluxe Edition) (2013) [FLAC]/01 100$ Bill.flac
Pre-gap length : 00:02:00

Track gain : -11.94 dB
Peak : 0.988586
CRC32 hash (test run) : 21C851E5
CRC32 hash : 21C851E5
CRC32 hash (skip zero) : 66A7824F
AccurateRip v1 signature : DD4B00C1
AccurateRip v2 signature : 100AA1AA
->Accurately ripped (v2, confidence 1/1)
Statistics
Read error : 0
Jitter error (maybe fixed) : 0
Retry sector count : 0
Damaged sector count : 0

Track 02
Filename : /Users/aaziz/Desktop/Music From Baz Luhrmann's Film The Great Gatsby (Deluxe Edition)/Various Artists - Music From Baz Luhrmann's Film the Great Gatsby (Deluxe Edition) (2013) [FLAC]/02 Back to Black.flac

Track gain : -8.61 dB
Peak : 0.988586
CRC32 hash (test run) : B4CCC7D1
CRC32 hash : B4CCC7D1
CRC32 hash (skip zero) : C40AA8A0
AccurateRip v1 signature : 8017546D
AccurateRip v2 signature : 106D06DC
->Accurately ripped (v2, confidence 1/1)
Statistics
Read error : 0
Jitter error (maybe fixed) : 0
Retry sector count : 0
Damaged sector count : 0

Track 03
Filename : /Users/aaziz/Desktop/Music From Baz Luhrmann's Film The Great Gatsby (Deluxe Edition)/Various Artists - Music From Baz Luhrmann's Film the Great Gatsby (Deluxe Edition) (2013) [FLAC]/03 Young and Beautiful.flac

Track gain : -7.18 dB
Peak : 1.000000
CRC32 hash (test run) : F4226DC5
CRC32 hash : F4226DC5
CRC32 hash (skip zero) : 80F79E3F
AccurateRip v1 signature : D8AF054B
AccurateRip v2 signature : 0DA2FB62
->Accurately ripped (v2, confidence 1/1)
Statistics
Read error : 0
Jitter error (maybe fixed) : 0
Retry sector count : 0
Damaged sector count : 0

Track 04
Filename : /Users/aaziz/Desktop/Music From Baz Luhrmann's Film The Great Gatsby (Deluxe Edition)/Various Artists - Music From Baz Luhrmann's Film the Great Gatsby (Deluxe Edition) (2013) [FLAC]/04 Love Is Blindness.flac

Track gain : -12.09 dB
Peak : 0.988586
CRC32 hash (test run) : 4164098E
CRC32 hash : 4164098E
CRC32 hash (skip zero) : AD0E9075
AccurateRip v1 signature : B0D2860D
AccurateRip v2 signature : 4161B4D2
->Accurately ripped (v2, confidence 1/1)
Statistics
Read error : 0
Jitter error (maybe fixed) : 0
Retry sector count : 0
Damaged sector count : 0

Track 05
Filename : /Users/aaziz/Desktop/Music From Baz Luhrmann's Film The Great Gatsby (Deluxe Edition)/Various Artists - Music From Baz Luhrmann's Film the Great Gatsby (Deluxe Edition) (2013) [FLAC]/05 Crazy in Love (Kid Koala version).flac

Track gain : -9.67 dB
Peak : 0.988586
CRC32 hash (test run) : 8132FF64
CRC32 hash : 8132FF64
CRC32 hash (skip zero) : 691C5151
AccurateRip v1 signature : 08261376
AccurateRip v2 signature : A3D082B1
->Accurately ripped (v2, confidence 1/1)
Statistics
Read error : 0
Jitter error (maybe fixed) : 0
Retry sector count : 0
Damaged sector count : 0

Track 06
Filename : /Users/aaziz/Desktop/Music From Baz Luhrmann's Film The Great Gatsby (Deluxe Edition)/Various Artists - Music From Baz Luhrmann's Film the Great Gatsby (Deluxe Edition) (2013) [FLAC]/06 Bang Bang.flac

Track gain : -7.28 dB
Peak : 0.989532
CRC32 hash (test run) : 30A0264A
CRC32 hash : 30A0264A
CRC32 hash (skip zero) : 71C4B129
AccurateRip v1 signature : EA5E5B10
AccurateRip v2 signature : BAD7E53E
->Accurately ripped (v2, confidence 1/1)
Statistics
Read error : 0
Jitter error (maybe fixed) : 0
Retry sector count : 0
Damaged sector count : 0

Track 07
Filename : /Users/aaziz/Desktop/Music From Baz Luhrmann's Film The Great Gatsby (Deluxe Edition)/Various Artists - Music From Baz Luhrmann's Film the Great Gatsby (Deluxe Edition) (2013) [FLAC]/07 "I Like Large Parties".flac

Track gain : -1.48 dB
Peak : 0.662445
CRC32 hash (test run) : 78BC0337
CRC32 hash : 78BC0337
CRC32 hash (skip zero) : 2F868EF4
AccurateRip v1 signature : F3055BC4
AccurateRip v2 signature : 1F9C6D64
->Accurately ripped (v2, confidence 1/1)
Statistics
Read error : 0
Jitter error (maybe fixed) : 0
Retry sector count : 0
Damaged sector count : 0

Track 08
Filename : /Users/aaziz/Desktop/Music From Baz Luhrmann's Film The Great Gatsby (Deluxe Edition)/Various Artists - Music From Baz Luhrmann's Film the Great Gatsby (Deluxe Edition) (2013) [FLAC]/08 A Little Party Never Killed Nobody (All We Got).flac

Track gain : -9.30 dB
Peak : 0.988586
CRC32 hash (test run) : B857A88E
CRC32 hash : B857A88E
CRC32 hash (skip zero) : F293B3FC
AccurateRip v1 signature : B7A0E9DE
AccurateRip v2 signature : AF5AF71D
->Accurately ripped (v2, confidence 1/1)
Statistics
Read error : 0
Jitter error (maybe fixed) : 0
Retry sector count : 0
Damaged sector count : 0

Track 09
Filename : /Users/aaziz/Desktop/Music From Baz Luhrmann's Film The Great Gatsby (Deluxe Edition)/Various Artists - Music From Baz Luhrmann's Film the Great Gatsby (Deluxe Edition) (2013) [FLAC]/09 Love Is the Drug.flac

Track gain : -10.23 dB
Peak : 0.988586
CRC32 hash (test run) : B752E57B
CRC32 hash : B752E57B
CRC32 hash (skip zero) : 890EE411
AccurateRip v1 signature : AB814346
AccurateRip v2 signature : 36E11ADE
->Accurately ripped (v2, confidence 1/1)
Statistics
Read error : 0
Jitter error (maybe fixed) : 0
Retry sector count : 0
Damaged sector count : 0

Track 10
Filename : /Users/aaziz/Desktop/Music From Baz Luhrmann's Film The Great Gatsby (Deluxe Edition)/Various Artists - Music From Baz Luhrmann's Film the Great Gatsby (Deluxe Edition) (2013) [FLAC]/10 "Can't Repeat the Past?".flac

Track gain : 0.18 dB
Peak : 0.658447
CRC32 hash (test run) : 023D6CD1
CRC32 hash : 023D6CD1
CRC32 hash (skip zero) : 5A6B7A13
AccurateRip v1 signature : 4D516C5A
AccurateRip v2 signature : 4199C13C
->Accurately ripped (v2, confidence 1/1)
Statistics
Read error : 0
Jitter error (maybe fixed) : 0
Retry sector count : 0
Damaged sector count : 0

Track 11
Filename : /Users/aaziz/Desktop/Music From Baz Luhrmann's Film The Great Gatsby (Deluxe Edition)/Various Artists - Music From Baz Luhrmann's Film the Great Gatsby (Deluxe Edition) (2013) [FLAC]/11 Hearts a Mess.flac

Track gain : -10.21 dB
Peak : 0.988586
CRC32 hash (test run) : C52FEB4D
CRC32 hash : C52FEB4D
CRC32 hash (skip zero) : 6B83ACC2
AccurateRip v1 signature : 285E0469
AccurateRip v2 signature : 500BBF5C
->Accurately ripped (v2, confidence 1/1)
Statistics
Read error : 0
Jitter error (maybe fixed) : 0
Retry sector count : 0
Damaged sector count : 0

Track 12
Filename : /Users/aaziz/Desktop/Music From Baz Luhrmann's Film The Great Gatsby (Deluxe Edition)/Various Artists - Music From Baz Luhrmann's Film the Great Gatsby (Deluxe Edition) (2013) [FLAC]/12 Where the Wind Blows.flac

Track gain : -10.29 dB
Peak : 0.988586
CRC32 hash (test run) : 9ADB0C4A
CRC32 hash : 9ADB0C4A
CRC32 hash (skip zero) : B76B1893
AccurateRip v1 signature : 6202B731
AccurateRip v2 signature : CD51D137
->Accurately ripped (v2, confidence 1/1)
Statistics
Read error : 0
Jitter error (maybe fixed) : 0
Retry sector count : 0
Damaged sector count : 0

Track 13
Filename : /Users/aaziz/Desktop/Music From Baz Luhrmann's Film The Great Gatsby (Deluxe Edition)/Various Artists - Music From Baz Luhrmann's Film the Great Gatsby (Deluxe Edition) (2013) [FLAC]/13 Green Light.flac

Track gain : 2.44 dB
Peak : 0.647766
CRC32 hash (test run) : 14964E36
CRC32 hash : 14964E36
CRC32 hash (skip zero) : F489196C
AccurateRip v1 signature : DE36FE0E
AccurateRip v2 signature : 80E4493C
->Accurately ripped (v2, confidence 1/1)
Statistics
Read error : 0
Jitter error (maybe fixed) : 0
Retry sector count : 0
Damaged sector count : 0

Track 14
Filename : /Users/aaziz/Desktop/Music From Baz Luhrmann's Film The Great Gatsby (Deluxe Edition)/Various Artists - Music From Baz Luhrmann's Film the Great Gatsby (Deluxe Edition) (2013) [FLAC]/14 No Church in the Wild feat. Frank Ocean & The-Dream.flac

Track gain : -7.68 dB
Peak : 0.963989
CRC32 hash (test run) : F753D627
CRC32 hash : F753D627
CRC32 hash (skip zero) : E7F233A0
AccurateRip v1 signature : E74D08BC
AccurateRip v2 signature : D2ADFEFA
->Accurately ripped (v2, confidence 1/1)
Statistics
Read error : 0
Jitter error (maybe fixed) : 0
Retry sector count : 0
Damaged sector count : 0

Track 15
Filename : /Users/aaziz/Desktop/Music From Baz Luhrmann's Film The Great Gatsby (Deluxe Edition)/Various Artists - Music From Baz Luhrmann's Film the Great Gatsby (Deluxe Edition) (2013) [FLAC]/15 Over the Love.flac

Track gain : -8.50 dB
Peak : 0.988586
CRC32 hash (test run) : 16890F2A
CRC32 hash : 16890F2A
CRC32 hash (skip zero) : 740DB956
AccurateRip v1 signature : C3DC94D1
AccurateRip v2 signature : D70B67E0
->Accurately ripped (v2, confidence 1/1)
Statistics
Read error : 0
Jitter error (maybe fixed) : 0
Retry sector count : 0
Damaged sector count : 0

Track 16
Filename : /Users/aaziz/Desktop/Music From Baz Luhrmann's Film The Great Gatsby (Deluxe Edition)/Various Artists - Music From Baz Luhrmann's Film the Great Gatsby (Deluxe Edition) (2013) [FLAC]/16 Together.flac

Track gain : -8.08 dB
Peak : 0.988617
CRC32 hash (test run) : 0129E4AE
CRC32 hash : 0129E4AE
CRC32 hash (skip zero) : 690A3B25
AccurateRip v1 signature : 51C2A817
AccurateRip v2 signature : 7BEBE394
->Accurately ripped (v2, confidence 1/1)
Statistics
Read error : 0
Jitter error (maybe fixed) : 0
Retry sector count : 0
Damaged sector count : 0

Track 17
Filename : /Users/aaziz/Desktop/Music From Baz Luhrmann's Film The Great Gatsby (Deluxe Edition)/Various Artists - Music From Baz Luhrmann's Film the Great Gatsby (Deluxe Edition) (2013) [FLAC]/17 Into the Past.flac

Track gain : -10.61 dB
Peak : 0.988586
CRC32 hash (test run) : 60733F81
CRC32 hash : 60733F81
CRC32 hash (skip zero) : B019449A
AccurateRip v1 signature : 55E47F5B
AccurateRip v2 signature : BAA2208A
->Accurately ripped (v2, confidence 1/1)
Statistics
Read error : 0
Jitter error (maybe fixed) : 0
Retry sector count : 0
Damaged sector count : 0

Track 18
Filename : /Users/aaziz/Desktop/Music From Baz Luhrmann's Film The Great Gatsby (Deluxe Edition)/Various Artists - Music From Baz Luhrmann's Film the Great Gatsby (Deluxe Edition) (2013) [FLAC]/18 Kill and Run.flac

Track gain : -10.71 dB
Peak : 0.988586
CRC32 hash (test run) : 0AA3E697
CRC32 hash : 0AA3E697
CRC32 hash (skip zero) : 81A8380A
AccurateRip v1 signature : E92F48DF
AccurateRip v2 signature : 9886F7FA
->Accurately ripped (v2, confidence 1/1)
Statistics
Read error : 0
Jitter error (maybe fixed) : 0
Retry sector count : 0
Damaged sector count : 0

Track 19
Filename : /Users/aaziz/Desktop/Music From Baz Luhrmann's Film The Great Gatsby (Deluxe Edition)/Various Artists - Music From Baz Luhrmann's Film the Great Gatsby (Deluxe Edition) (2013) [FLAC]/19 Over the Love (of You).flac

Track gain : -4.63 dB
Peak : 0.988586
CRC32 hash (test run) : 6DAA75AE
CRC32 hash : 6DAA75AE
CRC32 hash (skip zero) : C6C99ABB
AccurateRip v1 signature : 66B0729A
AccurateRip v2 signature : 67641B75
->Accurately ripped (v2, confidence 1/1)
Statistics
Read error : 0
Jitter error (maybe fixed) : 0
Retry sector count : 0
Damaged sector count : 0

Track 20
Filename : /Users/aaziz/Desktop/Music From Baz Luhrmann's Film The Great Gatsby (Deluxe Edition)/Various Artists - Music From Baz Luhrmann's Film the Great Gatsby (Deluxe Edition) (2013) [FLAC]/20 Young and Beautiful (DH Orchestral Version).flac

Track gain : -7.30 dB
Peak : 0.988617
CRC32 hash (test run) : F5EE97BC
CRC32 hash : F5EE97BC
CRC32 hash (skip zero) : 84231651
AccurateRip v1 signature : 6417C7EF
AccurateRip v2 signature : 1C74F542
->Accurately ripped (v2, confidence 1/1)
Statistics
Read error : 0
Jitter error (maybe fixed) : 0
Retry sector count : 0
Damaged sector count : 0

Track 21
Filename : /Users/aaziz/Desktop/Music From Baz Luhrmann's Film The Great Gatsby (Deluxe Edition)/Various Artists - Music From Baz Luhrmann's Film the Great Gatsby (Deluxe Edition) (2013) [FLAC]/21 "Gatsby Believed in the Green Light".flac

Track gain : -5.76 dB
Peak : 1.000000
CRC32 hash (test run) : 8F8700B8
CRC32 hash : 8F8700B8
CRC32 hash (skip zero) : F8132F5D
AccurateRip v1 signature : 72367713
AccurateRip v2 signature : 8E717523
->Accurately ripped (v2, confidence 1/1)
Statistics
Read error : 0
Jitter error (maybe fixed) : 0
Retry sector count : 0
Damaged sector count : 0

No errors occurred

End of status report

[CUETools log; Date: 30.01.2018 18:19:54; Version: 2.1.4]
[CTDB TOCID: 5gjD6fYqylAIu2qjD2EAb9Qtjg0-] found.
Track | CTDB Status
1 | (114/115) Accurately ripped
2 | (112/115) Accurately ripped
3 | (113/115) Accurately ripped
4 | (114/115) Accurately ripped
5 | (113/115) Accurately ripped
6 | (112/115) Accurately ripped
7 | (114/115) Accurately ripped
8 | (114/115) Accurately ripped
9 | (113/115) Accurately ripped
10 | (114/115) Accurately ripped
11 | (112/115) Accurately ripped
12 | (114/115) Accurately ripped
13 | (114/115) Accurately ripped
14 | (113/115) Accurately ripped
15 | (114/115) Accurately ripped
16 | (110/115) Accurately ripped, or (3/115) differs in 170 samples @01:07:66-01:07:67,02:09:71-02:09:72,02:10:49,02:18:20-02:18:21
17 | (114/115) Accurately ripped
18 | (112/115) Accurately ripped
19 | (110/115) Accurately ripped
20 | (112/115) Accurately ripped
21 | (113/115) Accurately ripped
[AccurateRip ID: 00344f7e-032746f1-01110a15] found.
Track [ CRC | V2 ] Status
01 [dd4b00c1|100aa1aa] (00+54/64) Accurately ripped
02 [8017546d|106d06dc] (00+54/64) Accurately ripped
03 [d8af054b|0da2fb62] (00+54/65) Accurately ripped
04 [b0d2860d|4161b4d2] (00+54/64) Accurately ripped
05 [08261376|a3d082b1] (00+54/65) Accurately ripped
06 [ea5e5b10|bad7e53e] (00+53/64) Accurately ripped
07 [f3055bc4|1f9c6d64] (00+55/65) Accurately ripped
08 [b7a0e9de|af5af71d] (00+54/65) Accurately ripped
09 [ab814346|36e11ade] (00+53/64) Accurately ripped
10 [4d516c5a|4199c13c] (00+52/62) Accurately ripped
11 [285e0469|500bbf5c] (00+54/64) Accurately ripped
12 [6202b731|cd51d137] (00+54/64) Accurately ripped
13 [de36fe0e|80e4493c] (00+53/63) Accurately ripped
14 [e74d08bc|d2adfefa] (00+53/63) Accurately ripped
15 [c3dc94d1|d70b67e0] (00+53/63) Accurately ripped
16 [51c2a817|7bebe394] (00+53/63) Accurately ripped
17 [55e47f5b|baa2208a] (00+54/64) Accurately ripped
18 [e92f48df|9886f7fa] (00+53/63) Accurately ripped
19 [66b0729a|67641b75] (00+52/62) Accurately ripped
20 [6417c7ef|1c74f542] (00+54/64) Accurately ripped
21 [72367713|8e717523] (00+52/63) Accurately ripped
Offsetted by -646:
01 [0690cd66] (00/64) No match (V2 was not tested)
02 [bdf00dd0] (00/64) No match (V2 was not tested)
03 [0f9432a9] (00/65) No match (V2 was not tested)
04 [46dd7a99] (00/64) No match (V2 was not tested)
05 [ef6ae56d] (00/65) No match (V2 was not tested)
06 [4e40b205] (00/64) No match (V2 was not tested)
07 [bcacb805] (00/65) No match (V2 was not tested)
08 [5a1748e0] (00/65) No match (V2 was not tested)
09 [3f8a0c00] (00/64) No match (V2 was not tested)
10 [69fcf25d] (00/62) No match (V2 was not tested)
11 [d22d2e31] (00/64) No match (V2 was not tested)
12 [936599a7] (00/64) No match (V2 was not tested)
13 [07e4c12d] (00/63) No match (V2 was not tested)
14 [95cd5cb1] (00/63) No match (V2 was not tested)
15 [c6af0bd1] (00/63) No match (V2 was not tested)
16 [ce9e756f] (00/63) No match (V2 was not tested)
17 [8098a85e] (00/64) No match (V2 was not tested)
18 [22186fdf] (00/63) No match (V2 was not tested)
19 [c452bef2] (00/62) No match (V2 was not tested)
20 [42753aa6] (00/64) No match (V2 was not tested)
21 [e055f5ee] (00/63) No match (V2 was not tested)
Offsetted by -53:
01 [70a8ec66] (00/64) No match (V2 was not tested)
02 [e822d9ca] (00/64) No match (V2 was not tested)
03 [b11d9ed9] (00/65) No match (V2 was not tested)
04 [8d5f3e17] (00/64) No match (V2 was not tested)
05 [e5e51b64] (00/65) No match (V2 was not tested)
06 [6686f794] (00/64) No match (V2 was not tested)
07 [80d5eb4c] (00/65) No match (V2 was not tested)
08 [b33c328a] (00/65) No match (V2 was not tested)
09 [725a9905] (00/64) No match (V2 was not tested)
10 [2770d26f] (00/62) No match (V2 was not tested)
11 [c30f3ee3] (00/64) No match (V2 was not tested)
12 [311f1f8f] (00/64) No match (V2 was not tested)
13 [182531e6] (00/63) No match (V2 was not tested)
14 [18ba04d8] (00/63) No match (V2 was not tested)
15 [b2d4c5ad] (00/63) No match (V2 was not tested)
16 [6d111cc3] (00/63) No match (V2 was not tested)
17 [a72c52cd] (00/64) No match (V2 was not tested)
18 [b9773f01] (00/63) No match (V2 was not tested)
19 [c5668988] (00/62) No match (V2 was not tested)
20 [1e05305c] (00/64) No match (V2 was not tested)
21 [9fe181d2] (00/63) No match (V2 was not tested)
Offsetted by -12:
01 [032c7234] (00/64) No match (V2 was not tested)
02 [14bec148] (00/64) No match (V2 was not tested)
03 [a60fda0c] (00/65) No match (V2 was not tested)
04 [a35c60a5] (00/64) No match (V2 was not tested)
05 [c8ac6ff8] (00/65) No match (V2 was not tested)
06 [84c0ad7f] (00/64) No match (V2 was not tested)
07 [7fafd746] (00/65) No match (V2 was not tested)
08 [be1c0b37] (00/65) No match (V2 was not tested)
09 [eb53b6e0] (00/64) No match (V2 was not tested)
10 [a9b0ced3] (00/62) No match (V2 was not tested)
11 [a0f19ebd] (00/64) No match (V2 was not tested)
12 [7163fdfe] (00/64) No match (V2 was not tested)
13 [4bb6b970] (00/63) No match (V2 was not tested)
14 [283389ee] (00/63) No match (V2 was not tested)
15 [2d5359e5] (00/63) No match (V2 was not tested)
16 [fe1f56a1] (00/63) No match (V2 was not tested)
17 [4c6d0ac7] (00/64) No match (V2 was not tested)
18 [908a98fb] (00/63) No match (V2 was not tested)
19 [c6e71a20] (00/62) No match (V2 was not tested)
20 [dd8d6a3e] (00/64) No match (V2 was not tested)
21 [33b8843f] (00/63) No match (V2 was not tested)

Track Peak [ CRC32 ] [W/O NULL]
– 100,0 [7D40DAED] [CD01C6A6]
01 98,8 [21C851E5] [66A7824F]
02 98,8 [B4CCC7D1] [C40AA8A0]
03 100,0 [F4226DC5] [80F79E3F]
04 98,8 [4164098E] [AD0E9075]
05 98,8 [8132FF64] [691C5151]
06 98,9 [30A0264A] [71C4B129]
07 66,2 [78BC0337] [2F868EF4]
08 98,8 [B857A88E] [F293B3FC]
09 98,8 [B752E57B] [890EE411]
10 65,8 [023D6CD1] [5A6B7A13]
11 98,8 [C52FEB4D] [6B83ACC2]
12 98,8 [9ADB0C4A] [B76B1893]
13 64,7 [14964E36] [F489196C]
14 96,4 [F753D627] [E7F233A0]
15 98,8 [16890F2A] [740DB956]
16 98,8 [0129E4AE] [690A3B25]
17 98,8 [60733F81] [B019449A]
18 98,8 [0AA3E697] [81A8380A]
19 98,8 [6DAA75AE] [C6C99ABB]
20 98,8 [F5EE97BC] [84231651]
21 100,0 [8F8700B8] [F8132F5D]

foobar2000 1.2 / Dynamic Range Meter 1.1.1
log date: 2013-08-20 23:36:33

––––––––––––––––––––––––––––––––––––––––
Analyzed: Beyoncé & André 3000 / Music From Baz Luhrmann's Film the Great Gatsby (Deluxe Edition) (1)
Bryan Ferry & The Bryan Ferry Orchestra / Music From Baz Luhrmann's Film the Great Gatsby (Deluxe Edition) (2)
Coco O / Music From Baz Luhrmann's Film the Great Gatsby (Deluxe Edition) (3)
Elizabeth Debicki / Music From Baz Luhrmann's Film the Great Gatsby (Deluxe Edition) (4)
Emeli Sandé & The Bryan Ferry Orchestra / Music From Baz Luhrmann's Film the Great Gatsby (Deluxe Edition) (5)
Fergie, Q-Tip & GoonRock / Music From Baz Luhrmann's Film the Great Gatsby (Deluxe Edition) (6)
Florence + the Machine & SBTRKT / Music From Baz Luhrmann's Film the Great Gatsby (Deluxe Edition) (7)
Florence + the Machine / Music From Baz Luhrmann's Film the Great Gatsby (Deluxe Edition) (8)
Gotye / Music From Baz Luhrmann's Film the Great Gatsby (Deluxe Edition) (9)
Green Light / Music From Baz Luhrmann's Film the Great Gatsby (Deluxe Edition) (10)
Jack White / Music From Baz Luhrmann's Film the Great Gatsby (Deluxe Edition) (11)
Jay‐Z, Kanye West / Music From Baz Luhrmann's Film the Great Gatsby (Deluxe Edition) (12)
Jay‐Z / Music From Baz Luhrmann's Film the Great Gatsby (Deluxe Edition) (13)
Lana Del Rey / Music From Baz Luhrmann's Film the Great Gatsby (Deluxe Edition) (14-15)
Leonardo DiCaprio & Tobey Maguire / Music From Baz Luhrmann's Film the Great Gatsby (Deluxe Edition) (16)
Nero / Music From Baz Luhrmann's Film the Great Gatsby (Deluxe Edition) (17)
Sia / Music From Baz Luhrmann's Film the Great Gatsby (Deluxe Edition) (18)
The xx / Music From Baz Luhrmann's Film the Great Gatsby (Deluxe Edition) (19)
Tobey Maguire & Craig Armstrong / Music From Baz Luhrmann's Film the Great Gatsby (Deluxe Edition) (20)
will.i.am / Music From Baz Luhrmann's Film the Great Gatsby (Deluxe Edition) (21)
––––––––––––––––––––––––––––––––––––––––

DR Peak RMS Duration Track
––––––––––––––––––––––––––––––––––––––––
DR5 -0.10 dB -7.30 dB 3:21 02-Back to Black
DR6 -0.10 dB -7.52 dB 2:42 09-Love Is the Drug
DR6 -0.10 dB -8.06 dB 3:51 12-Where the Wind Blows
DR16 -3.58 dB -21.61 dB 0:09 07-"I Like Large Parties"
DR6 -0.10 dB -6.78 dB 3:08 05-Crazy in Love (Kid Koala version)
DR3 -0.10 dB -6.07 dB 4:01 08-A Little Party Never Killed Nobody (All We Got)
DR7 -0.10 dB -9.95 dB 2:59 19-Over the Love (of You)
DR5 -0.10 dB -9.63 dB 4:21 15-Over the Love
DR5 -0.10 dB -9.20 dB 6:04 11-Hearts a Mess
DR13 -3.77 dB -23.81 dB 0:08 13-Green Light
DR5 -0.10 dB -6.83 dB 3:18 04-Love Is Blindness
DR6 -0.32 dB -7.28 dB 4:33 14-No Church in the Wild feat. Frank Ocean & The-Dream
DR4 -0.10 dB -5.22 dB 3:21 01-100$ Bill
DR6 0.00 dB -8.38 dB 3:56 03-Young and Beautiful
DR6 -0.10 dB -8.44 dB 3:52 20-Young and Beautiful (DH Orchestral Version)
DR20 -3.83 dB -24.46 dB 0:09 10-"Can't Repeat the Past?"
DR4 -0.10 dB -6.92 dB 5:17 17-Into the Past
DR6 -0.10 dB -9.67 dB 3:36 18-Kill and Run
DR5 -0.10 dB -8.43 dB 5:26 16-Together
DR11 0.00 dB -14.39 dB 3:52 21-"Gatsby Believed in the Green Light"
DR4 -0.09 dB -8.20 dB 4:39 06-Bang Bang
––––––––––––––––––––––––––––––––––––––––

Number of tracks: 21
Official DR value: DR7

Samplerate: 44100 Hz
Channels: 2
Bits per sample: 16
Bitrate: 859 kbps
Codec: FLAC
================================================================================

VA - The Great Gatsby: Music From Baz Luhrmann's Film (2013) Deluxe Edition