Subcategories

VA - The Vow: Music From The Motion Picture (2012)

Posted By: Efgrapha
VA - The Vow: Music From The Motion Picture (2012)

VA - The Vow: Music From The Motion Picture (2012)
EAC | FLAC (Tracks) + cue.+log ~ 346 Mb | Mp3, CBR320 kbps ~ 146 Mb | Scans included
Soundtrack, Rock, Pop | Label: Rhino | # R2 530202 | Time: 00:49:12

In the film The Vow, bride to be (Rachel McAdams) survives a car crash and wakes from a coma without any memory of her future husband (Channing Tatum). Befitting the not-so-subtle Harlequin novel-inspired setup, the soundtrack begins with Meat Loaf's arena-sized 1993 hit "I'd Do Anything for Love (But I Won't Do That)". What follows is an expertly crafted love letter to 21st century romance, with highlights arriving by way of Swedish siren Lykke Li ("Get Some"), psych-country balladeers Phosphorescent ("Nothing Was Stolen (Love Me Foolishly)"), and majestic, mascara-pop overlords The Cure ("Pictures of You").

Review by James Christopher Monger, Allmusic.com

THE VOW: MUSIC FROM THE MOTION PICTURE captures the couple’s poignant journey with songs from such artists as OK Go (“This Too Shall Pass”), Matt Pond PA (“Specks”) and The Cure, whose “Pictures of You” is heard playing during the film’s final scene. The digital version of the soundtrack contains The National’s “England” as an exclusive bonus track.

The physical and digital versions share 11 tracks, with the single version of Meat Loaf’s “I’d Do Anything For Love (But I Won’t Do That)” leading off the album. Many of the songs come from indie artists such as the Canadian quintet Still Life Still (“Neon Blue”), Chicago’s Light FM (“Problems Of Our Own”) and L.A. rockers Voxhaul Broadcast (“Leaving On the 5th”). The album also includes “Nothing Was Stolen (Love Me Foolishly)” by Phosphorescent; “Play My Way” by Maya Von Doll; and a remix of Scott Hardkiss’ “Come On, Come On” that features singer Britta Phillips of Dean and Britta.

A note from director Michael Sucsy: With each new project, the first thing I do is start a music dialogue. That playlist then becomes a point of inspiration that anchors my process, helping to create an overall tone for the film I am making. For this film, I didn’t want to select songs that were too nostalgic or obscure, nor did I want them to be overly “poppy” because that can make a film feel too specifically associated with one time and place. Certain songs from the initial playlist always jump out at me. In this case, “Come On, Come On” (by Scott Hardkiss/Dean & Britta Remix) struck a chord. Its pulsing bass woke my heart and its melody, coupled with Britta Phillips’ vocals, set the bittersweet tone, which encompassed the film I knew I was making. Once that track was set, it gave me the language, the parameters, an umbrella to work under. As the other tracks started to fall into place, I needed a strong song for the ending, and I didn’t want to utilize score. When I first watched The Cure’s “Pictures of You” up against the final scene in the film, I got deeply emotional. The song has always been one of my favorites, and while it’s typically about loss and regret, in the context of this moment between Leo (Tatum) and Paige (McAdams), it takes on a whole new meaning – one of letting go. The song almost feels custom written for The Vow when you consider the lyrics and so many of the scenes from the movie. And if there was ever any doubt as to whether this song fits in the musical lexicon of the film, it turns out that Scott Hardkiss used it as his inspiration for “Come On, Come On.” I love when things come full circle.

Amazon.com

VA - The Vow: Music From The Motion Picture (2012)

VA - The Vow: Music From The Motion Picture (2012)



Tracklist:

01. Meat Loaf - I’d Do Anything For Love (But I Won’t Do That) (05:23)
02. Matt Pond PA - Specks (03:49)
03. Voxhaul Broadcast - Leaving On The 5th (03:41)
04. OK Go - This Too Shall Pass (03:07)
05. Lykke Li - Get Some (03:22)
06. Phosphorescent - Nothing Was Stolen (Love Me Foolishly) (04:49)
07. Scott Hardkiss (feat. Britta Phillips & Dean Wareham) - Come On, Come On (07:35)
08. Maya von Doll - Play My Way (03:21)
09. Light FM - Problems Of Our Own (03:12)
10. Still Life Still - Neon Blue (03:20)
11. The Cure - Pictures Of You (07:28)


Exact Audio Copy V1.0 beta 3 from 29. August 2011

EAC extraction logfile from 26. May 2012, 16:18

Various Artists / The Vow

Used drive : PLEXTOR CD-R PX-230A Adapter: 1 ID: 0

Read mode : Secure
Utilize accurate stream : Yes
Defeat audio cache : Yes
Make use of C2 pointers : No

Read offset correction : 738
Overread into Lead-In and Lead-Out : No
Fill up missing offset samples with silence : Yes
Delete leading and trailing silent blocks : No
Null samples used in CRC calculations : Yes
Used interface : Native Win32 interface for Win NT & 2000
Gap handling : Appended to previous track

Used output format : User Defined Encoder
Selected bitrate : 896 kBit/s
Quality : High
Add ID3 tag : No
Command line compressor : C:\Program Files\Exact Audio Copy\FLAC\FLAC.EXE
Additional command line options : -6 -V -T "ARTIST=%artist%" -T "TITLE=%title%" -T "ALBUM=%albumtitle%" -T "DATE=%year%" -T "TRACKNUMBER=%tracknr%" -T "GENRE=%genre%" -T "COMMENT=%comment%" -T "ALBUMARTIST=%albuminterpret%" -T "COMPOSER=%composer%" -T "DISCNUMBER=%cdnumber%" -T "TOTALDISCS=%totalcds%" -T "TOTALTRACKS=%numtracks%" %source% -o %dest%


TOC of the extracted CD

Track | Start | Length | Start sector | End sector
––––––––––––––––––––––––––––-
1 | 0:00.00 | 5:23.14 | 0 | 24238
2 | 5:23.14 | 3:49.60 | 24239 | 41473
3 | 9:12.74 | 3:41.29 | 41474 | 58077
4 | 12:54.28 | 3:07.02 | 58078 | 72104
5 | 16:01.30 | 3:22.44 | 72105 | 87298
6 | 19:23.74 | 4:49.44 | 87299 | 109017
7 | 24:13.43 | 7:35.68 | 109018 | 143210
8 | 31:49.36 | 3:21.66 | 143211 | 158351
9 | 35:11.27 | 3:12.43 | 158352 | 172794
10 | 38:23.70 | 3:20.04 | 172795 | 187798
11 | 41:43.74 | 7:28.41 | 187799 | 221439


Track 1

Filename C:\Music\01 - Meat Loaf - I’d Do Anything For Love (But I Won’t Do That).wav

Pre-gap length 0:00:02.00

Peak level 100.0 %
Extraction speed 8.0 X
Track quality 100.0 %
Test CRC A3E45400
Copy CRC A3E45400
Track not present in AccurateRip database
Copy OK

Track 2

Filename C:\Music\02 - Matt Pond PA - Specks.wav

Peak level 97.5 %
Extraction speed 8.4 X
Track quality 100.0 %
Test CRC 29C3986C
Copy CRC 29C3986C
Track not present in AccurateRip database
Copy OK

Track 3

Filename C:\Music\03 - Voxhaul Broadcast - Leaving On The 5th.wav

Peak level 98.2 %
Extraction speed 7.9 X
Track quality 100.0 %
Test CRC 4678282C
Copy CRC 4678282C
Track not present in AccurateRip database
Copy OK

Track 4

Filename C:\Music\04 - OK Go - This Too Shall Pass.wav

Peak level 89.3 %
Extraction speed 8.2 X
Track quality 100.0 %
Test CRC E27CEC8D
Copy CRC E27CEC8D
Track not present in AccurateRip database
Copy OK

Track 5

Filename C:\Music\05 - Lykke Li - Get Some.wav

Peak level 95.4 %
Extraction speed 8.6 X
Track quality 100.0 %
Test CRC 2DF69195
Copy CRC 2DF69195
Track not present in AccurateRip database
Copy OK

Track 6

Filename C:\Music\06 - Phosphorescent - Nothing Was Stolen (Love Me Foolishly).wav

Peak level 100.0 %
Extraction speed 8.6 X
Track quality 100.0 %
Test CRC 5A079CBE
Copy CRC 5A079CBE
Track not present in AccurateRip database
Copy OK

Track 7

Filename C:\Music\07 - Scott Hardkiss (feat. Britta Phillips & Dean Wareham) - Come On, Come On.wav

Peak level 94.8 %
Extraction speed 9.1 X
Track quality 100.0 %
Test CRC B5929C24
Copy CRC B5929C24
Track not present in AccurateRip database
Copy OK

Track 8

Filename C:\Music\08 - Maya von Doll - Play My Way.wav

Peak level 87.9 %
Extraction speed 8.7 X
Track quality 100.0 %
Test CRC 1B9B2BF0
Copy CRC 1B9B2BF0
Track not present in AccurateRip database
Copy OK

Track 9

Filename C:\Music\09 - Light FM - Problems Of Our Own.wav

Peak level 98.9 %
Extraction speed 7.8 X
Track quality 99.9 %
Test CRC 7882730B
Copy CRC 7882730B
Track not present in AccurateRip database
Copy OK

Track 10

Filename C:\Music\10 - Still Life Still - Neon Blue.wav

Peak level 86.4 %
Extraction speed 9.3 X
Track quality 100.0 %
Test CRC 3AF8C96B
Copy CRC 3AF8C96B
Track not present in AccurateRip database
Copy OK

Track 11

Filename C:\Music\11 - The Cure - Pictures Of You.wav

Peak level 100.0 %
Extraction speed 9.6 X
Track quality 99.9 %
Test CRC 554D2598
Copy CRC 554D2598
Track not present in AccurateRip database
Copy OK


None of the tracks are present in the AccurateRip database

No errors occurred

End of status report

==== Log checksum DB0A82956CF3F8B972564D07C5900ECECBC8A70A5CE31122EA76854CEDA4F234 ====

foobar2000 1.2 / Dynamic Range Meter 1.1.1
log date: 2013-10-28 21:15:43

––––––––––––––––––––––––––––––––––––––––
Analyzed: Light FM / The Vow (1)
Lykke Li / The Vow (2)
Matt Pond PA / The Vow (3)
Maya von Doll / The Vow (4)
Meat Loaf / The Vow (5)
OK Go / The Vow (6)
Phosphorescent / The Vow (7)
Scott Hardkiss (feat. Britta Phillips & Dean Wareham) / The Vow (8)
Still Life Still / The Vow (9)
The Cure / The Vow (10)
Voxhaul Broadcast / The Vow (11)
––––––––––––––––––––––––––––––––––––––––

DR Peak RMS Duration Track
––––––––––––––––––––––––––––––––––––––––
DR7 -0.09 dB -8.23 dB 3:13 09-Problems Of Our Own
DR5 -0.41 dB -7.34 dB 3:23 05-Get Some
DR6 -0.22 dB -9.18 dB 3:50 02-Specks
DR3 -1.12 dB -6.16 dB 3:22 08-Play My Way
DR8 0.00 dB -10.50 dB 5:23 01-I’d Do Anything For Love (But I Won’t Do That)
DR3 -0.98 dB -5.46 dB 3:07 04-This Too Shall Pass
DR11 0.00 dB -12.80 dB 4:50 06-Nothing Was Stolen (Love Me Foolishly)
DR7 -0.46 dB -9.65 dB 7:36 07-Come On, Come On
DR3 -1.27 dB -6.39 dB 3:20 10-Neon Blue
DR8 0.00 dB -9.60 dB 7:29 11-Pictures Of You
DR7 -0.15 dB -8.02 dB 3:41 03-Leaving On The 5th
––––––––––––––––––––––––––––––––––––––––

Number of tracks: 11
Official DR value: DR6

Samplerate: 44100 Hz
Channels: 2
Bits per sample: 16
Bitrate: 919 kbps
Codec: FLAC
================================================================================

VA - The Vow: Music From The Motion Picture (2012)

VA - The Vow: Music From The Motion Picture (2012)

All thanks to original uploader - Filex777

More Movies & Soundtracks in Efgrapha Blog