Subcategories

VA - Top 40 Latino Caliente - The Ultimate Top 40 Collection (2CD, 2019)

Posted By: ciklon5
VA - Top 40 Latino Caliente - The Ultimate Top 40 Collection (2CD, 2019)

VA - Top 40 Latino Caliente - The Ultimate Top 40 Collection (2CD, 2019)
FLAC (tracks+cue,log) | 2:22:57 | 974 Mb
Genre: Latin Pop, R&B, Electro, Dance / Label: Sony

The earliest bachata was originally developed in the Dominican Republic around the early part of the 20th century, the genre mixed the pan-Latin American style called bolero with more African elements, combined with other traditional Latin-Caribbean rhythms. During much of its history, Bachata music was denigrated by the Dominican elite and associated with rural underdevelopment and crime. Bachata was considered too vulgar, crude and musically rustic to enter mainstream music.

Track List:
CD 1
01. Luis Fonsi - Despacito
02. Shakira feat. El Cata - Rabiosa
03. Alvaro Soler - La Cintura
04. CNCO - Reggaeton Lento Bailemos
05. Deorro feat. Elvis Crespo - Bailar
06. Legarda feat. Andy Rivera - Ya Estoy Mejor
07. Anders Nilsen - Salsa Tequila
08. Ana Mena feat. RK - Mentira
09. Sergi El Combo - Se Nota
10. Pitbull feat. Sensato & Osmano Garcia - El Taxi
11. Danny Romero feat. Sanco - No Creo En El Amor
12. Shaggy feat. Omi - Seasons
13. El Profesor - Bella Ciao [Hugel Remix]
14. Dellafuente feat. C. Tangana - Guerrera
15. Kris Kross Amsterdam X Ally Brooke X Messiah - Vamonos
16. Cris Cab feat. J Balvin - Just Wanna Love You
17. Merche - Te Lo Merceres
18. Jay Santos feat. Fuego - Baila
19. Gadiel - Pegate Mas
20. Wisin - Vacaciones
21. Yandel - Encantadora

CD 2
01. Ricky Martin feat. Yotuel - La Mordidita
02. J. Balvin & Willy William - Mi Gente
03. Tacabro - Tacatà
04. Rak-su - Dímelo
05. Jennifer Lopez - Ain't Your Mama
06. Jose de Rico feat. Danny Romero & Fito Blanko - Soltera
07. La Mafia del Amor feat. El Combo Perfecto - La Disco Resplandece
08. Robert Abigail - Merengue
09. D.K.B. & Descemer Bueno - No Necesito Un Doctor
10. Danio Crespo - Suavemente
11. Sosa feat. Danny Romero - Me Cequé
12. Netsky feat. A.Chal - Tequila Limonada
13. C. Tangana - Mala Mujer
14. MC Fioti feat. Future, J Blavin, Stefflon Don & Juan Magan - Bum Bum Tam Tam
15. Dellafuente - Me Pelea
16. Abraham Mateo, Farruko & Christian Daniel - Loco Enamorado
17. Dr. Bellido feat. Dama - Porque Tu Te Vas
18. Loco Escrito - Adios
19. Sanco - Hagamos El Amor
20. Dani Alves feat. Pinto "Wahin" & Thiago Mattheus - Suave
21. Leslie Grace feat. Noriel - Duro Y Suave

Exact Audio Copy V1.3 from 2. September 2016

EAC extraction logfile from 27. August 2019, 14:51

Various Artists / Top 40 Latino Caliente : The Ultimate Top 40 Collection

Used drive : PLEXTOR PX-891SAF Adapter: 1 ID: 0

Read mode : Secure
Utilize accurate stream : Yes
Defeat audio cache : Yes
Make use of C2 pointers : No

Read offset correction : 6
Overread into Lead-In and Lead-Out : No
Fill up missing offset samples with silence : Yes
Delete leading and trailing silent blocks : No
Null samples used in CRC calculations : Yes
Used interface : Native Win32 interface for Win NT & 2000
Gap handling : Appended to previous track

Used output format : User Defined Encoder
Selected bitrate : 1024 kBit/s
Quality : High
Add ID3 tag : No
Command line compressor : C:\Program Files (x86)\Exact Audio Copy\Flac\flac.exe
Additional command line options : -8 -V -T "ARTIST=%artist%" -T "TITLE=%title%" -T "ALBUM=%albumtitle%" -T "DATE=%year%" -T "TRACKNUMBER=%tracknr%" -T "GENRE=%genre%" -T "PERFORMER=%albuminterpret%" -T "COMPOSER=%composer%" %haslyrics%–tag-from-file=LYRICS="%lyricsfile%"%haslyrics% -T "ALBUMARTIST=%albumartist%" -T "DISCNUMBER=%cdnumber%" -T "TOTALDISCS=%totalcds%" -T "TOTALTRACKS=%numtracks%" -T "COMMENT=%comment%" %source% -o %dest%


TOC of the extracted CD

Track | Start | Length | Start sector | End sector
––––––––––––––––––––––––––––-
1 | 0:00.00 | 3:50.47 | 0 | 17296
2 | 3:50.47 | 2:51.55 | 17297 | 30176
3 | 6:42.27 | 3:25.39 | 30177 | 45590
4 | 10:07.66 | 3:41.69 | 45591 | 62234
5 | 13:49.60 | 2:19.66 | 62235 | 72725
6 | 16:09.51 | 3:33.49 | 72726 | 88749
7 | 19:43.25 | 3:21.38 | 88750 | 103862
8 | 23:04.63 | 3:23.40 | 103863 | 119127
9 | 26:28.28 | 3:11.69 | 119128 | 133521
10 | 29:40.22 | 4:02.16 | 133522 | 151687
11 | 33:42.38 | 3:29.19 | 151688 | 167381
12 | 37:11.57 | 3:15.43 | 167382 | 182049
13 | 40:27.25 | 2:46.55 | 182050 | 194554
14 | 43:14.05 | 3:28.12 | 194555 | 210166
15 | 46:42.17 | 2:57.59 | 210167 | 223500
16 | 49:40.01 | 3:20.65 | 223501 | 238565
17 | 53:00.66 | 3:06.54 | 238566 | 252569
18 | 56:07.45 | 3:59.41 | 252570 | 270535
19 | 60:07.11 | 3:05.28 | 270536 | 284438
20 | 63:12.39 | 3:58.61 | 284439 | 302349
21 | 67:11.25 | 4:00.29 | 302350 | 320378


Track 1

Filename D:\#cdr\#wav+flac\VA - Top 40 Latino Caliente (The Ultimate Top 40 Collection)\cd 1\01. Luis Fonsi - Despacito.wav

Pre-gap length 0:00:02.00

Peak level 85.4 %
Extraction speed 5.6 X
Track quality 100.0 %
Test CRC 87952C20
Copy CRC 87952C20
Track not present in AccurateRip database
Copy OK

Track 2

Filename D:\#cdr\#wav+flac\VA - Top 40 Latino Caliente (The Ultimate Top 40 Collection)\cd 1\02. Shakira Feat. El Cata - Rabiosa.wav

Pre-gap length 0:00:02.00

Peak level 79.1 %
Extraction speed 5.8 X
Track quality 100.0 %
Test CRC 4EA8ADB5
Copy CRC 4EA8ADB5
Track not present in AccurateRip database
Copy OK

Track 3

Filename D:\#cdr\#wav+flac\VA - Top 40 Latino Caliente (The Ultimate Top 40 Collection)\cd 1\03. Alvaro Soler - La Cintura.wav

Pre-gap length 0:00:02.00

Peak level 74.5 %
Extraction speed 5.2 X
Track quality 99.9 %
Test CRC 220318A4
Copy CRC 220318A4
Track not present in AccurateRip database
Copy OK

Track 4

Filename D:\#cdr\#wav+flac\VA - Top 40 Latino Caliente (The Ultimate Top 40 Collection)\cd 1\04. CNCO - Reggaeton Lento Bailemos.wav

Pre-gap length 0:00:02.00

Peak level 79.5 %
Extraction speed 6.8 X
Track quality 100.0 %
Test CRC 7E39EE9F
Copy CRC 7E39EE9F
Track not present in AccurateRip database
Copy OK

Track 5

Filename D:\#cdr\#wav+flac\VA - Top 40 Latino Caliente (The Ultimate Top 40 Collection)\cd 1\05. Deorro Feat. Elvis Crespo - Bailar.wav

Pre-gap length 0:00:02.00

Peak level 96.6 %
Extraction speed 6.5 X
Track quality 100.0 %
Test CRC 7D9D6449
Copy CRC 7D9D6449
Track not present in AccurateRip database
Copy OK

Track 6

Filename D:\#cdr\#wav+flac\VA - Top 40 Latino Caliente (The Ultimate Top 40 Collection)\cd 1\06. Legarda Feat. Andy Rivera - Ya Estoy Mejor.wav

Pre-gap length 0:00:02.00

Peak level 73.8 %
Extraction speed 7.3 X
Track quality 100.0 %
Test CRC 2ED68FE1
Copy CRC 2ED68FE1
Track not present in AccurateRip database
Copy OK

Track 7

Filename D:\#cdr\#wav+flac\VA - Top 40 Latino Caliente (The Ultimate Top 40 Collection)\cd 1\07. Anders Nilsen - Salsa Tequila.wav

Pre-gap length 0:00:02.00

Peak level 96.6 %
Extraction speed 6.1 X
Track quality 99.9 %
Test CRC A4567CD8
Copy CRC A4567CD8
Track not present in AccurateRip database
Copy OK

Track 8

Filename D:\#cdr\#wav+flac\VA - Top 40 Latino Caliente (The Ultimate Top 40 Collection)\cd 1\08. Ana Mena Feat. Rk - Mentira.wav

Pre-gap length 0:00:02.00

Peak level 79.3 %
Extraction speed 6.4 X
Track quality 99.9 %
Test CRC B8C8A20E
Copy CRC B8C8A20E
Track not present in AccurateRip database
Copy OK

Track 9

Filename D:\#cdr\#wav+flac\VA - Top 40 Latino Caliente (The Ultimate Top 40 Collection)\cd 1\09. Sergi El Combo - Se Nota.wav

Pre-gap length 0:00:02.00

Peak level 75.8 %
Extraction speed 6.4 X
Track quality 99.9 %
Test CRC 41540D58
Copy CRC 41540D58
Track not present in AccurateRip database
Copy OK

Track 10

Filename D:\#cdr\#wav+flac\VA - Top 40 Latino Caliente (The Ultimate Top 40 Collection)\cd 1\10. Pitbull Feat. Sensato & Osmano Garcia - El Taxi.wav

Pre-gap length 0:00:02.00

Peak level 87.2 %
Extraction speed 8.6 X
Track quality 100.0 %
Test CRC 472CD7C6
Copy CRC 472CD7C6
Track not present in AccurateRip database
Copy OK

Track 11

Filename D:\#cdr\#wav+flac\VA - Top 40 Latino Caliente (The Ultimate Top 40 Collection)\cd 1\11. Danny Romero Feat. Sanco - No Creo En El Amor.wav

Pre-gap length 0:00:02.00

Peak level 79.1 %
Extraction speed 8.7 X
Track quality 100.0 %
Test CRC F39ADD9F
Copy CRC F39ADD9F
Track not present in AccurateRip database
Copy OK

Track 12

Filename D:\#cdr\#wav+flac\VA - Top 40 Latino Caliente (The Ultimate Top 40 Collection)\cd 1\12. Shaggy Feat. Omi - Seasons.wav

Pre-gap length 0:00:02.00

Peak level 72.0 %
Extraction speed 8.7 X
Track quality 100.0 %
Test CRC F4091E59
Copy CRC F4091E59
Track not present in AccurateRip database
Copy OK

Track 13

Filename D:\#cdr\#wav+flac\VA - Top 40 Latino Caliente (The Ultimate Top 40 Collection)\cd 1\13. El Profesor - Bella Ciao [Hugel Remix].wav

Pre-gap length 0:00:02.00

Peak level 96.5 %
Extraction speed 8.7 X
Track quality 100.0 %
Test CRC 29F7DF30
Copy CRC 29F7DF30
Track not present in AccurateRip database
Copy OK

Track 14

Filename D:\#cdr\#wav+flac\VA - Top 40 Latino Caliente (The Ultimate Top 40 Collection)\cd 1\14. Dellafuente Feat. C. Tangana - Guerrera.wav

Pre-gap length 0:00:02.00

Peak level 91.0 %
Extraction speed 7.7 X
Track quality 99.9 %
Test CRC 14C62537
Copy CRC 14C62537
Track not present in AccurateRip database
Copy OK

Track 15

Filename D:\#cdr\#wav+flac\VA - Top 40 Latino Caliente (The Ultimate Top 40 Collection)\cd 1\15. Kris Kross Amsterdam X Ally Brooke X Messiah - Vamonos.wav

Pre-gap length 0:00:02.00

Peak level 96.6 %
Extraction speed 9.3 X
Track quality 100.0 %
Test CRC 4CF7B1DE
Copy CRC 4CF7B1DE
Track not present in AccurateRip database
Copy OK

Track 16

Filename D:\#cdr\#wav+flac\VA - Top 40 Latino Caliente (The Ultimate Top 40 Collection)\cd 1\16. Cris Cab Feat. J Balvin - Just Wanna Love You.wav

Pre-gap length 0:00:02.00

Peak level 96.6 %
Extraction speed 7.8 X
Track quality 99.9 %
Test CRC CD8E0768
Copy CRC CD8E0768
Track not present in AccurateRip database
Copy OK

Track 17

Filename D:\#cdr\#wav+flac\VA - Top 40 Latino Caliente (The Ultimate Top 40 Collection)\cd 1\17. Merche - Te Lo Merceres.wav

Pre-gap length 0:00:02.00

Peak level 80.9 %
Extraction speed 9.9 X
Track quality 100.0 %
Test CRC 53B7C6A3
Copy CRC 53B7C6A3
Track not present in AccurateRip database
Copy OK

Track 18

Filename D:\#cdr\#wav+flac\VA - Top 40 Latino Caliente (The Ultimate Top 40 Collection)\cd 1\18. Jay Santos Feat. Fuego - Baila.wav

Pre-gap length 0:00:02.00

Peak level 95.5 %
Extraction speed 10.5 X
Track quality 100.0 %
Test CRC 87FBB362
Copy CRC 87FBB362
Track not present in AccurateRip database
Copy OK

Track 19

Filename D:\#cdr\#wav+flac\VA - Top 40 Latino Caliente (The Ultimate Top 40 Collection)\cd 1\19. Gadiel - Pegate Mas.wav

Pre-gap length 0:00:02.00

Peak level 85.0 %
Extraction speed 10.3 X
Track quality 100.0 %
Test CRC BDB4756E
Copy CRC BDB4756E
Track not present in AccurateRip database
Copy OK

Track 20

Filename D:\#cdr\#wav+flac\VA - Top 40 Latino Caliente (The Ultimate Top 40 Collection)\cd 1\20. Wisin - Vacaciones.wav

Pre-gap length 0:00:02.00

Peak level 83.5 %
Extraction speed 10.6 X
Track quality 100.0 %
Test CRC FCAA85FD
Copy CRC FCAA85FD
Track not present in AccurateRip database
Copy OK

Track 21

Filename D:\#cdr\#wav+flac\VA - Top 40 Latino Caliente (The Ultimate Top 40 Collection)\cd 1\21. Yandel - Encantadora.wav

Pre-gap length 0:00:02.00

Peak level 83.5 %
Extraction speed 9.1 X
Track quality 99.9 %
Test CRC D5731BEC
Copy CRC D5731BEC
Track not present in AccurateRip database
Copy OK


None of the tracks are present in the AccurateRip database

No errors occurred

End of status report

–– CUETools DB Plugin V2.1.6

[CTDB TOCID: ox5_l0ub9gkgZSk1CKx4LumK4e8-] disk not present in database
Submit result: ox5_l0ub9gkgZSk1CKx4LumK4e8- has been uploaded


==== Log checksum FD3C100C3FDCEA080D30CCEBB82AC6C00333721A3920EF8F2D756DB6B010C854 ====

––––––––––––––––––––––––––––––

Exact Audio Copy V1.3 from 2. September 2016

EAC extraction logfile from 27. August 2019, 14:51

Various Artists / Top 40 Latino Caliente : The Ultimate Top 40 Collection

Used drive : PLEXTOR PX-891SAF Adapter: 1 ID: 0

Read mode : Secure
Utilize accurate stream : Yes
Defeat audio cache : Yes
Make use of C2 pointers : No

Read offset correction : 6
Overread into Lead-In and Lead-Out : No
Fill up missing offset samples with silence : Yes
Delete leading and trailing silent blocks : No
Null samples used in CRC calculations : Yes
Used interface : Native Win32 interface for Win NT & 2000
Gap handling : Appended to previous track

Used output format : User Defined Encoder
Selected bitrate : 1024 kBit/s
Quality : High
Add ID3 tag : No
Command line compressor : C:\Program Files (x86)\Exact Audio Copy\Flac\flac.exe
Additional command line options : -8 -V -T "ARTIST=%artist%" -T "TITLE=%title%" -T "ALBUM=%albumtitle%" -T "DATE=%year%" -T "TRACKNUMBER=%tracknr%" -T "GENRE=%genre%" -T "PERFORMER=%albuminterpret%" -T "COMPOSER=%composer%" %haslyrics%–tag-from-file=LYRICS="%lyricsfile%"%haslyrics% -T "ALBUMARTIST=%albumartist%" -T "DISCNUMBER=%cdnumber%" -T "TOTALDISCS=%totalcds%" -T "TOTALTRACKS=%numtracks%" -T "COMMENT=%comment%" %source% -o %dest%


TOC of the extracted CD

Track | Start | Length | Start sector | End sector
––––––––––––––––––––––––––––-
1 | 0:00.00 | 3:50.47 | 0 | 17296
2 | 3:50.47 | 2:51.55 | 17297 | 30176
3 | 6:42.27 | 3:25.39 | 30177 | 45590
4 | 10:07.66 | 3:41.69 | 45591 | 62234
5 | 13:49.60 | 2:19.66 | 62235 | 72725
6 | 16:09.51 | 3:33.49 | 72726 | 88749
7 | 19:43.25 | 3:21.38 | 88750 | 103862
8 | 23:04.63 | 3:23.40 | 103863 | 119127
9 | 26:28.28 | 3:11.69 | 119128 | 133521
10 | 29:40.22 | 4:02.16 | 133522 | 151687
11 | 33:42.38 | 3:29.19 | 151688 | 167381
12 | 37:11.57 | 3:15.43 | 167382 | 182049
13 | 40:27.25 | 2:46.55 | 182050 | 194554
14 | 43:14.05 | 3:28.12 | 194555 | 210166
15 | 46:42.17 | 2:57.59 | 210167 | 223500
16 | 49:40.01 | 3:20.65 | 223501 | 238565
17 | 53:00.66 | 3:06.54 | 238566 | 252569
18 | 56:07.45 | 3:59.41 | 252570 | 270535
19 | 60:07.11 | 3:05.28 | 270536 | 284438
20 | 63:12.39 | 3:58.61 | 284439 | 302349
21 | 67:11.25 | 4:00.29 | 302350 | 320378


Track 1

Filename D:\#cdr\#wav+flac\VA - Top 40 Latino Caliente (The Ultimate Top 40 Collection)\cd 1\01. Luis Fonsi - Despacito.wav

Pre-gap length 0:00:02.00

Peak level 85.4 %
Extraction speed 5.6 X
Track quality 100.0 %
Test CRC 87952C20
Copy CRC 87952C20
Track not present in AccurateRip database
Copy OK

Track 2

Filename D:\#cdr\#wav+flac\VA - Top 40 Latino Caliente (The Ultimate Top 40 Collection)\cd 1\02. Shakira Feat. El Cata - Rabiosa.wav

Pre-gap length 0:00:02.00

Peak level 79.1 %
Extraction speed 5.8 X
Track quality 100.0 %
Test CRC 4EA8ADB5
Copy CRC 4EA8ADB5
Track not present in AccurateRip database
Copy OK

Track 3

Filename D:\#cdr\#wav+flac\VA - Top 40 Latino Caliente (The Ultimate Top 40 Collection)\cd 1\03. Alvaro Soler - La Cintura.wav

Pre-gap length 0:00:02.00

Peak level 74.5 %
Extraction speed 5.2 X
Track quality 99.9 %
Test CRC 220318A4
Copy CRC 220318A4
Track not present in AccurateRip database
Copy OK

Track 4

Filename D:\#cdr\#wav+flac\VA - Top 40 Latino Caliente (The Ultimate Top 40 Collection)\cd 1\04. CNCO - Reggaeton Lento Bailemos.wav

Pre-gap length 0:00:02.00

Peak level 79.5 %
Extraction speed 6.8 X
Track quality 100.0 %
Test CRC 7E39EE9F
Copy CRC 7E39EE9F
Track not present in AccurateRip database
Copy OK

Track 5

Filename D:\#cdr\#wav+flac\VA - Top 40 Latino Caliente (The Ultimate Top 40 Collection)\cd 1\05. Deorro Feat. Elvis Crespo - Bailar.wav

Pre-gap length 0:00:02.00

Peak level 96.6 %
Extraction speed 6.5 X
Track quality 100.0 %
Test CRC 7D9D6449
Copy CRC 7D9D6449
Track not present in AccurateRip database
Copy OK

Track 6

Filename D:\#cdr\#wav+flac\VA - Top 40 Latino Caliente (The Ultimate Top 40 Collection)\cd 1\06. Legarda Feat. Andy Rivera - Ya Estoy Mejor.wav

Pre-gap length 0:00:02.00

Peak level 73.8 %
Extraction speed 7.3 X
Track quality 100.0 %
Test CRC 2ED68FE1
Copy CRC 2ED68FE1
Track not present in AccurateRip database
Copy OK

Track 7

Filename D:\#cdr\#wav+flac\VA - Top 40 Latino Caliente (The Ultimate Top 40 Collection)\cd 1\07. Anders Nilsen - Salsa Tequila.wav

Pre-gap length 0:00:02.00

Peak level 96.6 %
Extraction speed 6.1 X
Track quality 99.9 %
Test CRC A4567CD8
Copy CRC A4567CD8
Track not present in AccurateRip database
Copy OK

Track 8

Filename D:\#cdr\#wav+flac\VA - Top 40 Latino Caliente (The Ultimate Top 40 Collection)\cd 1\08. Ana Mena Feat. Rk - Mentira.wav

Pre-gap length 0:00:02.00

Peak level 79.3 %
Extraction speed 6.4 X
Track quality 99.9 %
Test CRC B8C8A20E
Copy CRC B8C8A20E
Track not present in AccurateRip database
Copy OK

Track 9

Filename D:\#cdr\#wav+flac\VA - Top 40 Latino Caliente (The Ultimate Top 40 Collection)\cd 1\09. Sergi El Combo - Se Nota.wav

Pre-gap length 0:00:02.00

Peak level 75.8 %
Extraction speed 6.4 X
Track quality 99.9 %
Test CRC 41540D58
Copy CRC 41540D58
Track not present in AccurateRip database
Copy OK

Track 10

Filename D:\#cdr\#wav+flac\VA - Top 40 Latino Caliente (The Ultimate Top 40 Collection)\cd 1\10. Pitbull Feat. Sensato & Osmano Garcia - El Taxi.wav

Pre-gap length 0:00:02.00

Peak level 87.2 %
Extraction speed 8.6 X
Track quality 100.0 %
Test CRC 472CD7C6
Copy CRC 472CD7C6
Track not present in AccurateRip database
Copy OK

Track 11

Filename D:\#cdr\#wav+flac\VA - Top 40 Latino Caliente (The Ultimate Top 40 Collection)\cd 1\11. Danny Romero Feat. Sanco - No Creo En El Amor.wav

Pre-gap length 0:00:02.00

Peak level 79.1 %
Extraction speed 8.7 X
Track quality 100.0 %
Test CRC F39ADD9F
Copy CRC F39ADD9F
Track not present in AccurateRip database
Copy OK

Track 12

Filename D:\#cdr\#wav+flac\VA - Top 40 Latino Caliente (The Ultimate Top 40 Collection)\cd 1\12. Shaggy Feat. Omi - Seasons.wav

Pre-gap length 0:00:02.00

Peak level 72.0 %
Extraction speed 8.7 X
Track quality 100.0 %
Test CRC F4091E59
Copy CRC F4091E59
Track not present in AccurateRip database
Copy OK

Track 13

Filename D:\#cdr\#wav+flac\VA - Top 40 Latino Caliente (The Ultimate Top 40 Collection)\cd 1\13. El Profesor - Bella Ciao [Hugel Remix].wav

Pre-gap length 0:00:02.00

Peak level 96.5 %
Extraction speed 8.7 X
Track quality 100.0 %
Test CRC 29F7DF30
Copy CRC 29F7DF30
Track not present in AccurateRip database
Copy OK

Track 14

Filename D:\#cdr\#wav+flac\VA - Top 40 Latino Caliente (The Ultimate Top 40 Collection)\cd 1\14. Dellafuente Feat. C. Tangana - Guerrera.wav

Pre-gap length 0:00:02.00

Peak level 91.0 %
Extraction speed 7.7 X
Track quality 99.9 %
Test CRC 14C62537
Copy CRC 14C62537
Track not present in AccurateRip database
Copy OK

Track 15

Filename D:\#cdr\#wav+flac\VA - Top 40 Latino Caliente (The Ultimate Top 40 Collection)\cd 1\15. Kris Kross Amsterdam X Ally Brooke X Messiah - Vamonos.wav

Pre-gap length 0:00:02.00

Peak level 96.6 %
Extraction speed 9.3 X
Track quality 100.0 %
Test CRC 4CF7B1DE
Copy CRC 4CF7B1DE
Track not present in AccurateRip database
Copy OK

Track 16

Filename D:\#cdr\#wav+flac\VA - Top 40 Latino Caliente (The Ultimate Top 40 Collection)\cd 1\16. Cris Cab Feat. J Balvin - Just Wanna Love You.wav

Pre-gap length 0:00:02.00

Peak level 96.6 %
Extraction speed 7.8 X
Track quality 99.9 %
Test CRC CD8E0768
Copy CRC CD8E0768
Track not present in AccurateRip database
Copy OK

Track 17

Filename D:\#cdr\#wav+flac\VA - Top 40 Latino Caliente (The Ultimate Top 40 Collection)\cd 1\17. Merche - Te Lo Merceres.wav

Pre-gap length 0:00:02.00

Peak level 80.9 %
Extraction speed 9.9 X
Track quality 100.0 %
Test CRC 53B7C6A3
Copy CRC 53B7C6A3
Track not present in AccurateRip database
Copy OK

Track 18

Filename D:\#cdr\#wav+flac\VA - Top 40 Latino Caliente (The Ultimate Top 40 Collection)\cd 1\18. Jay Santos Feat. Fuego - Baila.wav

Pre-gap length 0:00:02.00

Peak level 95.5 %
Extraction speed 10.5 X
Track quality 100.0 %
Test CRC 87FBB362
Copy CRC 87FBB362
Track not present in AccurateRip database
Copy OK

Track 19

Filename D:\#cdr\#wav+flac\VA - Top 40 Latino Caliente (The Ultimate Top 40 Collection)\cd 1\19. Gadiel - Pegate Mas.wav

Pre-gap length 0:00:02.00

Peak level 85.0 %
Extraction speed 10.3 X
Track quality 100.0 %
Test CRC BDB4756E
Copy CRC BDB4756E
Track not present in AccurateRip database
Copy OK

Track 20

Filename D:\#cdr\#wav+flac\VA - Top 40 Latino Caliente (The Ultimate Top 40 Collection)\cd 1\20. Wisin - Vacaciones.wav

Pre-gap length 0:00:02.00

Peak level 83.5 %
Extraction speed 10.6 X
Track quality 100.0 %
Test CRC FCAA85FD
Copy CRC FCAA85FD
Track not present in AccurateRip database
Copy OK

Track 21

Filename D:\#cdr\#wav+flac\VA - Top 40 Latino Caliente (The Ultimate Top 40 Collection)\cd 1\21. Yandel - Encantadora.wav

Pre-gap length 0:00:02.00

Peak level 83.5 %
Extraction speed 9.1 X
Track quality 99.9 %
Test CRC D5731BEC
Copy CRC D5731BEC
Track not present in AccurateRip database
Copy OK


None of the tracks are present in the AccurateRip database

No errors occurred

End of status report

–– CUETools DB Plugin V2.1.6

[CTDB TOCID: ox5_l0ub9gkgZSk1CKx4LumK4e8-] disk not present in database
Submit result: ox5_l0ub9gkgZSk1CKx4LumK4e8- has been uploaded


==== Log checksum FD3C100C3FDCEA080D30CCEBB82AC6C00333721A3920EF8F2D756DB6B010C854 ====

Exact Audio Copy V1.3 from 2. September 2016

EAC extraction logfile from 27. August 2019, 15:13

Various Artists / Top 40 Latino Caliente : The Ultimate Top 40 Collection

Used drive : PLEXTOR PX-891SAF Adapter: 1 ID: 0

Read mode : Secure
Utilize accurate stream : Yes
Defeat audio cache : Yes
Make use of C2 pointers : No

Read offset correction : 6
Overread into Lead-In and Lead-Out : No
Fill up missing offset samples with silence : Yes
Delete leading and trailing silent blocks : No
Null samples used in CRC calculations : Yes
Used interface : Native Win32 interface for Win NT & 2000
Gap handling : Appended to previous track

Used output format : User Defined Encoder
Selected bitrate : 1024 kBit/s
Quality : High
Add ID3 tag : No
Command line compressor : C:\Program Files (x86)\Exact Audio Copy\Flac\flac.exe
Additional command line options : -8 -V -T "ARTIST=%artist%" -T "TITLE=%title%" -T "ALBUM=%albumtitle%" -T "DATE=%year%" -T "TRACKNUMBER=%tracknr%" -T "GENRE=%genre%" -T "PERFORMER=%albuminterpret%" -T "COMPOSER=%composer%" %haslyrics%–tag-from-file=LYRICS="%lyricsfile%"%haslyrics% -T "ALBUMARTIST=%albumartist%" -T "DISCNUMBER=%cdnumber%" -T "TOTALDISCS=%totalcds%" -T "TOTALTRACKS=%numtracks%" -T "COMMENT=%comment%" %source% -o %dest%


TOC of the extracted CD

Track | Start | Length | Start sector | End sector
––––––––––––––––––––––––––––-
1 | 0:00.00 | 3:32.59 | 0 | 15958
2 | 3:32.59 | 3:07.38 | 15959 | 30021
3 | 6:40.22 | 3:32.14 | 30022 | 45935
4 | 10:12.36 | 2:47.74 | 45936 | 58534
5 | 13:00.35 | 3:38.21 | 58535 | 74905
6 | 16:38.56 | 2:51.60 | 74906 | 87790
7 | 19:30.41 | 3:51.73 | 87791 | 105188
8 | 23:22.39 | 3:40.22 | 105189 | 121710
9 | 27:02.61 | 3:46.14 | 121711 | 138674
10 | 30:49.00 | 3:08.14 | 138675 | 152788
11 | 33:57.14 | 3:55.30 | 152789 | 170443
12 | 37:52.44 | 2:53.63 | 170444 | 183481
13 | 40:46.32 | 3:41.42 | 183482 | 200098
14 | 44:27.74 | 3:36.12 | 200099 | 216310
15 | 48:04.11 | 3:30.43 | 216311 | 232103
16 | 51:34.54 | 4:12.47 | 232104 | 251050
17 | 55:47.26 | 3:03.12 | 251051 | 264787
18 | 58:50.38 | 3:24.09 | 264788 | 280096
19 | 62:14.47 | 3:07.32 | 280097 | 294153
20 | 65:22.04 | 2:54.61 | 294154 | 307264
21 | 68:16.65 | 3:25.10 | 307265 | 322649


Track 1

Filename D:\#cdr\#wav+flac\VA - Top 40 Latino Caliente (The Ultimate Top 40 Collection)\cd 2\01. Ricky Martin Feat. Yotuel - La Mordidita.wav

Pre-gap length 0:00:02.00

Peak level 81.3 %
Extraction speed 4.6 X
Track quality 99.9 %
Test CRC 8AD7E9CB
Copy CRC 8AD7E9CB
Track not present in AccurateRip database
Copy OK

Track 2

Filename D:\#cdr\#wav+flac\VA - Top 40 Latino Caliente (The Ultimate Top 40 Collection)\cd 2\02. J. Balvin & Willy William - Mi Gente.wav

Pre-gap length 0:00:02.00

Peak level 72.3 %
Extraction speed 5.9 X
Track quality 100.0 %
Test CRC D1C826B1
Copy CRC D1C826B1
Track not present in AccurateRip database
Copy OK

Track 3

Filename D:\#cdr\#wav+flac\VA - Top 40 Latino Caliente (The Ultimate Top 40 Collection)\cd 2\03. Tacabro - Tacatà.wav

Pre-gap length 0:00:02.00

Peak level 83.3 %
Extraction speed 6.3 X
Track quality 100.0 %
Test CRC EC55AC03
Copy CRC EC55AC03
Track not present in AccurateRip database
Copy OK

Track 4

Filename D:\#cdr\#wav+flac\VA - Top 40 Latino Caliente (The Ultimate Top 40 Collection)\cd 2\04. Rak-Su - Dímelo.wav

Pre-gap length 0:00:02.00

Peak level 76.4 %
Extraction speed 5.1 X
Track quality 99.9 %
Test CRC 5434621A
Copy CRC 5434621A
Track not present in AccurateRip database
Copy OK

Track 5

Filename D:\#cdr\#wav+flac\VA - Top 40 Latino Caliente (The Ultimate Top 40 Collection)\cd 2\05. Jennifer Lopez - Ain't Your Mama.wav

Pre-gap length 0:00:02.00

Peak level 87.4 %
Extraction speed 7.0 X
Track quality 100.0 %
Test CRC 3376FF8B
Copy CRC 3376FF8B
Track not present in AccurateRip database
Copy OK

Track 6

Filename D:\#cdr\#wav+flac\VA - Top 40 Latino Caliente (The Ultimate Top 40 Collection)\cd 2\06. Jose De Rico Feat. Danny Romero & Fito Blanko - Soltera.wav

Pre-gap length 0:00:02.00

Peak level 78.9 %
Extraction speed 7.2 X
Track quality 100.0 %
Test CRC C94CBE43
Copy CRC C94CBE43
Track not present in AccurateRip database
Copy OK

Track 7

Filename D:\#cdr\#wav+flac\VA - Top 40 Latino Caliente (The Ultimate Top 40 Collection)\cd 2\07. La Mafia Del Amor Feat. El Combo Perfecto - La Disco Resplandece.wav

Pre-gap length 0:00:02.00

Peak level 79.4 %
Extraction speed 7.9 X
Track quality 100.0 %
Test CRC E46EC3CE
Copy CRC E46EC3CE
Track not present in AccurateRip database
Copy OK

Track 8

Filename D:\#cdr\#wav+flac\VA - Top 40 Latino Caliente (The Ultimate Top 40 Collection)\cd 2\08. Robert Abigail - Merengue.wav

Pre-gap length 0:00:02.00

Peak level 96.6 %
Extraction speed 8.1 X
Track quality 100.0 %
Test CRC AFE707B3
Copy CRC AFE707B3
Track not present in AccurateRip database
Copy OK

Track 9

Filename D:\#cdr\#wav+flac\VA - Top 40 Latino Caliente (The Ultimate Top 40 Collection)\cd 2\09. D.K.B. & Descemer Bueno - No Necesito Un Doctor.wav

Pre-gap length 0:00:02.00

Peak level 69.8 %
Extraction speed 8.5 X
Track quality 100.0 %
Test CRC B435AA43
Copy CRC B435AA43
Track not present in AccurateRip database
Copy OK

Track 10

Filename D:\#cdr\#wav+flac\VA - Top 40 Latino Caliente (The Ultimate Top 40 Collection)\cd 2\10. Danio Crespo - Suavemente.wav

Pre-gap length 0:00:02.00

Peak level 92.8 %
Extraction speed 8.5 X
Track quality 100.0 %
Test CRC 376F0AAE
Copy CRC 376F0AAE
Track not present in AccurateRip database
Copy OK

Track 11

Filename D:\#cdr\#wav+flac\VA - Top 40 Latino Caliente (The Ultimate Top 40 Collection)\cd 2\11. Sosa Feat. Danny Romero - Me Cequé.wav

Pre-gap length 0:00:02.00

Peak level 75.2 %
Extraction speed 7.5 X
Track quality 99.9 %
Test CRC F6C11085
Copy CRC F6C11085
Track not present in AccurateRip database
Copy OK

Track 12

Filename D:\#cdr\#wav+flac\VA - Top 40 Latino Caliente (The Ultimate Top 40 Collection)\cd 2\12. Netsky Feat. A.Chal - Tequila Limonada.wav

Pre-gap length 0:00:02.00

Peak level 77.6 %
Extraction speed 8.8 X
Track quality 100.0 %
Test CRC EB64EF4C
Copy CRC EB64EF4C
Track not present in AccurateRip database
Copy OK

Track 13

Filename D:\#cdr\#wav+flac\VA - Top 40 Latino Caliente (The Ultimate Top 40 Collection)\cd 2\13. C. Tangana - Mala Mujer.wav

Pre-gap length 0:00:02.00

Peak level 94.7 %
Extraction speed 9.5 X
Track quality 100.0 %
Test CRC 48E6A32D
Copy CRC 48E6A32D
Track not present in AccurateRip database
Copy OK

Track 14

Filename D:\#cdr\#wav+flac\VA - Top 40 Latino Caliente (The Ultimate Top 40 Collection)\cd 2\14. MC Fioti Feat. Future, J Blavin, Stefflon Don & Juan Magan - Bum Bum Tam Tam.wav

Pre-gap length 0:00:02.00

Peak level 78.4 %
Extraction speed 9.7 X
Track quality 100.0 %
Test CRC AB9AC7A4
Copy CRC AB9AC7A4
Track not present in AccurateRip database
Copy OK

Track 15

Filename D:\#cdr\#wav+flac\VA - Top 40 Latino Caliente (The Ultimate Top 40 Collection)\cd 2\15. Dellafuente - Me Pelea.wav

Pre-gap length 0:00:02.00

Peak level 94.8 %
Extraction speed 10.0 X
Track quality 100.0 %
Test CRC 2B18279D
Copy CRC 2B18279D
Track not present in AccurateRip database
Copy OK

Track 16

Filename D:\#cdr\#wav+flac\VA - Top 40 Latino Caliente (The Ultimate Top 40 Collection)\cd 2\16. Abraham Mateo, Farruko & Christian Daniel - Loco Enamorado.wav

Pre-gap length 0:00:02.00

Peak level 82.8 %
Extraction speed 8.6 X
Track quality 99.9 %
Test CRC 4C386B96
Copy CRC 4C386B96
Track not present in AccurateRip database
Copy OK

Track 17

Filename D:\#cdr\#wav+flac\VA - Top 40 Latino Caliente (The Ultimate Top 40 Collection)\cd 2\17. Dr. Bellido Feat. Dama - Porque Tu Te Vas.wav

Pre-gap length 0:00:02.00

Peak level 96.6 %
Extraction speed 10.1 X
Track quality 100.0 %
Test CRC B1558E70
Copy CRC B1558E70
Track not present in AccurateRip database
Copy OK

Track 18

Filename D:\#cdr\#wav+flac\VA - Top 40 Latino Caliente (The Ultimate Top 40 Collection)\cd 2\18. Loco Escrito - Adios.wav

Pre-gap length 0:00:02.00

Peak level 83.1 %
Extraction speed 10.4 X
Track quality 100.0 %
Test CRC D165910F
Copy CRC D165910F
Track not present in AccurateRip database
Copy OK

Track 19

Filename D:\#cdr\#wav+flac\VA - Top 40 Latino Caliente (The Ultimate Top 40 Collection)\cd 2\19. Sanco - Hagamos El Amor.wav

Pre-gap length 0:00:02.00

Peak level 88.5 %
Extraction speed 10.4 X
Track quality 100.0 %
Test CRC F6FEAA1F
Copy CRC F6FEAA1F
Track not present in AccurateRip database
Copy OK

Track 20

Filename D:\#cdr\#wav+flac\VA - Top 40 Latino Caliente (The Ultimate Top 40 Collection)\cd 2\20. Dani Alves Feat. Pinto ''Wahin'' & Thiago Mattheus - Suave.wav

Pre-gap length 0:00:02.00

Peak level 75.9 %
Extraction speed 10.5 X
Track quality 100.0 %
Test CRC 812DBAF1
Copy CRC 812DBAF1
Track not present in AccurateRip database
Copy OK

Track 21

Filename D:\#cdr\#wav+flac\VA - Top 40 Latino Caliente (The Ultimate Top 40 Collection)\cd 2\21. Leslie Grace Feat. Noriel - Duro Y Suave.wav

Pre-gap length 0:00:02.00

Peak level 64.5 %
Extraction speed 10.9 X
Track quality 100.0 %
Test CRC 34798A67
Copy CRC 34798A67
Track not present in AccurateRip database
Copy OK


None of the tracks are present in the AccurateRip database

No errors occurred

End of status report

–– CUETools DB Plugin V2.1.6

[CTDB TOCID: CtXLZCh0.oLanwkyZ9l3o_jZbVg-] disk not present in database
Submit result: CtXLZCh0.oLanwkyZ9l3o_jZbVg- has been uploaded


==== Log checksum 878E6D0651013750E449F122AAFA403D94A6DF365DCFA6B76A5D00713C006FBF ====

––––––––––––––––––––––––––––––

Exact Audio Copy V1.3 from 2. September 2016

EAC extraction logfile from 27. August 2019, 15:13

Various Artists / Top 40 Latino Caliente : The Ultimate Top 40 Collection

Used drive : PLEXTOR PX-891SAF Adapter: 1 ID: 0

Read mode : Secure
Utilize accurate stream : Yes
Defeat audio cache : Yes
Make use of C2 pointers : No

Read offset correction : 6
Overread into Lead-In and Lead-Out : No
Fill up missing offset samples with silence : Yes
Delete leading and trailing silent blocks : No
Null samples used in CRC calculations : Yes
Used interface : Native Win32 interface for Win NT & 2000
Gap handling : Appended to previous track

Used output format : User Defined Encoder
Selected bitrate : 1024 kBit/s
Quality : High
Add ID3 tag : No
Command line compressor : C:\Program Files (x86)\Exact Audio Copy\Flac\flac.exe
Additional command line options : -8 -V -T "ARTIST=%artist%" -T "TITLE=%title%" -T "ALBUM=%albumtitle%" -T "DATE=%year%" -T "TRACKNUMBER=%tracknr%" -T "GENRE=%genre%" -T "PERFORMER=%albuminterpret%" -T "COMPOSER=%composer%" %haslyrics%–tag-from-file=LYRICS="%lyricsfile%"%haslyrics% -T "ALBUMARTIST=%albumartist%" -T "DISCNUMBER=%cdnumber%" -T "TOTALDISCS=%totalcds%" -T "TOTALTRACKS=%numtracks%" -T "COMMENT=%comment%" %source% -o %dest%


TOC of the extracted CD

Track | Start | Length | Start sector | End sector
––––––––––––––––––––––––––––-
1 | 0:00.00 | 3:32.59 | 0 | 15958
2 | 3:32.59 | 3:07.38 | 15959 | 30021
3 | 6:40.22 | 3:32.14 | 30022 | 45935
4 | 10:12.36 | 2:47.74 | 45936 | 58534
5 | 13:00.35 | 3:38.21 | 58535 | 74905
6 | 16:38.56 | 2:51.60 | 74906 | 87790
7 | 19:30.41 | 3:51.73 | 87791 | 105188
8 | 23:22.39 | 3:40.22 | 105189 | 121710
9 | 27:02.61 | 3:46.14 | 121711 | 138674
10 | 30:49.00 | 3:08.14 | 138675 | 152788
11 | 33:57.14 | 3:55.30 | 152789 | 170443
12 | 37:52.44 | 2:53.63 | 170444 | 183481
13 | 40:46.32 | 3:41.42 | 183482 | 200098
14 | 44:27.74 | 3:36.12 | 200099 | 216310
15 | 48:04.11 | 3:30.43 | 216311 | 232103
16 | 51:34.54 | 4:12.47 | 232104 | 251050
17 | 55:47.26 | 3:03.12 | 251051 | 264787
18 | 58:50.38 | 3:24.09 | 264788 | 280096
19 | 62:14.47 | 3:07.32 | 280097 | 294153
20 | 65:22.04 | 2:54.61 | 294154 | 307264
21 | 68:16.65 | 3:25.10 | 307265 | 322649


Track 1

Filename D:\#cdr\#wav+flac\VA - Top 40 Latino Caliente (The Ultimate Top 40 Collection)\cd 2\01. Ricky Martin Feat. Yotuel - La Mordidita.wav

Pre-gap length 0:00:02.00

Peak level 81.3 %
Extraction speed 4.6 X
Track quality 99.9 %
Test CRC 8AD7E9CB
Copy CRC 8AD7E9CB
Track not present in AccurateRip database
Copy OK

Track 2

Filename D:\#cdr\#wav+flac\VA - Top 40 Latino Caliente (The Ultimate Top 40 Collection)\cd 2\02. J. Balvin & Willy William - Mi Gente.wav

Pre-gap length 0:00:02.00

Peak level 72.3 %
Extraction speed 5.9 X
Track quality 100.0 %
Test CRC D1C826B1
Copy CRC D1C826B1
Track not present in AccurateRip database
Copy OK

Track 3

Filename D:\#cdr\#wav+flac\VA - Top 40 Latino Caliente (The Ultimate Top 40 Collection)\cd 2\03. Tacabro - Tacatà.wav

Pre-gap length 0:00:02.00

Peak level 83.3 %
Extraction speed 6.3 X
Track quality 100.0 %
Test CRC EC55AC03
Copy CRC EC55AC03
Track not present in AccurateRip database
Copy OK

Track 4

Filename D:\#cdr\#wav+flac\VA - Top 40 Latino Caliente (The Ultimate Top 40 Collection)\cd 2\04. Rak-Su - Dímelo.wav

Pre-gap length 0:00:02.00

Peak level 76.4 %
Extraction speed 5.1 X
Track quality 99.9 %
Test CRC 5434621A
Copy CRC 5434621A
Track not present in AccurateRip database
Copy OK

Track 5

Filename D:\#cdr\#wav+flac\VA - Top 40 Latino Caliente (The Ultimate Top 40 Collection)\cd 2\05. Jennifer Lopez - Ain't Your Mama.wav

Pre-gap length 0:00:02.00

Peak level 87.4 %
Extraction speed 7.0 X
Track quality 100.0 %
Test CRC 3376FF8B
Copy CRC 3376FF8B
Track not present in AccurateRip database
Copy OK

Track 6

Filename D:\#cdr\#wav+flac\VA - Top 40 Latino Caliente (The Ultimate Top 40 Collection)\cd 2\06. Jose De Rico Feat. Danny Romero & Fito Blanko - Soltera.wav

Pre-gap length 0:00:02.00

Peak level 78.9 %
Extraction speed 7.2 X
Track quality 100.0 %
Test CRC C94CBE43
Copy CRC C94CBE43
Track not present in AccurateRip database
Copy OK

Track 7

Filename D:\#cdr\#wav+flac\VA - Top 40 Latino Caliente (The Ultimate Top 40 Collection)\cd 2\07. La Mafia Del Amor Feat. El Combo Perfecto - La Disco Resplandece.wav

Pre-gap length 0:00:02.00

Peak level 79.4 %
Extraction speed 7.9 X
Track quality 100.0 %
Test CRC E46EC3CE
Copy CRC E46EC3CE
Track not present in AccurateRip database
Copy OK

Track 8

Filename D:\#cdr\#wav+flac\VA - Top 40 Latino Caliente (The Ultimate Top 40 Collection)\cd 2\08. Robert Abigail - Merengue.wav

Pre-gap length 0:00:02.00

Peak level 96.6 %
Extraction speed 8.1 X
Track quality 100.0 %
Test CRC AFE707B3
Copy CRC AFE707B3
Track not present in AccurateRip database
Copy OK

Track 9

Filename D:\#cdr\#wav+flac\VA - Top 40 Latino Caliente (The Ultimate Top 40 Collection)\cd 2\09. D.K.B. & Descemer Bueno - No Necesito Un Doctor.wav

Pre-gap length 0:00:02.00

Peak level 69.8 %
Extraction speed 8.5 X
Track quality 100.0 %
Test CRC B435AA43
Copy CRC B435AA43
Track not present in AccurateRip database
Copy OK

Track 10

Filename D:\#cdr\#wav+flac\VA - Top 40 Latino Caliente (The Ultimate Top 40 Collection)\cd 2\10. Danio Crespo - Suavemente.wav

Pre-gap length 0:00:02.00

Peak level 92.8 %
Extraction speed 8.5 X
Track quality 100.0 %
Test CRC 376F0AAE
Copy CRC 376F0AAE
Track not present in AccurateRip database
Copy OK

Track 11

Filename D:\#cdr\#wav+flac\VA - Top 40 Latino Caliente (The Ultimate Top 40 Collection)\cd 2\11. Sosa Feat. Danny Romero - Me Cequé.wav

Pre-gap length 0:00:02.00

Peak level 75.2 %
Extraction speed 7.5 X
Track quality 99.9 %
Test CRC F6C11085
Copy CRC F6C11085
Track not present in AccurateRip database
Copy OK

Track 12

Filename D:\#cdr\#wav+flac\VA - Top 40 Latino Caliente (The Ultimate Top 40 Collection)\cd 2\12. Netsky Feat. A.Chal - Tequila Limonada.wav

Pre-gap length 0:00:02.00

Peak level 77.6 %
Extraction speed 8.8 X
Track quality 100.0 %
Test CRC EB64EF4C
Copy CRC EB64EF4C
Track not present in AccurateRip database
Copy OK

Track 13

Filename D:\#cdr\#wav+flac\VA - Top 40 Latino Caliente (The Ultimate Top 40 Collection)\cd 2\13. C. Tangana - Mala Mujer.wav

Pre-gap length 0:00:02.00

Peak level 94.7 %
Extraction speed 9.5 X
Track quality 100.0 %
Test CRC 48E6A32D
Copy CRC 48E6A32D
Track not present in AccurateRip database
Copy OK

Track 14

Filename D:\#cdr\#wav+flac\VA - Top 40 Latino Caliente (The Ultimate Top 40 Collection)\cd 2\14. MC Fioti Feat. Future, J Blavin, Stefflon Don & Juan Magan - Bum Bum Tam Tam.wav

Pre-gap length 0:00:02.00

Peak level 78.4 %
Extraction speed 9.7 X
Track quality 100.0 %
Test CRC AB9AC7A4
Copy CRC AB9AC7A4
Track not present in AccurateRip database
Copy OK

Track 15

Filename D:\#cdr\#wav+flac\VA - Top 40 Latino Caliente (The Ultimate Top 40 Collection)\cd 2\15. Dellafuente - Me Pelea.wav

Pre-gap length 0:00:02.00

Peak level 94.8 %
Extraction speed 10.0 X
Track quality 100.0 %
Test CRC 2B18279D
Copy CRC 2B18279D
Track not present in AccurateRip database
Copy OK

Track 16

Filename D:\#cdr\#wav+flac\VA - Top 40 Latino Caliente (The Ultimate Top 40 Collection)\cd 2\16. Abraham Mateo, Farruko & Christian Daniel - Loco Enamorado.wav

Pre-gap length 0:00:02.00

Peak level 82.8 %
Extraction speed 8.6 X
Track quality 99.9 %
Test CRC 4C386B96
Copy CRC 4C386B96
Track not present in AccurateRip database
Copy OK

Track 17

Filename D:\#cdr\#wav+flac\VA - Top 40 Latino Caliente (The Ultimate Top 40 Collection)\cd 2\17. Dr. Bellido Feat. Dama - Porque Tu Te Vas.wav

Pre-gap length 0:00:02.00

Peak level 96.6 %
Extraction speed 10.1 X
Track quality 100.0 %
Test CRC B1558E70
Copy CRC B1558E70
Track not present in AccurateRip database
Copy OK

Track 18

Filename D:\#cdr\#wav+flac\VA - Top 40 Latino Caliente (The Ultimate Top 40 Collection)\cd 2\18. Loco Escrito - Adios.wav

Pre-gap length 0:00:02.00

Peak level 83.1 %
Extraction speed 10.4 X
Track quality 100.0 %
Test CRC D165910F
Copy CRC D165910F
Track not present in AccurateRip database
Copy OK

Track 19

Filename D:\#cdr\#wav+flac\VA - Top 40 Latino Caliente (The Ultimate Top 40 Collection)\cd 2\19. Sanco - Hagamos El Amor.wav

Pre-gap length 0:00:02.00

Peak level 88.5 %
Extraction speed 10.4 X
Track quality 100.0 %
Test CRC F6FEAA1F
Copy CRC F6FEAA1F
Track not present in AccurateRip database
Copy OK

Track 20

Filename D:\#cdr\#wav+flac\VA - Top 40 Latino Caliente (The Ultimate Top 40 Collection)\cd 2\20. Dani Alves Feat. Pinto ''Wahin'' & Thiago Mattheus - Suave.wav

Pre-gap length 0:00:02.00

Peak level 75.9 %
Extraction speed 10.5 X
Track quality 100.0 %
Test CRC 812DBAF1
Copy CRC 812DBAF1
Track not present in AccurateRip database
Copy OK

Track 21

Filename D:\#cdr\#wav+flac\VA - Top 40 Latino Caliente (The Ultimate Top 40 Collection)\cd 2\21. Leslie Grace Feat. Noriel - Duro Y Suave.wav

Pre-gap length 0:00:02.00

Peak level 64.5 %
Extraction speed 10.9 X
Track quality 100.0 %
Test CRC 34798A67
Copy CRC 34798A67
Track not present in AccurateRip database
Copy OK


None of the tracks are present in the AccurateRip database

No errors occurred

End of status report

–– CUETools DB Plugin V2.1.6

[CTDB TOCID: CtXLZCh0.oLanwkyZ9l3o_jZbVg-] disk not present in database
Submit result: CtXLZCh0.oLanwkyZ9l3o_jZbVg- has been uploaded


==== Log checksum 878E6D0651013750E449F122AAFA403D94A6DF365DCFA6B76A5D00713C006FBF ====