Subcategories

VA - 538 Dance Smash 2015 Vol. 1 & 2 (2015)

Posted By: popsakov
VA - 538 Dance Smash 2015 Vol. 1 & 2 (2015)

VA - 538 Dance Smash 2015 Vol. 1 & 2 (2015)
2CD | EAC Rip | FLAC (Img) + Cue + Log ~ 1.15 Gb | MP3 CBR320 ~ 395 Mb
Scans Included (PNG, 300 dpi) | RAR 5% Recovery
Dance, House, Electro, Pop | 01:18:29 + 01:18:51 | Universal Music #472 341-5/472 341-6

Dance CD compilation series compiled by Dutch radio station Radio 538 (103 FM), hence the "538" in the series title.

********************

VA - 538 Dance Smash 2015 Vol. 1 & 2 (2015)

Track List Vol. 1:

01. OMI - Cheerleader (Felix Jaehn Remix) [03:01]
02. Galantis - Runaway (U & I) [03:43]
03. Fox Stevenson - Sweets (Soda Pop) [03:07]
04. Avicii - The Nights [02:53]
05. Yellow Claw feat. Ayden - Till It Hurts [03:09]
06. Martin Garrix - Forbidden Voices [03:47]
07. Kygo feat. Conrad - Firestone [03:23]
08. Martin Solveig & GTA - Intoxicated [02:36]
09. Hardwell feat. Harrison - Sally [03:27]
10. Lost Frequencies - Are You With Me [02:17]
11. Fedde Le Grand feat. Niels Geusebroek - Falling [03:40]
12. Zeds Dead & Oliver Heldens - You Know [03:17]
13. DJ Fresh feat. Ella Eyre - Gravity [03:11]
14. Chocolate Puma & Firebeatz - I Can't Understand [03:14]
15. Afrojack & Matthew Koma - Illuminate [03:22]
16. Made In June - Perfect Storm [03:20]
17. Philip George - Wish You Were Mine [02:55]
18. Showtek feat. MC Ambush - 90s By Nature [02:49]
19. Timmy Trumpet & Savage - Freaks [02:49]
20. Sunnery James & Ryan Marciano feat. KiFi - Come Follow [03:38]
21. Zwette feat. Molly - Rush [03:22]
22. Nicky Romero & Vicetone feat. When We Are Wild - Let Me Feel [03:23]
23. Bakermat - Teache Me [03:09]
24. Jan Hinke - 5uur38 Mix, Volume 1 [05:07]

Exact Audio Copy V1.0 beta 4 from 7. December 2014

EAC extraction logfile from 20. March 2015, 17:29

- / 538 Dance Smash 2015 vol.1

Used drive : PIONEER DVD-RW DVR-221L Adapter: 1 ID: 0

Read mode : Secure
Utilize accurate stream : Yes
Defeat audio cache : Yes
Make use of C2 pointers : No

Read offset correction : 6
Overread into Lead-In and Lead-Out : No
Fill up missing offset samples with silence : Yes
Delete leading and trailing silent blocks : No
Null samples used in CRC calculations : Yes
Used interface : Installed external ASPI interface

Used output format : Internal WAV Routines
Sample format : 44.100 Hz; 16 Bit; Stereo


TOC of the extracted CD

Track | Start | Length | Start sector | End sector
––––––––––––––––––––––––––––-
1 | 0:00.00 | 3:00.03 | 0 | 13502
2 | 3:00.03 | 3:42.18 | 13503 | 30170
3 | 6:42.21 | 3:06.27 | 30171 | 44147
4 | 9:48.48 | 2:52.38 | 44148 | 57085
5 | 12:41.11 | 3:08.51 | 57086 | 71236
6 | 15:49.62 | 3:46.57 | 71237 | 88243
7 | 19:36.44 | 3:22.13 | 88244 | 103406
8 | 22:58.57 | 2:35.69 | 103407 | 115100
9 | 25:34.51 | 3:26.34 | 115101 | 130584
10 | 29:01.10 | 2:16.67 | 130585 | 140851
11 | 31:18.02 | 3:39.28 | 140852 | 157304
12 | 34:57.30 | 3:16.67 | 157305 | 172071
13 | 38:14.22 | 3:10.52 | 172072 | 186373
14 | 41:24.74 | 3:13.74 | 186374 | 200922
15 | 44:38.73 | 3:21.48 | 200923 | 216045
16 | 48:00.46 | 3:19.55 | 216046 | 231025
17 | 51:20.26 | 2:54.68 | 231026 | 244143
18 | 54:15.19 | 2:48.28 | 244144 | 256771
19 | 57:03.47 | 2:48.48 | 256772 | 269419
20 | 59:52.20 | 3:37.42 | 269420 | 285736
21 | 63:29.62 | 3:21.59 | 285737 | 300870
22 | 66:51.46 | 3:22.37 | 300871 | 316057
23 | 70:14.08 | 3:08.25 | 316058 | 330182
24 | 73:22.33 | 5:06.31 | 330183 | 353163


Range status and errors

Selected range

Filename D:\POST 2\538 Dance Smash 2015 vol.1 (EAC)\538 Dance Smash 2015 vol.1.wav

Peak level 100.0 %
Extraction speed 8.6 X
Range quality 100.0 %
Test CRC EC2C159F
Copy CRC EC2C159F
Copy OK

No errors occurred


AccurateRip summary

Track 1 not present in database
Track 2 not present in database
Track 3 not present in database
Track 4 not present in database
Track 5 not present in database
Track 6 not present in database
Track 7 not present in database
Track 8 not present in database
Track 9 not present in database
Track 10 not present in database
Track 11 not present in database
Track 12 not present in database
Track 13 not present in database
Track 14 not present in database
Track 15 not present in database
Track 16 not present in database
Track 17 not present in database
Track 18 not present in database
Track 19 not present in database
Track 20 not present in database
Track 21 not present in database
Track 22 not present in database
Track 23 not present in database
Track 24 not present in database

None of the tracks are present in the AccurateRip database

End of status report

foobar2000 1.2.6 / Dynamic Range Meter 1.1.1
log date: 2015-05-23 19:42:00

––––––––––––––––––––––––––––––––––––––––
Analyzed: Avicii / 538 Dance Smash 2015 Vol.1 (1)
Bakermat / 538 Dance Smash 2015 Vol.1 (2)
––––––––––––––––––––––––––––––––––––––––

DR Peak RMS Duration Track
––––––––––––––––––––––––––––––––––––––––
DR6 0.00 dB -7.52 dB 2:53 04-The Nights
DR6 -0.10 dB -7.69 dB 3:08 23-Teache Me
––––––––––––––––––––––––––––––––––––––––

Number of tracks: 2
Official DR value: DR6

Samplerate: 44100 Hz
Channels: 2
Bits per sample: 16
Bitrate: 997 kbps
Codec: FLAC
================================================================================

––––––––––––––––––––––––––––––––––––––––
Statistics for: 14-I Can't Understand
Number of samples: 8554812
Duration: 3:14
––––––––––––––––––––––––––––––––––––––––

Left Right

Peak Value: 0.00 dB –- 0.00 dB
Avg RMS: -7.49 dB –- -7.55 dB
DR channel: 5.53 dB –- 5.54 dB
––––––––––––––––––––––––––––––––––––––––

Official DR Value: DR6

Samplerate: 44100 Hz
Channels: 2
Bits per sample: 16
Bitrate: 997 kbps
Codec: FLAC
================================================================================
––––––––––––––––––––––––––––––––––––––––
Statistics for: 13-Gravity
Number of samples: 8409576
Duration: 3:11
––––––––––––––––––––––––––––––––––––––––

Left Right

Peak Value: -0.10 dB –- -0.10 dB
Avg RMS: -7.89 dB –- -8.01 dB
DR channel: 4.98 dB –- 5.08 dB
––––––––––––––––––––––––––––––––––––––––

Official DR Value: DR5

Samplerate: 44100 Hz
Channels: 2
Bits per sample: 16
Bitrate: 997 kbps
Codec: FLAC
================================================================================
––––––––––––––––––––––––––––––––––––––––
Statistics for: 11-Falling
Number of samples: 9674364
Duration: 3:39
––––––––––––––––––––––––––––––––––––––––

Left Right

Peak Value: -1.49 dB –- -1.54 dB
Avg RMS: -8.28 dB –- -8.50 dB
DR channel: 3.93 dB –- 3.85 dB
––––––––––––––––––––––––––––––––––––––––

Official DR Value: DR4

Samplerate: 44100 Hz
Channels: 2
Bits per sample: 16
Bitrate: 997 kbps
Codec: FLAC
================================================================================
––––––––––––––––––––––––––––––––––––––––
Statistics for: 03-Sweets (Soda Pop)
Number of samples: 8218476
Duration: 3:06
––––––––––––––––––––––––––––––––––––––––

Left Right

Peak Value: -1.73 dB –- -1.73 dB
Avg RMS: -8.28 dB –- -8.21 dB
DR channel: 4.05 dB –- 3.99 dB
––––––––––––––––––––––––––––––––––––––––

Official DR Value: DR4

Samplerate: 44100 Hz
Channels: 2
Bits per sample: 16
Bitrate: 997 kbps
Codec: FLAC
================================================================================
––––––––––––––––––––––––––––––––––––––––
Analyzed: Galantis / 538 Dance Smash 2015 Vol.1 (1)
Hardwell feat. Harrison / 538 Dance Smash 2015 Vol.1 (2)
Jan Hinke / 538 Dance Smash 2015 Vol.1 (3)
––––––––––––––––––––––––––––––––––––––––

DR Peak RMS Duration Track
––––––––––––––––––––––––––––––––––––––––
DR4 -0.79 dB -8.64 dB 3:42 02-Runaway (U & I)
DR6 0.00 dB -8.22 dB 3:26 09-Sally
DR5 0.00 dB -7.15 dB 5:06 24-5uur38 Mix, Volume 1
––––––––––––––––––––––––––––––––––––––––

Number of tracks: 3
Official DR value: DR5

Samplerate: 44100 Hz
Channels: 2
Bits per sample: 16
Bitrate: 997 kbps
Codec: FLAC
================================================================================

––––––––––––––––––––––––––––––––––––––––
Analyzed: Kygo feat. Conrad / 538 Dance Smash 2015 Vol.1 (1)
Lost Frequencies / 538 Dance Smash 2015 Vol.1 (2)
Made In June / 538 Dance Smash 2015 Vol.1 (3)
––––––––––––––––––––––––––––––––––––––––

DR Peak RMS Duration Track
––––––––––––––––––––––––––––––––––––––––
DR6 0.00 dB -9.74 dB 3:22 07-Firestone
DR7 0.00 dB -9.87 dB 2:17 10-Are You With Me
DR6 0.00 dB -7.65 dB 3:20 16-Perfect Storm
––––––––––––––––––––––––––––––––––––––––

Number of tracks: 3
Official DR value: DR6

Samplerate: 44100 Hz
Channels: 2
Bits per sample: 16
Bitrate: 997 kbps
Codec: FLAC
================================================================================

––––––––––––––––––––––––––––––––––––––––
Analyzed: Martin Garrix / 538 Dance Smash 2015 Vol.1 (1)
Martin Solveig & GTA / 538 Dance Smash 2015 Vol.1 (2)
Nicky Romero & Vicetone feat. When We Are Wild / 538 Dance Smash 2015 Vol.1 (3)
––––––––––––––––––––––––––––––––––––––––

DR Peak RMS Duration Track
––––––––––––––––––––––––––––––––––––––––
DR5 -0.27 dB -7.28 dB 3:47 06-Forbidden Voices
DR4 -1.15 dB -8.05 dB 2:36 08-Intoxicated
DR5 -1.06 dB -8.98 dB 3:22 22-Let Me Feel
––––––––––––––––––––––––––––––––––––––––

Number of tracks: 3
Official DR value: DR5

Samplerate: 44100 Hz
Channels: 2
Bits per sample: 16
Bitrate: 997 kbps
Codec: FLAC
================================================================================

––––––––––––––––––––––––––––––––––––––––
Analyzed: OMI / 538 Dance Smash 2015 Vol.1 (1)
Philip George / 538 Dance Smash 2015 Vol.1 (2)
Showtek feat. MC Ambush / 538 Dance Smash 2015 Vol.1 (3)
Sunnery James & Ryan Marciano feat. KiFi / 538 Dance Smash 2015 Vol.1 (4)
––––––––––––––––––––––––––––––––––––––––

DR Peak RMS Duration Track
––––––––––––––––––––––––––––––––––––––––
DR5 0.00 dB -7.62 dB 3:00 01-Cheerleader (Felix Jaehn Remix)
DR5 -0.78 dB -7.36 dB 2:55 17-Wish You Were Mine
DR6 -0.64 dB -8.63 dB 2:48 18-90s By Nature
DR5 -0.10 dB -7.36 dB 3:38 20-Come Follow
––––––––––––––––––––––––––––––––––––––––

Number of tracks: 4
Official DR value: DR5

Samplerate: 44100 Hz
Channels: 2
Bits per sample: 16
Bitrate: 997 kbps
Codec: FLAC
================================================================================

––––––––––––––––––––––––––––––––––––––––
Statistics for: 19-Freaks
Number of samples: 7437024
Duration: 2:49
––––––––––––––––––––––––––––––––––––––––

Left Right

Peak Value: -2.35 dB –- -2.43 dB
Avg RMS: -6.97 dB –- -6.92 dB
DR channel: 3.17 dB –- 3.08 dB
––––––––––––––––––––––––––––––––––––––––

Official DR Value: DR3

Samplerate: 44100 Hz
Channels: 2
Bits per sample: 16
Bitrate: 997 kbps
Codec: FLAC
================================================================================
––––––––––––––––––––––––––––––––––––––––
Analyzed: Yellow Claw feat. Ayden / 538 Dance Smash 2015 Vol.1 (1)
Zeds Dead & Oliver Heldens / 538 Dance Smash 2015 Vol.1 (2)
Zwette feat. Molly / 538 Dance Smash 2015 Vol.1 (3)
––––––––––––––––––––––––––––––––––––––––

DR Peak RMS Duration Track
––––––––––––––––––––––––––––––––––––––––
DR4 0.00 dB -6.46 dB 3:09 05-Till It Hurts
DR5 0.00 dB -8.06 dB 3:17 12-You Know
DR7 0.00 dB -8.90 dB 3:22 21-Rush
––––––––––––––––––––––––––––––––––––––––

Number of tracks: 3
Official DR value: DR6

Samplerate: 44100 Hz
Channels: 2
Bits per sample: 16
Bitrate: 997 kbps
Codec: FLAC
================================================================================
foobar2000 1.2.6 / Dynamic Range Meter 1.1.1
log date: 2015-05-23 19:41:56

––––––––––––––––––––––––––––––––––––––––
Statistics for: 15-Illuminate
Number of samples: 8892324
Duration: 3:22
––––––––––––––––––––––––––––––––––––––––

Left Right

Peak Value: -0.16 dB –- -0.19 dB
Avg RMS: -8.10 dB –- -8.02 dB
DR channel: 6.07 dB –- 6.02 dB
––––––––––––––––––––––––––––––––––––––––

Official DR Value: DR6

Samplerate: 44100 Hz
Channels: 2
Bits per sample: 16
Bitrate: 997 kbps
Codec: FLAC
================================================================================

[CUETools log; Date: 23.05.2015 19:37:00; Version: 2.1.5]
[CTDB TOCID: OP43d2JuudOa.UNw6UHyyTgTsvw-] found.
Track | CTDB Status
1 | (2/2) Accurately ripped
2 | (2/2) Accurately ripped
3 | (2/2) Accurately ripped
4 | (2/2) Accurately ripped
5 | (2/2) Accurately ripped
6 | (2/2) Accurately ripped
7 | (2/2) Accurately ripped
8 | (2/2) Accurately ripped
9 | (2/2) Accurately ripped
10 | (2/2) Accurately ripped
11 | (2/2) Accurately ripped
12 | (2/2) Accurately ripped
13 | (2/2) Accurately ripped
14 | (2/2) Accurately ripped
15 | (2/2) Accurately ripped
16 | (2/2) Accurately ripped
17 | (2/2) Accurately ripped
18 | (2/2) Accurately ripped
19 | (2/2) Accurately ripped
20 | (2/2) Accurately ripped
21 | (2/2) Accurately ripped
22 | (2/2) Accurately ripped
23 | (2/2) Accurately ripped
24 | (2/2) Accurately ripped
[AccurateRip ID: 0041d53d-0475099f-5d126418] disk not present in database.

Track Peak [ CRC32 ] [W/O NULL] [ LOG ]
– 100,0 [EC2C159F] [32A47272] CRC32
01 100,0 [0C0A4599] [787BCA3D]
02 91,3 [E8F46009] [853A0AAF]
03 81,9 [5E77FA51] [8093E358]
04 100,0 [B435CA46] [CE65BC22]
05 100,0 [0AE7987D] [5232492E]
06 96,9 [596A15C3] [E2B65E23]
07 100,0 [1724A545] [330D8CC8]
08 87,6 [022B3DE5] [B4FD09C8]
09 100,0 [D852E9C9] [FD926B43]
10 100,0 [2F38E053] [D3854441]
11 84,2 [2A77087C] [99759CCA]
12 100,0 [EE9C19DD] [99EF177F]
13 98,8 [E93BC590] [3F5F0041]
14 100,0 [FCFB34CC] [79DC2EE8]
15 98,1 [595B9EAB] [B87C966B]
16 100,0 [5C0A8975] [E99D4FCE]
17 91,3 [31A78A63] [67B0B480]
18 92,8 [3A0231C8] [883B2F76]
19 76,2 [31CB91D7] [16EF247C]
20 98,8 [A331E167] [C3654081]
21 100,0 [CC222D72] [35EA3F30]
22 88,5 [88796F61] [273FCA77]
23 98,8 [F23BDF4A] [CD56763D]
24 100,0 [F2C609B7] [990A98A2]

VA - 538 Dance Smash 2015 Vol. 1 & 2 (2015)

VA - 538 Dance Smash 2015 Vol. 1 & 2 (2015)

********************

VA - 538 Dance Smash 2015 Vol. 1 & 2 (2015)

Track List Vol. 2:

01. Tiesto & KSHMR feat. Vassy - Secrets [03:38]
02. Major Lazer & DJ Snake feat. MO - Lean On [02:55]
03. Kygo feat. Parson James - Stole The Show [03:31]
04. Axwell /\ Ingrosso - On My Way [04:21]
05. Oliver Heldens - Melody [02:43]
06. Galantis - Gold Dust [03:52]
07. Armin van Buuren feat. Mr. Probz - Another You [03:11]
08. Robin Schulz feat. Ilsey - Headlights [03:29]
09. Hardwell feat. Jonathan Mendelsohn - Echo [03:53]
10. David Guetta feat. Emeli Sande - What I Did For Love [03:25]
11. Listenbee feat. Naz Tokio - Save Me [03:28]
12. Vicetone feat. Kat Nestel - No Way Out [03:24]
13. Feder feat. Lyse - Goodbye [03:22]
14. Quintino feat. Una - Escape [03:02]
15. Redondo & Bolier feat. She Keeps Bees - Every Single Piece [02:42]
16. Eva Simons - Policeman [03:14]
17. Alex Adair - Me Me Feel Better [03:16]
18. Fox Stevenson - Tico [03:25]
19. Gregory Porter - Liquid Spirit (Claptone Remix Edit) [02:33]
20. Krewella - Somewhere To Run [03:39]
21. Larco - Andes [02:55]
22. Tony Junior & Mr. Polska - Love Somebody [03:28]
23. Jan Hinke - 5uur38 Mix 2015 vol. 2 [05:36]

Exact Audio Copy V1.0 beta 6 from 9. April 2015

EAC extraction logfile from 22. May 2015, 17:00

- / 538 Dance Smash 2015 vol.2

Used drive : hp CDDVDW SH-216DB Adapter: 1 ID: 0

Read mode : Secure
Utilize accurate stream : Yes
Defeat audio cache : Yes
Make use of C2 pointers : No

Read offset correction : 6
Overread into Lead-In and Lead-Out : No
Fill up missing offset samples with silence : Yes
Delete leading and trailing silent blocks : No
Null samples used in CRC calculations : Yes
Used interface : Native Win32 interface for Win NT & 2000

Used output format : Internal WAV Routines
Sample format : 44.100 Hz; 16 Bit; Stereo


TOC of the extracted CD

Track | Start | Length | Start sector | End sector
––––––––––––––––––––––––––––-
1 | 0:00.00 | 3:37.34 | 0 | 16308
2 | 3:37.34 | 2:54.15 | 16309 | 29373
3 | 6:31.49 | 3:30.15 | 29374 | 45138
4 | 10:01.64 | 4:20.50 | 45139 | 64688
5 | 14:22.39 | 2:42.13 | 64689 | 76851
6 | 17:04.52 | 3:51.38 | 76852 | 94214
7 | 20:56.15 | 3:10.62 | 94215 | 108526
8 | 24:07.02 | 3:28.02 | 108527 | 124128
9 | 27:35.04 | 3:52.57 | 124129 | 141585
10 | 31:27.61 | 3:24.46 | 141586 | 156931
11 | 34:52.32 | 3:27.25 | 156932 | 172481
12 | 38:19.57 | 3:23.52 | 172482 | 187758
13 | 41:43.34 | 3:21.54 | 187759 | 202887
14 | 45:05.13 | 3:01.66 | 202888 | 216528
15 | 48:07.04 | 2:41.74 | 216529 | 228677
16 | 50:49.03 | 3:13.12 | 228678 | 243164
17 | 54:02.15 | 3:15.51 | 243165 | 257840
18 | 57:17.66 | 3:24.26 | 257841 | 273166
19 | 60:42.17 | 2:32.65 | 273167 | 284631
20 | 63:15.07 | 3:38.40 | 284632 | 301021
21 | 66:53.47 | 2:54.12 | 301022 | 314083
22 | 69:47.59 | 3:27.03 | 314084 | 329611
23 | 73:14.62 | 5:35.46 | 329612 | 354782


Range status and errors

Selected range

Filename E:\POST\538 Dance Smash 2015 vol.2 (EAC)\538 Dance Smash 2015 vol.2.wav

Peak level 96.6 %
Extraction speed 8.2 X
Range quality 100.0 %
Test CRC 06268F49
Copy CRC 06268F49
Copy OK

No errors occurred


AccurateRip summary

Track 1 not present in database
Track 2 not present in database
Track 3 not present in database
Track 4 not present in database
Track 5 not present in database
Track 6 not present in database
Track 7 not present in database
Track 8 not present in database
Track 9 not present in database
Track 10 not present in database
Track 11 not present in database
Track 12 not present in database
Track 13 not present in database
Track 14 not present in database
Track 15 not present in database
Track 16 not present in database
Track 17 not present in database
Track 18 not present in database
Track 19 not present in database
Track 20 not present in database
Track 21 not present in database
Track 22 not present in database
Track 23 not present in database

None of the tracks are present in the AccurateRip database

End of status report

foobar2000 1.2.6 / Dynamic Range Meter 1.1.1
log date: 2015-05-23 18:53:43

––––––––––––––––––––––––––––––––––––––––
Statistics for: 07-Another You
Number of samples: 8415456
Duration: 3:11
––––––––––––––––––––––––––––––––––––––––

Left Right

Peak Value: -0.99 dB –- -0.95 dB
Avg RMS: -8.41 dB –- -8.39 dB
DR channel: 4.67 dB –- 4.72 dB
––––––––––––––––––––––––––––––––––––––––

Official DR Value: DR5

Samplerate: 44100 Hz
Channels: 2
Bits per sample: 16
Bitrate: 980 kbps
Codec: FLAC
================================================================================
––––––––––––––––––––––––––––––––––––––––
Analyzed: Axwell /\ Ingrosso / 538 Dance Smash 2015 vol.2 (1)
David Guetta feat. Emeli Sande / 538 Dance Smash 2015 vol.2 (2)
Eva Simons / 538 Dance Smash 2015 vol.2 (3)
––––––––––––––––––––––––––––––––––––––––

DR Peak RMS Duration Track
––––––––––––––––––––––––––––––––––––––––
DR5 -1.38 dB -9.62 dB 4:21 04-On My Way
DR5 -1.80 dB -10.13 dB 3:25 10-What I Did For Love
DR5 -1.09 dB -7.82 dB 3:13 16-Policeman
––––––––––––––––––––––––––––––––––––––––

Number of tracks: 3
Official DR value: DR5

Samplerate: 44100 Hz
Channels: 2
Bits per sample: 16
Bitrate: 980 kbps
Codec: FLAC
================================================================================

––––––––––––––––––––––––––––––––––––––––
Analyzed: Feder feat. Lyse / 538 Dance Smash 2015 vol.2 (1)
Fox Stevenson / 538 Dance Smash 2015 vol.2 (2)
––––––––––––––––––––––––––––––––––––––––

DR Peak RMS Duration Track
––––––––––––––––––––––––––––––––––––––––
DR7 -0.30 dB -8.62 dB 3:22 13-Goodbye
DR4 -1.66 dB -7.25 dB 3:24 18-Tico
––––––––––––––––––––––––––––––––––––––––

Number of tracks: 2
Official DR value: DR5

Samplerate: 44100 Hz
Channels: 2
Bits per sample: 16
Bitrate: 980 kbps
Codec: FLAC
================================================================================

––––––––––––––––––––––––––––––––––––––––
Analyzed: Galantis / 538 Dance Smash 2015 vol.2 (1)
Gregory Porter / 538 Dance Smash 2015 vol.2 (2)
––––––––––––––––––––––––––––––––––––––––

DR Peak RMS Duration Track
––––––––––––––––––––––––––––––––––––––––
DR4 -1.55 dB -8.76 dB 3:52 06-Gold Dust
DR7 -0.34 dB -10.56 dB 2:33 19-Liquid Spirit (Claptone Remix Edit)
––––––––––––––––––––––––––––––––––––––––

Number of tracks: 2
Official DR value: DR5

Samplerate: 44100 Hz
Channels: 2
Bits per sample: 16
Bitrate: 980 kbps
Codec: FLAC
================================================================================

––––––––––––––––––––––––––––––––––––––––
Analyzed: Hardwell feat. Jonathan Mendelsohn / 538 Dance Smash 2015 vol.2 (1)
Jan Hinke / 538 Dance Smash 2015 vol.2 (2)
––––––––––––––––––––––––––––––––––––––––

DR Peak RMS Duration Track
––––––––––––––––––––––––––––––––––––––––
DR5 -0.30 dB -7.09 dB 3:53 09-Echo
DR5 -0.30 dB -7.27 dB 5:36 23-5uur38 Mix 2015 vol. 2
––––––––––––––––––––––––––––––––––––––––

Number of tracks: 2
Official DR value: DR5

Samplerate: 44100 Hz
Channels: 2
Bits per sample: 16
Bitrate: 980 kbps
Codec: FLAC
================================================================================

––––––––––––––––––––––––––––––––––––––––
Statistics for: 20-Somewhere To Run
Number of samples: 9637320
Duration: 3:39
––––––––––––––––––––––––––––––––––––––––

Left Right

Peak Value: -0.30 dB –- -0.30 dB
Avg RMS: -8.29 dB –- -8.21 dB
DR channel: 6.35 dB –- 6.32 dB
––––––––––––––––––––––––––––––––––––––––

Official DR Value: DR6

Samplerate: 44100 Hz
Channels: 2
Bits per sample: 16
Bitrate: 980 kbps
Codec: FLAC
================================================================================
––––––––––––––––––––––––––––––––––––––––
Analyzed: Kygo feat. Parson James / 538 Dance Smash 2015 vol.2 (1)
Larco / 538 Dance Smash 2015 vol.2 (2)
––––––––––––––––––––––––––––––––––––––––

DR Peak RMS Duration Track
––––––––––––––––––––––––––––––––––––––––
DR4 -1.36 dB -7.57 dB 3:30 03-Stole The Show
DR3 -1.72 dB -6.29 dB 2:54 21-Andes
––––––––––––––––––––––––––––––––––––––––

Number of tracks: 2
Official DR value: DR4

Samplerate: 44100 Hz
Channels: 2
Bits per sample: 16
Bitrate: 980 kbps
Codec: FLAC
================================================================================

––––––––––––––––––––––––––––––––––––––––
Statistics for: 11-Save Me
Number of samples: 9143400
Duration: 3:27
––––––––––––––––––––––––––––––––––––––––

Left Right

Peak Value: -0.30 dB –- -0.30 dB
Avg RMS: -7.95 dB –- -7.80 dB
DR channel: 6.15 dB –- 5.94 dB
––––––––––––––––––––––––––––––––––––––––

Official DR Value: DR6

Samplerate: 44100 Hz
Channels: 2
Bits per sample: 16
Bitrate: 980 kbps
Codec: FLAC
================================================================================
––––––––––––––––––––––––––––––––––––––––
Analyzed: Major Lazer & DJ Snake feat. MO / 538 Dance Smash 2015 vol.2 (1)
Oliver Heldens / 538 Dance Smash 2015 vol.2 (2)
Quintino feat. Una / 538 Dance Smash 2015 vol.2 (3)
Redondo & Bolier feat. She Keeps Bees / 538 Dance Smash 2015 vol.2 (4)
––––––––––––––––––––––––––––––––––––––––

DR Peak RMS Duration Track
––––––––––––––––––––––––––––––––––––––––
DR5 -1.21 dB -8.68 dB 2:54 02-Lean On
DR4 -0.86 dB -8.31 dB 2:42 05-Melody
DR5 -0.30 dB -7.72 dB 3:02 14-Escape
DR5 -0.52 dB -6.92 dB 2:42 15-Every Single Piece
––––––––––––––––––––––––––––––––––––––––

Number of tracks: 4
Official DR value: DR5

Samplerate: 44100 Hz
Channels: 2
Bits per sample: 16
Bitrate: 980 kbps
Codec: FLAC
================================================================================

––––––––––––––––––––––––––––––––––––––––
Statistics for: 08-Headlights
Number of samples: 9173976
Duration: 3:28
––––––––––––––––––––––––––––––––––––––––

Left Right

Peak Value: -1.05 dB –- -1.05 dB
Avg RMS: -8.19 dB –- -8.08 dB
DR channel: 5.36 dB –- 5.22 dB
––––––––––––––––––––––––––––––––––––––––

Official DR Value: DR5

Samplerate: 44100 Hz
Channels: 2
Bits per sample: 16
Bitrate: 980 kbps
Codec: FLAC
================================================================================
––––––––––––––––––––––––––––––––––––––––
Analyzed: Tiesto & KSHMR feat. Vassy / 538 Dance Smash 2015 vol.2 (1)
Tony Junior & Mr. Polska / 538 Dance Smash 2015 vol.2 (2)
––––––––––––––––––––––––––––––––––––––––

DR Peak RMS Duration Track
––––––––––––––––––––––––––––––––––––––––
DR5 -0.66 dB -8.17 dB 3:37 01-Secrets
DR4 -1.40 dB -8.50 dB 3:27 22-Love Somebody
––––––––––––––––––––––––––––––––––––––––

Number of tracks: 2
Official DR value: DR5

Samplerate: 44100 Hz
Channels: 2
Bits per sample: 16
Bitrate: 980 kbps
Codec: FLAC
================================================================================

––––––––––––––––––––––––––––––––––––––––
Statistics for: 12-No Way Out
Number of samples: 8982876
Duration: 3:24
––––––––––––––––––––––––––––––––––––––––

Left Right

Peak Value: -1.12 dB –- -1.07 dB
Avg RMS: -8.70 dB –- -8.80 dB
DR channel: 4.98 dB –- 5.08 dB
––––––––––––––––––––––––––––––––––––––––

Official DR Value: DR5

Samplerate: 44100 Hz
Channels: 2
Bits per sample: 16
Bitrate: 980 kbps
Codec: FLAC
================================================================================
foobar2000 1.2.6 / Dynamic Range Meter 1.1.1
log date: 2015-05-23 18:53:42

––––––––––––––––––––––––––––––––––––––––
Statistics for: 17-Me Me Feel Better
Number of samples: 8629488
Duration: 3:16
––––––––––––––––––––––––––––––––––––––––

Left Right

Peak Value: -0.87 dB –- -0.74 dB
Avg RMS: -7.72 dB –- -7.72 dB
DR channel: 5.12 dB –- 5.29 dB
––––––––––––––––––––––––––––––––––––––––

Official DR Value: DR5

Samplerate: 44100 Hz
Channels: 2
Bits per sample: 16
Bitrate: 980 kbps
Codec: FLAC
================================================================================

[CUETools log; Date: 23.05.2015 18:30:26; Version: 2.1.5]
[CTDB TOCID: OWaCSOy_2dQUsygSm0HziBkw.KI-] found.
Track | CTDB Status
1 | (1/1) Accurately ripped
2 | (1/1) Accurately ripped
3 | (1/1) Accurately ripped
4 | (1/1) Accurately ripped
5 | (1/1) Accurately ripped
6 | (1/1) Accurately ripped
7 | (1/1) Accurately ripped
8 | (1/1) Accurately ripped
9 | (1/1) Accurately ripped
10 | (1/1) Accurately ripped
11 | (1/1) Accurately ripped
12 | (1/1) Accurately ripped
13 | (1/1) Accurately ripped
14 | (1/1) Accurately ripped
15 | (1/1) Accurately ripped
16 | (1/1) Accurately ripped
17 | (1/1) Accurately ripped
18 | (1/1) Accurately ripped
19 | (1/1) Accurately ripped
20 | (1/1) Accurately ripped
21 | (1/1) Accurately ripped
22 | (1/1) Accurately ripped
23 | (1/1) Accurately ripped
[AccurateRip ID: 0040758a-042de140-67127a17] disk not present in database.

Track Peak [ CRC32 ] [W/O NULL] [ LOG ]
– 96,6 [06268F49] [73A80ECD] CRC32
01 92,6 [82F37861] [03382F3A]
02 86,9 [D26D022B] [A352C8CA]
03 85,5 [BA82FF2B] [B2D66F4C]
04 85,3 [C7D44407] [AC5709D6]
05 90,5 [44B13A00] [827AB309]
06 83,6 [B5443371] [4EEC3D1E]
07 89,6 [210735D7] [96288050]
08 88,6 [A530B924] [2208D3AD]
09 96,6 [D50EF27A] [9F570C87]
10 81,2 [F0724079] [9AA38325]
11 96,6 [7EDE1A6C] [233EA7F6]
12 88,3 [FA66DC6B] [679E6E06]
13 96,6 [E4F11B3C] [E35CB861]
14 96,6 [8FEA42BE] [5726FE07]
15 94,2 [5D9527A5] [518ACC6A]
16 88,2 [5573C135] [7B7626C6]
17 91,8 [BEAB9DB6] [495C4D2E]
18 82,5 [33D3C389] [0328E8C2]
19 96,1 [743B6B4E] [B476009C]
20 96,6 [7CA9114C] [42748D82]
21 82,0 [E9A44123] [9F0835B3]
22 85,0 [42FAA08B] [710D9212]
23 96,6 [11A69C3F] [0CD674F5]

VA - 538 Dance Smash 2015 Vol. 1 & 2 (2015)

VA - 538 Dance Smash 2015 Vol. 1 & 2 (2015)

All thanks go to the original ripper(s) …

Visit my blog!

Download: