Subcategories

VA - Cabaret Echoes: New Orleans Jazzers at Work, 1918-1927 (2010)

Posted By: Pisulik
VA - Cabaret Echoes: New Orleans Jazzers at Work, 1918-1927 (2010)

VA - Cabaret Echoes: New Orleans Jazzers at Work, 1918-1927 (2010)
EAC Rip | FLAC (Tracks) +cue, log - 387 MB | MP3 CBR 320 kbps - 340 MB | 02:23:35
Jazz, Oldies | Label: Off The Record | Release Year: 2010

New Orleans holds a special allure like that of no other city, and its most famous music has cast its spell on the world for more than a century. New Orleans jazz has been discussed and written about nearly as much as it has been performed, and its recordings have been issued and reissued constantly since 1917. Many of the earliest seminal recordings are muddy and indistinct due to the primitive equipment used. Many reissues of this material have clouded the sound even further.

Now once again, master restoration engineer Doug Benson and jazz historian David Sager bring you the earliest and scarcest of New Orleans. Cabaret Echoes brings together 40 rare recordings by actual working New Orleans groups, restored with unprecedented clarity. They are presented alongside 23 spoken introductions by the musicians themselves, taken from rare one-of-a-kind interviews.

As with the previous Off The Record release, Benson, using his pitch-perfect musical ear, the teachings of the late John R.T. Davies, and up-to-date digital technology has meticulously restored these 40 rare jazz classics. Sager, after going through many hours of recorded oral histories and carefully applying his well-honed musical skills, has written a scholarly essay that creates an historical context for these selections.

TRACKLIST

CD1:

01. Kid Ory - Interview
02. Ory's Sunshine Orch. - Ory's Creole Trombone
03. Ory's Sunshine Orchestra - Society Blues
04. Babette Ory - Interview
05. Roberta Dudley/Ory's Sunshine Orch. - When You're Alone
06. Roberta Dudley/Ory's Sunshine Orch. - Krooked Blues
07. Kid Ory/Babette Ory - Interviews
08. Ruth Lee/Ory's Sunshine Orch. - That Sweet Something, Dear
09. Ruth Lee/Ory's Sunshine Orch. - Maybe Someday
10. Johnny DeDroit - Interview
11. Johnny De Droit & his New Orleans Orch. - Panama
12. Johnny De Droit & his New Orleans Orch. - Nobody Knows Blues
13. Johnny De Droit & his New Orleans Orch. - New Orleans Blues
14. Johnny DeDroit - Interview
15. Johnny De Droit & his New Orleans Orch. - The Swing
16. Johnny De Droit & his New Orleans Orch. - Brown Eyes
17. Johnny DeDroit - Interview
18. Johnny De Droit & his New Orleans Orch. - Number Two Blues
19. Amos White - Interview
20. Fate Marable’s Society Syncopators - Frankie and Johnny
21. Fate Marable’s Society Syncopators - Pianoflage
22. Yvonne Powers Gass - Interview
23. Original Crescent City Jazzers - Sensation Rag
24. Original Crescent City Jazzers - Christine
25. Johnny DeDroit - Interview
26. Johnny Bayersdorffer & his Jazzola Novelty Orch. - I Wonder Where My Easy Rider's Riding Now
27. Johnny Bayersdorffer & his Jazzola Novelty Orch. - The Waffle Man's Call
28. Willie Hightower - Interview
29. Hightower’s Night Hawks - Boar Hog Blues
30. Hightower’s Night Hawks - Squeeze Me

Exact Audio Copy V1.2 from 12. August 2016

EAC extraction logfile from 11. May 2017, 14:06

Various Artists / Cabaret Echoes: New Orleans Jazzers at Work, 1918-1927

Used drive : TSSTcorpCDDVDW TS-L633Y Adapter: 1 ID: 0

Read mode : Secure
Utilize accurate stream : Yes
Defeat audio cache : No
Make use of C2 pointers : No

Read offset correction : 6
Overread into Lead-In and Lead-Out : No
Fill up missing offset samples with silence : Yes
Delete leading and trailing silent blocks : No
Null samples used in CRC calculations : Yes
Used interface : Installed external ASPI interface
Gap handling : Appended to previous track

Used output format : User Defined Encoder
Selected bitrate : 320 kBit/s
Quality : High
Add ID3 tag : No
Command line compressor : C:\Program Files\FLAC\win64\flac.exe
Additional command line options : -T "artist=%artist%" -T "title=%title%" -T "album=%albumtitle%" -T "date=%year%" -T "tracknumber=%tracknr%" -T "genre=%genre%" -8 %source%


TOC of the extracted CD

Track | Start | Length | Start sector | End sector
––––––––––––––––––––––––––––-
1 | 0:00.00 | 1:18.71 | 0 | 5920
2 | 1:18.71 | 3:12.30 | 5921 | 20350
3 | 4:31.26 | 3:02.61 | 20351 | 34061
4 | 7:34.12 | 1:17.59 | 34062 | 39895
5 | 8:51.71 | 2:54.54 | 39896 | 52999
6 | 11:46.50 | 2:55.49 | 53000 | 66173
7 | 14:42.24 | 1:24.23 | 66174 | 72496
8 | 16:06.47 | 2:44.18 | 72497 | 84814
9 | 18:50.65 | 3:21.30 | 84815 | 99919
10 | 22:12.20 | 1:03.54 | 99920 | 104698
11 | 23:15.74 | 2:45.31 | 104699 | 117104
12 | 26:01.30 | 3:04.09 | 117105 | 130913
13 | 29:05.39 | 3:03.52 | 130914 | 144690
14 | 32:09.16 | 0:26.29 | 144691 | 146669
15 | 32:35.45 | 3:03.07 | 146670 | 160401
16 | 35:38.52 | 2:48.03 | 160402 | 173004
17 | 38:26.55 | 0:58.24 | 173005 | 177378
18 | 39:25.04 | 3:02.04 | 177379 | 191032
19 | 42:27.08 | 1:05.30 | 191033 | 195937
20 | 43:32.38 | 2:45.64 | 195938 | 208376
21 | 46:18.27 | 3:14.24 | 208377 | 222950
22 | 49:32.51 | 1:13.17 | 222951 | 228442
23 | 50:45.68 | 2:51.66 | 228443 | 241333
24 | 53:37.59 | 3:07.19 | 241334 | 255377
25 | 56:45.03 | 1:02.10 | 255378 | 260037
26 | 57:47.13 | 2:41.38 | 260038 | 272150
27 | 60:28.51 | 2:59.58 | 272151 | 285633
28 | 63:28.34 | 2:04.65 | 285634 | 294998
29 | 65:33.24 | 2:50.38 | 294999 | 307786
30 | 68:23.62 | 2:26.00 | 307787 | 318736


Track 1

Filename C:\Users\David\Documents\CDs\Cabaret Echoes - New Orleans Jazzers at Work, 1918-1927\Disc One\01 Interview.wav

Pre-gap length 0:00:02.00

Peak level 52.7 %
Extraction speed 1.8 X
Track quality 100.0 %
Copy CRC DD19B8BF
Accurately ripped (confidence 4) [178DC1D3] (AR v2)
Copy OK

Track 2

Filename C:\Users\David\Documents\CDs\Cabaret Echoes - New Orleans Jazzers at Work, 1918-1927\Disc One\02 Ory's Creole Trombone.wav

Peak level 89.5 %
Extraction speed 2.0 X
Track quality 100.0 %
Copy CRC 92742435
Accurately ripped (confidence 4) [553BA9BD] (AR v2)
Copy OK

Track 3

Filename C:\Users\David\Documents\CDs\Cabaret Echoes - New Orleans Jazzers at Work, 1918-1927\Disc One\03 Society Blues.wav

Pre-gap length 0:00:03.00

Peak level 83.4 %
Extraction speed 2.1 X
Track quality 100.0 %
Copy CRC 99D9C581
Accurately ripped (confidence 4) [732D00DD] (AR v2)
Copy OK

Track 4

Filename C:\Users\David\Documents\CDs\Cabaret Echoes - New Orleans Jazzers at Work, 1918-1927\Disc One\04 Interview.wav

Pre-gap length 0:00:03.00

Peak level 69.0 %
Extraction speed 2.2 X
Track quality 100.0 %
Copy CRC 5DF475A8
Accurately ripped (confidence 4) [73F15F87] (AR v2)
Copy OK

Track 5

Filename C:\Users\David\Documents\CDs\Cabaret Echoes - New Orleans Jazzers at Work, 1918-1927\Disc One\05 When You're Alone.wav

Peak level 77.0 %
Extraction speed 2.3 X
Track quality 100.0 %
Copy CRC 920FB1B5
Accurately ripped (confidence 4) [8CB7D13D] (AR v2)
Copy OK

Track 6

Filename C:\Users\David\Documents\CDs\Cabaret Echoes - New Orleans Jazzers at Work, 1918-1927\Disc One\06 Krooked Blues.wav

Pre-gap length 0:00:03.00

Peak level 80.4 %
Extraction speed 2.4 X
Track quality 100.0 %
Copy CRC 5F3D150C
Accurately ripped (confidence 4) [42753CD5] (AR v2)
Copy OK

Track 7

Filename C:\Users\David\Documents\CDs\Cabaret Echoes - New Orleans Jazzers at Work, 1918-1927\Disc One\07 Interviews.wav

Pre-gap length 0:00:03.00

Peak level 44.0 %
Extraction speed 2.3 X
Track quality 99.8 %
Copy CRC 3B8F8AF9
Accurately ripped (confidence 4) [03DABE2A] (AR v2)
Copy OK

Track 8

Filename C:\Users\David\Documents\CDs\Cabaret Echoes - New Orleans Jazzers at Work, 1918-1927\Disc One\08 That Sweet Something, Dear.wav

Peak level 78.8 %
Extraction speed 2.5 X
Track quality 100.0 %
Copy CRC 3188BF1D
Accurately ripped (confidence 4) [A3A26FF2] (AR v2)
Copy OK

Track 9

Filename C:\Users\David\Documents\CDs\Cabaret Echoes - New Orleans Jazzers at Work, 1918-1927\Disc One\09 Maybe Someday.wav

Pre-gap length 0:00:03.00

Peak level 79.2 %
Extraction speed 2.7 X
Track quality 100.0 %
Copy CRC 26FEF542
Accurately ripped (confidence 4) [8652CD6B] (AR v2)
Copy OK

Track 10

Filename C:\Users\David\Documents\CDs\Cabaret Echoes - New Orleans Jazzers at Work, 1918-1927\Disc One\10 Interview.wav

Pre-gap length 0:00:03.00

Peak level 89.0 %
Extraction speed 2.4 X
Track quality 99.8 %
Copy CRC 72AA0CCC
Accurately ripped (confidence 4) [6D56222A] (AR v2)
Copy OK

Track 11

Filename C:\Users\David\Documents\CDs\Cabaret Echoes - New Orleans Jazzers at Work, 1918-1927\Disc One\11 Panama.wav

Peak level 78.5 %
Extraction speed 2.8 X
Track quality 100.0 %
Copy CRC D123103B
Accurately ripped (confidence 4) [43E4A53F] (AR v2)
Copy OK

Track 12

Filename C:\Users\David\Documents\CDs\Cabaret Echoes - New Orleans Jazzers at Work, 1918-1927\Disc One\12 Nobody Knows Blues.wav

Pre-gap length 0:00:03.00

Peak level 89.5 %
Extraction speed 2.9 X
Track quality 100.0 %
Copy CRC 69139799
Accurately ripped (confidence 4) [694D8481] (AR v2)
Copy OK

Track 13

Filename C:\Users\David\Documents\CDs\Cabaret Echoes - New Orleans Jazzers at Work, 1918-1927\Disc One\13 New Orleans Blues.wav

Pre-gap length 0:00:03.00

Peak level 85.7 %
Extraction speed 3.0 X
Track quality 100.0 %
Copy CRC D3CAF21D
Accurately ripped (confidence 4) [8705BB0A] (AR v2)
Copy OK

Track 14

Filename C:\Users\David\Documents\CDs\Cabaret Echoes - New Orleans Jazzers at Work, 1918-1927\Disc One\14 Interview.wav

Pre-gap length 0:00:03.00

Peak level 71.9 %
Extraction speed 2.6 X
Track quality 100.0 %
Copy CRC 4D1FD6BF
Accurately ripped (confidence 4) [C44A0015] (AR v2)
Copy OK

Track 15

Filename C:\Users\David\Documents\CDs\Cabaret Echoes - New Orleans Jazzers at Work, 1918-1927\Disc One\15 The Swing.wav

Peak level 96.1 %
Extraction speed 3.1 X
Track quality 100.0 %
Copy CRC 27D14BE4
Accurately ripped (confidence 4) [3EA8AB88] (AR v2)
Copy OK

Track 16

Filename C:\Users\David\Documents\CDs\Cabaret Echoes - New Orleans Jazzers at Work, 1918-1927\Disc One\16 Brown Eyes.wav

Pre-gap length 0:00:03.00

Peak level 91.4 %
Extraction speed 3.2 X
Track quality 100.0 %
Copy CRC A556161F
Accurately ripped (confidence 4) [4F49D530] (AR v2)
Copy OK

Track 17

Filename C:\Users\David\Documents\CDs\Cabaret Echoes - New Orleans Jazzers at Work, 1918-1927\Disc One\17 Interview.wav

Pre-gap length 0:00:03.00

Peak level 77.5 %
Extraction speed 3.0 X
Track quality 100.0 %
Copy CRC AD7A20A2
Accurately ripped (confidence 4) [99AD0711] (AR v2)
Copy OK

Track 18

Filename C:\Users\David\Documents\CDs\Cabaret Echoes - New Orleans Jazzers at Work, 1918-1927\Disc One\18 Number Two Blues.wav

Peak level 79.1 %
Extraction speed 3.2 X
Track quality 100.0 %
Copy CRC 3723E0BF
Accurately ripped (confidence 4) [CD85BC75] (AR v2)
Copy OK

Track 19

Filename C:\Users\David\Documents\CDs\Cabaret Echoes - New Orleans Jazzers at Work, 1918-1927\Disc One\19 Interview.wav

Pre-gap length 0:00:03.00

Peak level 75.5 %
Extraction speed 3.0 X
Track quality 99.8 %
Copy CRC 96ED22AE
Accurately ripped (confidence 4) [2E9E5914] (AR v2)
Copy OK

Track 20

Filename C:\Users\David\Documents\CDs\Cabaret Echoes - New Orleans Jazzers at Work, 1918-1927\Disc One\20 Frankie and Johnny.wav

Peak level 95.2 %
Extraction speed 3.4 X
Track quality 100.0 %
Copy CRC 3503766A
Accurately ripped (confidence 4) [1FA75D11] (AR v2)
Copy OK

Track 21

Filename C:\Users\David\Documents\CDs\Cabaret Echoes - New Orleans Jazzers at Work, 1918-1927\Disc One\21 Pianoflage.wav

Pre-gap length 0:00:03.00

Peak level 95.0 %
Extraction speed 3.4 X
Track quality 100.0 %
Copy CRC 339AF983
Accurately ripped (confidence 4) [CE7F6AA0] (AR v2)
Copy OK

Track 22

Filename C:\Users\David\Documents\CDs\Cabaret Echoes - New Orleans Jazzers at Work, 1918-1927\Disc One\22 Interview.wav

Pre-gap length 0:00:03.00

Peak level 65.6 %
Extraction speed 3.3 X
Track quality 100.0 %
Copy CRC 8927711D
Accurately ripped (confidence 4) [26D48196] (AR v2)
Copy OK

Track 23

Filename C:\Users\David\Documents\CDs\Cabaret Echoes - New Orleans Jazzers at Work, 1918-1927\Disc One\23 Sensation Rag.wav

Peak level 76.9 %
Extraction speed 3.5 X
Track quality 100.0 %
Copy CRC 2FD26BD5
Accurately ripped (confidence 4) [9338C197] (AR v2)
Copy OK

Track 24

Filename C:\Users\David\Documents\CDs\Cabaret Echoes - New Orleans Jazzers at Work, 1918-1927\Disc One\24 Christine.wav

Pre-gap length 0:00:03.00

Peak level 73.9 %
Extraction speed 3.5 X
Track quality 99.9 %
Copy CRC B8701919
Accurately ripped (confidence 4) [A75AAA64] (AR v2)
Copy OK

Track 25

Filename C:\Users\David\Documents\CDs\Cabaret Echoes - New Orleans Jazzers at Work, 1918-1927\Disc One\25 Interview.wav

Pre-gap length 0:00:03.00

Peak level 52.0 %
Extraction speed 3.5 X
Track quality 100.0 %
Copy CRC EABEA529
Accurately ripped (confidence 4) [E89216D9] (AR v2)
Copy OK

Track 26

Filename C:\Users\David\Documents\CDs\Cabaret Echoes - New Orleans Jazzers at Work, 1918-1927\Disc One\26 I Wonder Where My Easy Rider's Riding Now.wav

Peak level 95.1 %
Extraction speed 3.7 X
Track quality 100.0 %
Copy CRC 926286B8
Accurately ripped (confidence 4) [AFDC55C2] (AR v2)
Copy OK

Track 27

Filename C:\Users\David\Documents\CDs\Cabaret Echoes - New Orleans Jazzers at Work, 1918-1927\Disc One\27 The Waffle Man's Call.wav

Pre-gap length 0:00:03.00

Peak level 95.1 %
Extraction speed 3.7 X
Track quality 100.0 %
Copy CRC B6973D7C
Accurately ripped (confidence 4) [7871F1D7] (AR v2)
Copy OK

Track 28

Filename C:\Users\David\Documents\CDs\Cabaret Echoes - New Orleans Jazzers at Work, 1918-1927\Disc One\28 Interview.wav

Pre-gap length 0:00:03.00

Peak level 92.6 %
Extraction speed 3.7 X
Track quality 100.0 %
Copy CRC 11CA0C28
Accurately ripped (confidence 4) [E4A4F96E] (AR v2)
Copy OK

Track 29

Filename C:\Users\David\Documents\CDs\Cabaret Echoes - New Orleans Jazzers at Work, 1918-1927\Disc One\29 Boar Hog Blues.wav

Peak level 96.3 %
Extraction speed 3.8 X
Track quality 100.0 %
Copy CRC 2AA03F0C
Accurately ripped (confidence 4) [555C19BB] (AR v2)
Copy OK

Track 30

Filename C:\Users\David\Documents\CDs\Cabaret Echoes - New Orleans Jazzers at Work, 1918-1927\Disc One\30 Squeeze Me.wav

Pre-gap length 0:00:03.00

Peak level 96.5 %
Extraction speed 3.8 X
Track quality 100.0 %
Copy CRC 702C189F
Accurately ripped (confidence 4) [6FC57295] (AR v2)
Copy OK


All tracks accurately ripped

No errors occurred

End of status report

–– CUETools DB Plugin V2.1.6

[CTDB TOCID: ezyJSZ_NeGBeTDtk3DcbHaa4nKs-] found
Submit result: ezyJSZ_NeGBeTDtk3DcbHaa4nKs- has been confirmed
Track | CTDB Status
1 | (2/2) Accurately ripped
2 | (2/2) Accurately ripped
3 | (2/2) Accurately ripped
4 | (2/2) Accurately ripped
5 | (2/2) Accurately ripped
6 | (2/2) Accurately ripped
7 | (2/2) Accurately ripped
8 | (2/2) Accurately ripped
9 | (2/2) Accurately ripped
10 | (2/2) Accurately ripped
11 | (2/2) Accurately ripped
12 | (2/2) Accurately ripped
13 | (2/2) Accurately ripped
14 | (2/2) Accurately ripped
15 | (2/2) Accurately ripped
16 | (2/2) Accurately ripped
17 | (2/2) Accurately ripped
18 | (2/2) Accurately ripped
19 | (2/2) Accurately ripped
20 | (2/2) Accurately ripped
21 | (2/2) Accurately ripped
22 | (2/2) Accurately ripped
23 | (2/2) Accurately ripped
24 | (2/2) Accurately ripped
25 | (2/2) Accurately ripped
26 | (2/2) Accurately ripped
27 | (2/2) Accurately ripped
28 | (2/2) Accurately ripped
29 | (2/2) Accurately ripped
30 | (2/2) Accurately ripped


==== Log checksum AD87DF9AFD4C60F2F6215E486BF18C9360A0E6C093AAB3EB4152909A786E0C0F ====


CD2:

01. Abbie Brunies - Interview
02. Half-Way House Orch. - Pussy Cat Rag
03. Joe Loyacano - Interview
04. Half-Way House Orch. - Barataria
05. Tony Parenti - Interview
06. Anthony Parenti’s Famous Melody Boys - That's A Plenty
07. Anthony Parenti’s Famous Melody Boys - Cabaret Echoes
08. Billy and Mary Mack - Interview
09. Billy Mack and Mary Mack - My Heart Breakin' Gal
10. Babette Ory - Interview
11. Billy Mack and Mary Mack - Black But Sweet, Oh God!
12. Norman Brownlee - Interview
13. Brownlee’s Orch. of New Orleans - Peculiar
14. Brownlee’s Orch. of New Orleans - Dirty Rag
15. Norman Brownlee - Interview
16. John Tobin’s Midnight Serenaders - I'm Afraid To Care For You
17. William Ridgley - Interview
18. Original Tuxedo Jazz Orch. - Original Tuxedo Rag
19. William Ridgley - Interview
20. Original Tuxedo Jazz Orch. - Careless Love
21. Abby Foster - Interview
22. Original Tuxedo Jazz Orch. - Black Rag
23. Frank Christian - Interview
24. New Orleans Jazz Band - Ole Miss
25. New Orleans Jazz Band - Ja Da (OKeh)
26. Original New Orleans Jazz Band - He's Had No Lovin' For A Long, Long Time
27. Original New Orleans Jazz Band - Ja Da (Gennett)
28. Arnold Loyacano - Interview
29. Jimmy Durante’s Jazz Band - Why Cry Blues
30. Arnold Loyacano - Interview
31. Original New Orleans Jazz Band - Ja-Da (Gennett remake take a)
32. Original New Orleans Jazz Band - Ja-Da (Gennett remake take b)
33. Original New Orleans Jazz Band - He's Had No Lovin' For A Long, Long Time (remake)

Exact Audio Copy V1.2 from 12. August 2016

EAC extraction logfile from 11. May 2017, 14:51

Various Artists / Cabaret Echoes: New Orleans Jazzers at Work, 1918-1927

Used drive : TSSTcorpCDDVDW TS-L633Y Adapter: 1 ID: 0

Read mode : Secure
Utilize accurate stream : Yes
Defeat audio cache : No
Make use of C2 pointers : No

Read offset correction : 6
Overread into Lead-In and Lead-Out : No
Fill up missing offset samples with silence : Yes
Delete leading and trailing silent blocks : No
Null samples used in CRC calculations : Yes
Used interface : Installed external ASPI interface
Gap handling : Appended to previous track

Used output format : User Defined Encoder
Selected bitrate : 320 kBit/s
Quality : High
Add ID3 tag : No
Command line compressor : C:\Program Files\FLAC\win64\flac.exe
Additional command line options : -T "artist=%artist%" -T "title=%title%" -T "album=%albumtitle%" -T "date=%year%" -T "tracknumber=%tracknr%" -T "genre=%genre%" -8 %source%


TOC of the extracted CD

Track | Start | Length | Start sector | End sector
––––––––––––––––––––––––––––-
1 | 0:00.00 | 1:24.22 | 0 | 6321
2 | 1:24.22 | 2:57.08 | 6322 | 19604
3 | 4:21.30 | 1:15.12 | 19605 | 25241
4 | 5:36.42 | 2:44.27 | 25242 | 37568
5 | 8:20.69 | 1:37.05 | 37569 | 44848
6 | 9:57.74 | 2:29.03 | 44849 | 56026
7 | 12:27.02 | 3:05.13 | 56027 | 69914
8 | 15:32.15 | 0:54.11 | 69915 | 73975
9 | 16:26.26 | 2:53.53 | 73976 | 87003
10 | 19:20.04 | 0:32.12 | 87004 | 89415
11 | 19:52.16 | 2:44.01 | 89416 | 101716
12 | 22:36.17 | 0:33.53 | 101717 | 104244
13 | 23:09.70 | 3:00.42 | 104245 | 117786
14 | 26:10.37 | 3:04.07 | 117787 | 131593
15 | 29:14.44 | 1:49.73 | 131594 | 139841
16 | 31:04.42 | 3:08.13 | 139842 | 153954
17 | 34:12.55 | 1:25.54 | 153955 | 160383
18 | 35:38.34 | 2:35.43 | 160384 | 172051
19 | 38:14.02 | 1:05.49 | 172052 | 176975
20 | 39:19.51 | 3:03.60 | 176976 | 190760
21 | 42:23.36 | 0:51.17 | 190761 | 194602
22 | 43:14.53 | 2:31.55 | 194603 | 205982
23 | 45:46.33 | 1:08.45 | 205983 | 211127
24 | 46:55.03 | 3:15.42 | 211128 | 225794
25 | 50:10.45 | 2:59.64 | 225795 | 239283
26 | 53:10.34 | 2:50.05 | 239284 | 252038
27 | 56:00.39 | 2:54.49 | 252039 | 265137
28 | 58:55.13 | 1:52.30 | 265138 | 273567
29 | 60:47.43 | 2:43.24 | 273568 | 285816
30 | 63:30.67 | 0:30.61 | 285817 | 288127
31 | 64:01.53 | 2:59.53 | 288128 | 301605
32 | 67:01.31 | 3:00.57 | 301606 | 315162
33 | 70:02.13 | 2:43.33 | 315163 | 327420


Track 1

Filename C:\Users\David\Documents\CDs\Cabaret Echoes - New Orleans Jazzers at Work, 1918-1927\Disc Two\01 Interview.wav

Pre-gap length 0:00:02.00

Peak level 51.4 %
Extraction speed 1.6 X
Track quality 99.8 %
Copy CRC 6416C4AE
Accurately ripped (confidence 4) [209FCB19] (AR v2)
Copy OK

Track 2

Filename C:\Users\David\Documents\CDs\Cabaret Echoes - New Orleans Jazzers at Work, 1918-1927\Disc Two\02 Pussy Cat Rag.wav

Peak level 90.4 %
Extraction speed 2.0 X
Track quality 100.0 %
Copy CRC 15AC1D90
Accurately ripped (confidence 4) [14EC8A27] (AR v2)
Copy OK

Track 3

Filename C:\Users\David\Documents\CDs\Cabaret Echoes - New Orleans Jazzers at Work, 1918-1927\Disc Two\03 Interview.wav

Pre-gap length 0:00:03.00

Peak level 54.3 %
Extraction speed 2.0 X
Track quality 100.0 %
Copy CRC 8184ADDF
Accurately ripped (confidence 4) [815A4EB7] (AR v2)
Copy OK

Track 4

Filename C:\Users\David\Documents\CDs\Cabaret Echoes - New Orleans Jazzers at Work, 1918-1927\Disc Two\04 Barataria.wav

Peak level 91.4 %
Extraction speed 2.2 X
Track quality 99.9 %
Copy CRC 5021907D
Accurately ripped (confidence 4) [EF3CAD85] (AR v2)
Copy OK

Track 5

Filename C:\Users\David\Documents\CDs\Cabaret Echoes - New Orleans Jazzers at Work, 1918-1927\Disc Two\05 Interview.wav

Pre-gap length 0:00:03.00

Peak level 75.5 %
Extraction speed 2.3 X
Track quality 100.0 %
Copy CRC E1EC0CE2
Accurately ripped (confidence 4) [BF37211F] (AR v2)
Copy OK

Track 6

Filename C:\Users\David\Documents\CDs\Cabaret Echoes - New Orleans Jazzers at Work, 1918-1927\Disc Two\06 That's A Plenty.wav

Peak level 89.5 %
Extraction speed 2.3 X
Track quality 99.9 %
Copy CRC FF4D5A5C
Accurately ripped (confidence 4) [A0AD868A] (AR v2)
Copy OK

Track 7

Filename C:\Users\David\Documents\CDs\Cabaret Echoes - New Orleans Jazzers at Work, 1918-1927\Disc Two\07 Cabaret Echoes.wav

Pre-gap length 0:00:03.00

Peak level 88.5 %
Extraction speed 2.5 X
Track quality 100.0 %
Copy CRC 3173259C
Accurately ripped (confidence 4) [54600F27] (AR v2)
Copy OK

Track 8

Filename C:\Users\David\Documents\CDs\Cabaret Echoes - New Orleans Jazzers at Work, 1918-1927\Disc Two\08 Interview.wav

Pre-gap length 0:00:03.00

Peak level 88.8 %
Extraction speed 2.4 X
Track quality 100.0 %
Copy CRC B9087A85
Accurately ripped (confidence 4) [50961B0E] (AR v2)
Copy OK

Track 9

Filename C:\Users\David\Documents\CDs\Cabaret Echoes - New Orleans Jazzers at Work, 1918-1927\Disc Two\09 My Heart Breakin' Gal.wav

Peak level 56.2 %
Extraction speed 2.6 X
Track quality 100.0 %
Copy CRC 37899F03
Accurately ripped (confidence 4) [D0276F90] (AR v2)
Copy OK

Track 10

Filename C:\Users\David\Documents\CDs\Cabaret Echoes - New Orleans Jazzers at Work, 1918-1927\Disc Two\10 Interview.wav

Pre-gap length 0:00:03.00

Peak level 31.7 %
Extraction speed 2.3 X
Track quality 100.0 %
Copy CRC 82CCFF45
Accurately ripped (confidence 4) [8E1EBEEA] (AR v2)
Copy OK

Track 11

Filename C:\Users\David\Documents\CDs\Cabaret Echoes - New Orleans Jazzers at Work, 1918-1927\Disc Two\11 Black But Sweet, Oh God!.wav

Peak level 68.7 %
Extraction speed 2.7 X
Track quality 99.9 %
Copy CRC AE5C6164
Accurately ripped (confidence 4) [EB37C601] (AR v2)
Copy OK

Track 12

Filename C:\Users\David\Documents\CDs\Cabaret Echoes - New Orleans Jazzers at Work, 1918-1927\Disc Two\12 Interview.wav

Pre-gap length 0:00:03.00

Peak level 59.2 %
Extraction speed 2.5 X
Track quality 100.0 %
Copy CRC 453EE131
Accurately ripped (confidence 4) [65102DB8] (AR v2)
Copy OK

Track 13

Filename C:\Users\David\Documents\CDs\Cabaret Echoes - New Orleans Jazzers at Work, 1918-1927\Disc Two\13 Peculiar.wav

Peak level 86.4 %
Extraction speed 2.8 X
Track quality 99.9 %
Copy CRC A3868E0E
Accurately ripped (confidence 4) [2DD47D1E] (AR v2)
Copy OK

Track 14

Filename C:\Users\David\Documents\CDs\Cabaret Echoes - New Orleans Jazzers at Work, 1918-1927\Disc Two\14 Dirty Rag.wav

Pre-gap length 0:00:03.00

Peak level 88.9 %
Extraction speed 3.0 X
Track quality 100.0 %
Copy CRC FD10F35E
Accurately ripped (confidence 4) [74EE8B0B] (AR v2)
Copy OK

Track 15

Filename C:\Users\David\Documents\CDs\Cabaret Echoes - New Orleans Jazzers at Work, 1918-1927\Disc Two\15 Interview.wav

Pre-gap length 0:00:03.00

Peak level 69.8 %
Extraction speed 3.0 X
Track quality 100.0 %
Copy CRC BE9529E5
Accurately ripped (confidence 4) [1A4A440E] (AR v2)
Copy OK

Track 16

Filename C:\Users\David\Documents\CDs\Cabaret Echoes - New Orleans Jazzers at Work, 1918-1927\Disc Two\16 I'm Afraid To Care For You.wav

Peak level 92.1 %
Extraction speed 3.1 X
Track quality 100.0 %
Copy CRC CFA4388B
Accurately ripped (confidence 4) [1FAFDC7C] (AR v2)
Copy OK

Track 17

Filename C:\Users\David\Documents\CDs\Cabaret Echoes - New Orleans Jazzers at Work, 1918-1927\Disc Two\17 Interview.wav

Pre-gap length 0:00:03.00

Peak level 71.7 %
Extraction speed 3.1 X
Track quality 100.0 %
Copy CRC DC0832B1
Accurately ripped (confidence 4) [90FCD786] (AR v2)
Copy OK

Track 18

Filename C:\Users\David\Documents\CDs\Cabaret Echoes - New Orleans Jazzers at Work, 1918-1927\Disc Two\18 Original Tuxedo Rag.wav

Peak level 95.6 %
Extraction speed 3.2 X
Track quality 100.0 %
Copy CRC 1B11E8A3
Accurately ripped (confidence 4) [2DC5E0BA] (AR v2)
Copy OK

Track 19

Filename C:\Users\David\Documents\CDs\Cabaret Echoes - New Orleans Jazzers at Work, 1918-1927\Disc Two\19 Interview.wav

Pre-gap length 0:00:03.00

Peak level 65.7 %
Extraction speed 3.1 X
Track quality 100.0 %
Copy CRC F4EEAC68
Accurately ripped (confidence 4) [75C97852] (AR v2)
Copy OK

Track 20

Filename C:\Users\David\Documents\CDs\Cabaret Echoes - New Orleans Jazzers at Work, 1918-1927\Disc Two\20 Careless Love.wav

Peak level 97.5 %
Extraction speed 3.3 X
Track quality 100.0 %
Copy CRC 0FCA7DCF
Accurately ripped (confidence 4) [CB61F97A] (AR v2)
Copy OK

Track 21

Filename C:\Users\David\Documents\CDs\Cabaret Echoes - New Orleans Jazzers at Work, 1918-1927\Disc Two\21 Interview.wav

Pre-gap length 0:00:03.00

Peak level 90.5 %
Extraction speed 3.1 X
Track quality 100.0 %
Copy CRC FA135DD3
Accurately ripped (confidence 4) [70F63478] (AR v2)
Copy OK

Track 22

Filename C:\Users\David\Documents\CDs\Cabaret Echoes - New Orleans Jazzers at Work, 1918-1927\Disc Two\22 Black Rag.wav

Peak level 99.1 %
Extraction speed 3.3 X
Track quality 99.9 %
Copy CRC 849985FE
Accurately ripped (confidence 4) [AEA5A782] (AR v2)
Copy OK

Track 23

Filename C:\Users\David\Documents\CDs\Cabaret Echoes - New Orleans Jazzers at Work, 1918-1927\Disc Two\23 Interview.wav

Pre-gap length 0:00:03.00

Peak level 68.8 %
Extraction speed 3.3 X
Track quality 100.0 %
Copy CRC 64909106
Accurately ripped (confidence 4) [5C6A61CA] (AR v2)
Copy OK

Track 24

Filename C:\Users\David\Documents\CDs\Cabaret Echoes - New Orleans Jazzers at Work, 1918-1927\Disc Two\24 Ole Miss.wav

Peak level 85.0 %
Extraction speed 3.4 X
Track quality 99.9 %
Copy CRC E3C34F73
Accurately ripped (confidence 4) [C8A7092F] (AR v2)
Copy OK

Track 25

Filename C:\Users\David\Documents\CDs\Cabaret Echoes - New Orleans Jazzers at Work, 1918-1927\Disc Two\25 Ja Da (OKeh).wav

Pre-gap length 0:00:03.00

Peak level 88.9 %
Extraction speed 3.6 X
Track quality 100.0 %
Copy CRC 194862E1
Accurately ripped (confidence 4) [5BC0E009] (AR v2)
Copy OK

Track 26

Filename C:\Users\David\Documents\CDs\Cabaret Echoes - New Orleans Jazzers at Work, 1918-1927\Disc Two\26 He's Had No Lovin' For A Long, Long Time.wav

Pre-gap length 0:00:03.00

Peak level 94.3 %
Extraction speed 3.6 X
Track quality 100.0 %
Copy CRC 107DB8E5
Accurately ripped (confidence 4) [669C2387] (AR v2)
Copy OK

Track 27

Filename C:\Users\David\Documents\CDs\Cabaret Echoes - New Orleans Jazzers at Work, 1918-1927\Disc Two\27 Ja Da (Gennett).wav

Pre-gap length 0:00:03.00

Peak level 94.2 %
Extraction speed 3.7 X
Track quality 100.0 %
Copy CRC C08196B2
Accurately ripped (confidence 4) [0B374C31] (AR v2)
Copy OK

Track 28

Filename C:\Users\David\Documents\CDs\Cabaret Echoes - New Orleans Jazzers at Work, 1918-1927\Disc Two\28 Interview.wav

Pre-gap length 0:00:03.00

Peak level 78.9 %
Extraction speed 3.6 X
Track quality 100.0 %
Copy CRC 53AF6728
Accurately ripped (confidence 4) [5AF38EFA] (AR v2)
Copy OK

Track 29

Filename C:\Users\David\Documents\CDs\Cabaret Echoes - New Orleans Jazzers at Work, 1918-1927\Disc Two\29 Why Cry Blues.wav

Peak level 83.0 %
Extraction speed 3.7 X
Track quality 99.9 %
Copy CRC AE5ECDB0
Accurately ripped (confidence 4) [FAA61B30] (AR v2)
Copy OK

Track 30

Filename C:\Users\David\Documents\CDs\Cabaret Echoes - New Orleans Jazzers at Work, 1918-1927\Disc Two\30 Interview.wav

Pre-gap length 0:00:03.00

Peak level 53.9 %
Extraction speed 3.3 X
Track quality 100.0 %
Copy CRC 228AB7F6
Accurately ripped (confidence 4) [D30776FA] (AR v2)
Copy OK

Track 31

Filename C:\Users\David\Documents\CDs\Cabaret Echoes - New Orleans Jazzers at Work, 1918-1927\Disc Two\31 Ja-Da (Gennett remake take a).wav

Peak level 88.7 %
Extraction speed 3.9 X
Track quality 100.0 %
Copy CRC 04E85C10
Accurately ripped (confidence 4) [AE6145FF] (AR v2)
Copy OK

Track 32

Filename C:\Users\David\Documents\CDs\Cabaret Echoes - New Orleans Jazzers at Work, 1918-1927\Disc Two\32 Ja-Da (Gennett remake take b).wav

Pre-gap length 0:00:03.00

Peak level 88.8 %
Extraction speed 3.9 X
Track quality 100.0 %
Copy CRC A65004E6
Accurately ripped (confidence 4) [C9610393] (AR v2)
Copy OK

Track 33

Filename C:\Users\David\Documents\CDs\Cabaret Echoes - New Orleans Jazzers at Work, 1918-1927\Disc Two\33 He's Had No Lovin' For A Long, Long Time (remake).wav

Pre-gap length 0:00:03.00

Peak level 94.2 %
Extraction speed 3.9 X
Track quality 100.0 %
Copy CRC 65C33923
Accurately ripped (confidence 4) [CFE7E580] (AR v2)
Copy OK


All tracks accurately ripped

No errors occurred

End of status report

–– CUETools DB Plugin V2.1.6

[CTDB TOCID: eAAIyeD3BzYBCopA4cofRnJ2EcM-] found
Submit result: eAAIyeD3BzYBCopA4cofRnJ2EcM- has been confirmed
Track | CTDB Status
1 | (1/1) Accurately ripped
2 | (1/1) Accurately ripped
3 | (1/1) Accurately ripped
4 | (1/1) Accurately ripped
5 | (1/1) Accurately ripped
6 | (1/1) Accurately ripped
7 | (1/1) Accurately ripped
8 | (1/1) Accurately ripped
9 | (1/1) Accurately ripped
10 | (1/1) Accurately ripped
11 | (1/1) Accurately ripped
12 | (1/1) Accurately ripped
13 | (1/1) Accurately ripped
14 | (1/1) Accurately ripped
15 | (1/1) Accurately ripped
16 | (1/1) Accurately ripped
17 | (1/1) Accurately ripped
18 | (1/1) Accurately ripped
19 | (1/1) Accurately ripped
20 | (1/1) Accurately ripped
21 | (1/1) Accurately ripped
22 | (1/1) Accurately ripped
23 | (1/1) Accurately ripped
24 | (1/1) Accurately ripped
25 | (1/1) Accurately ripped
26 | (1/1) Accurately ripped
27 | (1/1) Accurately ripped
28 | (1/1) Accurately ripped
29 | (1/1) Accurately ripped
30 | (1/1) Accurately ripped
31 | (1/1) Accurately ripped
32 | (1/1) Accurately ripped
33 | (1/1) Accurately ripped


==== Log checksum 7208D157B3211FF7978B106FA4FD5C1BDF69A0AD9B707A8DAE42D4258374D45D ====


All thanks go to the original releaser