Tags
Language
Tags
June 2024
Su Mo Tu We Th Fr Sa
26 27 28 29 30 31 1
2 3 4 5 6 7 8
9 10 11 12 13 14 15
16 17 18 19 20 21 22
23 24 25 26 27 28 29
30 1 2 3 4 5 6

VA - De Pre Historie Oldies Collection (185 Original Hits 1980-1989) [10CD Box Set] (1992)

Posted By: Discograf_man
VA - De Pre Historie Oldies Collection (185 Original Hits 1980-1989) [10CD Box Set] (1992)

VA - De Pre Historie Oldies Collection (185 Original Hits 1980-1989) [10CD Box Set] (1992)
EAC Rip | FLAC (*tracks + .cue,log) | Run Time: 12:22:03 | 4,53 Gb
Genre: Pop, Rock, Funk / Soul, Pop Rock, Soul, Ballad, Disco | Label: BMG

A collection with songs from the sixties to the eighties. "De Pre Historie Oldies Collection" based on the BRT TV- and radio shows "De Pre Historie". Each CD includes songs from one particular year, this lot includes the years 1961 until 1989.
With songs from Nat King Cole Frankie Laine, Ray Charles, The Platters Roy Orbison, Chuck Berry, Cher, Tom Jones, The Bee Gees, Roxy Music, Abba, Queen, David Bowie and many more.
VA - De Pre Historie Oldies Collection (185 Original Hits 1980-1989) [10CD Box Set] (1992)

Full Tracklist:

"1992 - De Pre Historie 1980" ©

01. ABBA - The Winner Takes It All [04:52]
02. Blondie - Call Me [03:31]
03. Leo Sayer - More Than I Can Say [03:38]
04. Madness - Night Boat To Cairo [03:29]
05. Pat Benatar - I Need A Lover [03:28]
06. Godley & Creme - An Englishman In New York [05:51]
07. Electric Light Orchestra - All Over The World [04:04]
08. Kool & The Gang - Celebration [04:57]
09. Diana Ross - Upside Down [04:06]
10. Lipps, Inc. - Funkytown [03:57]
11. Urbanus - Quand Les Zosiaux Chantent Dans Le Bois [04:38]
12. Captain & Tennille - Do That To Me One More Time [04:12]
13. Hall & Oates - Kiss On My List [03:50]
14. Garland Jeffreys - Matador [04:42]
15. Marianne Faithfull - The Ballad Of Lucy Jordan [04:07]
16. Orchestral Manoeuvres In The Dark - Enola Gay [03:30]
17. Peter Gabriel - Games Without Frontiers [04:03]
18. Pink Floyd - Another Brick In The Wall, Part II [03:58]

"1992 - De Pre Historie 1981" ©
01. Irene Cara - Fame [03:48]
02. The Jacksons - Can You Feel It [06:00]
03. Voggue - Dancin' The Night Away [03:11]
04. Aneka - Japanese Boy [03:57]
05. Kim Carnes - Bette Davis Eyes [03:44]
06. Ultravox - Vienna [04:38]
07. Kim Wilde - Cambodia [03:56]
08. Grace Jones - I've Seen That Face Before [04:29]
09. T.C. Matic - O La La La [03:17]
10. Stray Cats - Rock This Town [03:25]
11. De Kreuners - Zij Heeft Stijl [03:43]
12. Duran Duran - Girls On Film [03:29]
13. Visage - Fade To Gray [04:00]
14. Champaign - How 'Bout Us [04:35]
15. Lime - Your Love [03:44]
16. Diana Ross & Lionel Richie - Endless Love [04:25]
17. Madness - It Must Be Love [03:20]
18. Roxy Music - Jealous Guy [06:12]

"1992 - De Pre Historie 1982" ©
01. Culture Club - Do You Really Want To Hurt Me [04:24]
02. Orchestral Manoeuvres In The Dark - Maid Of Orleans (The Waltz Joan Of Arc) [04:11]
03. Fun Boy Three & Bananarama - It Ain't What You Do It's The Way That You Do It [02:48]
04. Musical Youth - Pass The Dutchie [03:21]
05. Kid Creole And The Coconuts - Annie, I'm Not Your Daddy [03:53]
06. Dionne Warwick - Heartbreaker [04:18]
07. Elton John - Blue Eyes [03:27]
08. Men At Work - Down Under [03:42]
09. Dexys Midnight Runners - Come On Eileen [04:06]
10. The Stranglers - Golden Brown [03:27]
11. Adrian Gurvitz - Classic [03:38]
12. ABC - All Of My Heart [04:47]
13. Roxy Music - Avalon [04:15]
14. The Human League - Don't You Want Me [03:57]
15. Simple Minds - Promised You A Miracle [04:22]
16. Jon And Vangelis - I'll Find My Way Home [04:29]
17. Frida - I Know There's Something Going On [04:04]
18. Marvin Gaye - Sexual Healing [04:07]
19. Jo Lemaire + Flouze - Je Suis Venue Te Dire Que Je M'en Vais [03:40]

"1992 - De Pre Historie 1983" ©
01. Kajagoogoo - Too Shy [03:41]
02. Spandau Ballet - Gold [03:51]
03. Bonnie Tyler - Total Eclipse Of The Heart [04:29]
04. The Alan Parsons Project - Eye In The Sky [04:33]
05. Dolly Parton - You Are [05:14]
06. Malcolm McLaren - Buffalo Gals [03:41]
07. UB40 - Red Red Wine [03:01]
08. Bandolero - Paris Latino [04:31]
09. Righeira - Vamos A La Playa [03:38]
10. The Rock Steady Crew - Hey You (Rock Steady Crew) [03:45]
11. Taco - Puttin' On The Ritz [04:36]
12. Jimmy Cliff - Reaggae Nights [04:12]
13. Freeez - I.O.U. [03:48]
14. VOF De Kunst - Suzanne [04:47]
15. Nena - 99 Luftballons [03:51]
16. Elton John - I Guess That's Why They Call It The Blues [04:43]
17. Agnetha Faltskog - Wrap Your Arms Around Me [03:51]
18. Mike Oldfield - Moonlight Shadow [03:32]

"1992 - De Pre Historie 1984" ©
01. Pat Benatar - Love Is A Battlefield [04:06]
02. Rockwell - Somebody's Watching Me [03:46]
03. The Style Council - Shout To The Top [03:25]
04. The Alan Parsons Project - Don't Answer Me [04:09]
05. Nik Kershaw - Wouldn't It Be Good [04:27]
06. Sade - Smooth Operator [04:58]
07. The Flying Pickets - Only You [03:22]
08. Miami Sound Machine - Dr. Beat [04:23]
09. Duran Duran - The Reflex [04:23]
10. Depeche Mode - People Are People [03:53]
11. Talk Talk - Such A Shame [04:19]
12. Fiction Factory - Feels Like Heaven [03:32]
13. Tom Robinson Band - Listen To The Radio [03:43]
14. Lionel Richie - Hello [04:07]
15. Nino De Angelo - Jenseits Von Eden [03:52]
16. Snowy White - Bird Of Paradise [04:07]
17. The Pointer Sisters - Jump (For My Love) [04:26]
18. Wham! - Freedom [05:03]

"1992 - De Pre Historie 1985" ©
01. Double - The Captain Of Her Heart [04:00]
02. Chris Rea - Josephine [04:27]
03. Kate Bush - Running Up That Hill [04:58]
04. Feargal Sharkey - A Good Heart [04:40]
05. Simple Minds - Alive And Kicking [05:27]
06. Tina Turner - We Don't Need Another Hero [04:16]
07. Ashford & Simpson - Solid [05:09]
08. Grace Jones - Slave To The Rhythm [04:23]
09. Jermaine Jackson & Pia Zadora - When The Rain Begins To Fall [04:06]
10. Murray Head - One Night In Bangkok [03:55]
11. Huey Lewis & The News - The Power Of Love [03:53]
12. UB40 - I Got You Babe [03:08]
13. Whitney Houston - All At Once [04:27]
14. Bryan Ferry - Don't Stop The Dance [04:22]
15. Sade - The Sweetest Taboo [04:36]
16. The Cars - Drive [03:54]
17. Phil Collins - One More Night [04:48]

"1992 - De Pre Historie 1986" ©
01. Fine Young Cannibals - Suspicious Minds [03:59]
02. The Communards - Don't Leave Me This Way [04:28]
03. Eurythmics - When Tomorrow Comes [04:17]
04. Simple Minds - Sanctify Yourself [03:58]
05. The Human League - Human [03:48]
06. Gino Vannelli - Hurts To Be In Love [03:39]
07. Nick Kamen - Each Time You Break My Heart [04:25]
08. Bananarama - Venus [03:48]
09. Matia Bazar - Ti Sento [04:11]
10. Two Man Sound - Disco Samba [04:26]
11. Sandra - In The Heat Of The Night [05:19]
12. Culture Club - Move Away [04:10]
13. Jermaine Stewart - We Don't Have To Take Our Clothes Off [04:52]
14. Starship - We Built This City [04:56]
15. Level 42 - Lessons In Love [04:03]
16. The Pretenders - Don't Get Me Wrong [03:49]
17. Peter Gabriel - Sledgehammer [05:02]

"1992 - De Pre Historie 1987" ©
01. Rick Astley - Never Gonna Give You Up [03:34]
02. Mel & Kim - Respectable [03:20]
03. Cliff Richard - Some People [03:50]
04. T’Pau - China In Your Hand [03:59]
05. ABC - When Smokey Sings [04:20]
06. Billy Ocean - Get Outta My Dreams, Get Into My Car [04:39]
07. Vaya Con Dios - Just A Friend Of Mine [03:23]
08. Eurythmics - Miracle Of Love [04:36]
09. Peter Gabriel & Kate Bush - Don’T Give Up [05:56]
10. Black - Wonderful Life [04:50]
11. Won Ton Ton - I Lie And I Cheat [03:53]
12. Viktor Lazlo - Breathless [03:37]
13. Nina Simone - My Baby Just Cares For Me [03:37]
14. Belinda Carlisle - Heaven Is A Place On Earth [04:06]
15. Julien Clerc - Helene [03:40]
16. Boy George - Everything I Own [03:53]
17. The Communards - Never Can Say Goodbye [04:41]
18. Scorpions - Still Loving You [04:53]

"1992 - De Pre Historie 1988" ©
01. Gianna Nannini - I Maschi [04:27]
02. Bros - I Owe You Nothing [03:33]
03. The Pasadenas - Tribute [05:12]
04. Kylie Minogue - The Loco-Motion [03:15]
05. Milli Vanilli - Girl You Know It’s True [04:14]
06. Rick Astley - She Wants To Dance With Me [03:16]
07. Vaya Con Dios - Puerto Rico [04:18]
08. Sade - Love Is Stronger Than Pride [04:17]
09. Terence Trent D’Arby - Sign Your Name [04:37]
10. Londonbeat - There’S A Beat Going On [03:34]
11. Womack & Womack - Teardrops [03:53]
12. Eddy Grant - Gimme Hope Jo’Anna [03:47]
13. Bobby McFerrin - Don’t Worry Be Happy [04:50]
14. Soulsister - The Way To Your Heart [03:46]
15. Tom Jones & Art Of Noise - Kiss [03:31]
16. Glenn Medeiros - Nothing’s Gonna Change My Love For You [03:49]
17. Fairground Attraction - Perfect [03:37]
18. Phil Collins - A Groovy Kind Of Love [03:30]
19. Enya - Orinoco Flow [03:46]

"1992 - De Pre Historie 1989" ©
01. Roxette - The Look [03:58]
02. Tina Turner - The Best [04:11]
03. Fine Young Cannibals - She Drives Me Crazy [03:37]
04. Roy Orbison - You Got It [03:31]
05. The Beach Boys - Kokomo [03:36]
06. The Radios - I'm Into Folk [02:50]
07. Sydney Youngblood - If Only I Could [03:30]
08. Technotronic - Pump Up The Jam [03:36]
09. Milli Vanilli - Girl I'm Gonna Miss You [04:22]
10. Neneh Cherry - Buffalo Stance [04:05]
11. Bobby Brown - My Prerogative [03:31]
12. Soul II Soul - Back To Life [03:49]
13. Paula Abdul - Straight Up [04:06]
14. Four Tops - Loco In Acapulco [03:30]
15. Samantha Fox - I Only Wanna Be With You [02:45]
16. Phil Collins - Two Hearts [03:23]
17. Lisa Stansfield - All Around The World [04:22]
18. Paco - Amor De Mis Amores [03:51]
19. Vaya Con Dios - Don't Cry For Louie [03:02]
20. Tanita Tikaram - Twist In My Sobriety [04:52]

Exact Audio Copy V1.3 from 2. September 2016

EAC extraction logfile from 20. May 2017, 14:32

Various Artists / De Pre Historie 1980

Used drive : ATAPI iHAS124 F Adapter: 1 ID: 1

Read mode : Secure
Utilize accurate stream : Yes
Defeat audio cache : Yes
Make use of C2 pointers : No

Read offset correction : 6
Overread into Lead-In and Lead-Out : No
Fill up missing offset samples with silence : Yes
Delete leading and trailing silent blocks : No
Null samples used in CRC calculations : Yes
Used interface : Native Win32 interface for Win NT & 2000
Gap handling : Appended to previous track

Used output format : User Defined Encoder
Selected bitrate : 1024 kBit/s
Quality : High
Add ID3 tag : No
Command line compressor : C:\cmd.exe
Additional command line options : /c ""C:\F\CUETools.FLACCL.cmd.exe" -8 –verify %source% -o %dest% & "C:\M\metaflac.exe" –set-tag="ARTIST=%artist%" –set-tag="TITLE=%title%" –set-tag="ALBUM=%albumtitle%" –set-tag="DATE=%year%" –set-tag="TRACKNUMBER=%tracknr%" –set-tag="GENRE=%genre%" –set-tag="COMPOSER=%composer%" –set-tag="ALBUMARTIST=%albumartist%" %dest%"


TOC of the extracted CD

Track | Start | Length | Start sector | End sector
––––––––––––––––––––––––––––-
1 | 0:00.33 | 4:51.52 | 33 | 21909
2 | 4:52.10 | 3:30.43 | 21910 | 37702
3 | 8:22.53 | 3:37.42 | 37703 | 54019
4 | 12:00.20 | 3:29.25 | 54020 | 69719
5 | 15:29.45 | 3:28.18 | 69720 | 85337
6 | 18:57.63 | 5:51.15 | 85338 | 111677
7 | 24:49.03 | 4:03.55 | 111678 | 129957
8 | 28:52.58 | 4:56.60 | 129958 | 152217
9 | 33:49.43 | 4:06.15 | 152218 | 170682
10 | 37:55.58 | 3:57.02 | 170683 | 188459
11 | 41:52.60 | 4:38.05 | 188460 | 209314
12 | 46:30.65 | 4:11.48 | 209315 | 228187
13 | 50:42.38 | 3:49.62 | 228188 | 245424
14 | 54:32.25 | 4:41.65 | 245425 | 266564
15 | 59:14.15 | 4:07.10 | 266565 | 285099
16 | 63:21.25 | 3:30.13 | 285100 | 300862
17 | 66:51.38 | 4:03.32 | 300863 | 319119
18 | 70:54.70 | 3:57.38 | 319120 | 336932


Track 1

Filename E:\EAC Rips\2017-05 Mei\Various Artists - De Pre Historie 1980 (1992) [FLAC] {BMG 261.780}\01 - ABBA - The Winner Takes It All.wav

Pre-gap length 0:00:02.33

Peak level 93.1 %
Extraction speed 2.2 X
Track quality 100.0 %
Test CRC 38ACCA4C
Copy CRC 38ACCA4C
Accurately ripped (confidence 3) [2893F7E9] (AR v1)
Copy OK

Track 2

Filename E:\EAC Rips\2017-05 Mei\Various Artists - De Pre Historie 1980 (1992) [FLAC] {BMG 261.780}\02 - Blondie - Call Me.wav

Peak level 90.4 %
Extraction speed 2.3 X
Track quality 100.0 %
Test CRC F934E310
Copy CRC F934E310
Accurately ripped (confidence 3) [91FBE456] (AR v1)
Copy OK

Track 3

Filename E:\EAC Rips\2017-05 Mei\Various Artists - De Pre Historie 1980 (1992) [FLAC] {BMG 261.780}\03 - Leo Sayer - More Than I Can Say.wav

Peak level 99.1 %
Extraction speed 2.5 X
Track quality 100.0 %
Test CRC 52CEC52F
Copy CRC 52CEC52F
Accurately ripped (confidence 3) [934935E2] (AR v1)
Copy OK

Track 4

Filename E:\EAC Rips\2017-05 Mei\Various Artists - De Pre Historie 1980 (1992) [FLAC] {BMG 261.780}\04 - Madness - Night Boat To Cairo.wav

Peak level 99.1 %
Extraction speed 2.6 X
Track quality 100.0 %
Test CRC 8CB91F1F
Copy CRC 8CB91F1F
Accurately ripped (confidence 2) [80866EC9] (AR v1)
Copy OK

Track 5

Filename E:\EAC Rips\2017-05 Mei\Various Artists - De Pre Historie 1980 (1992) [FLAC] {BMG 261.780}\05 - Pat Benatar - I Need A Lover.wav

Peak level 92.2 %
Extraction speed 2.7 X
Track quality 100.0 %
Test CRC B9384599
Copy CRC B9384599
Accurately ripped (confidence 3) [A8E9B12C] (AR v1)
Copy OK

Track 6

Filename E:\EAC Rips\2017-05 Mei\Various Artists - De Pre Historie 1980 (1992) [FLAC] {BMG 261.780}\06 - Godley & Creme - An Englishman In New York.wav

Peak level 78.3 %
Extraction speed 3.1 X
Track quality 100.0 %
Test CRC 9943255C
Copy CRC 9943255C
Accurately ripped (confidence 3) [5504C90A] (AR v1)
Copy OK

Track 7

Filename E:\EAC Rips\2017-05 Mei\Various Artists - De Pre Historie 1980 (1992) [FLAC] {BMG 261.780}\07 - Electric Light Orchestra - All Over The World.wav

Peak level 96.6 %
Extraction speed 3.1 X
Track quality 100.0 %
Test CRC 0E7BA7A0
Copy CRC 0E7BA7A0
Accurately ripped (confidence 3) [C5322F42] (AR v1)
Copy OK

Track 8

Filename E:\EAC Rips\2017-05 Mei\Various Artists - De Pre Historie 1980 (1992) [FLAC] {BMG 261.780}\08 - Kool & The Gang - Celebration.wav

Peak level 99.2 %
Extraction speed 3.0 X
Track quality 99.9 %
Test CRC 2C1FFFA4
Copy CRC 2C1FFFA4
Accurately ripped (confidence 3) [42C63BEB] (AR v1)
Copy OK

Track 9

Filename E:\EAC Rips\2017-05 Mei\Various Artists - De Pre Historie 1980 (1992) [FLAC] {BMG 261.780}\09 - Diana Ross - Upside Down.wav

Pre-gap length 0:00:01.00

Peak level 90.4 %
Extraction speed 3.4 X
Track quality 100.0 %
Test CRC 79A7C5F8
Copy CRC 79A7C5F8
Accurately ripped (confidence 3) [8F9BCF55] (AR v1)
Copy OK

Track 10

Filename E:\EAC Rips\2017-05 Mei\Various Artists - De Pre Historie 1980 (1992) [FLAC] {BMG 261.780}\10 - Lipps, Inc. - Funkytown.wav

Peak level 94.5 %
Extraction speed 3.1 X
Track quality 99.9 %
Test CRC A0131687
Copy CRC A0131687
Accurately ripped (confidence 3) [4DA22375] (AR v1)
Copy OK

Track 11

Filename E:\EAC Rips\2017-05 Mei\Various Artists - De Pre Historie 1980 (1992) [FLAC] {BMG 261.780}\11 - Urbanus - Quand Les Zosiaux Chantent Dans Le Bois.wav

Peak level 92.7 %
Extraction speed 3.7 X
Track quality 100.0 %
Test CRC D89F7E3C
Copy CRC D89F7E3C
Accurately ripped (confidence 3) [0817B4D9] (AR v1)
Copy OK

Track 12

Filename E:\EAC Rips\2017-05 Mei\Various Artists - De Pre Historie 1980 (1992) [FLAC] {BMG 261.780}\12 - Captain & Tennille - Do That To Me One More Time.wav

Pre-gap length 0:00:01.15

Peak level 90.9 %
Extraction speed 3.3 X
Track quality 99.9 %
Test CRC 480B8C46
Copy CRC 480B8C46
Accurately ripped (confidence 3) [C7BACDCF] (AR v1)
Copy OK

Track 13

Filename E:\EAC Rips\2017-05 Mei\Various Artists - De Pre Historie 1980 (1992) [FLAC] {BMG 261.780}\13 - Hall & Oates - Kiss On My List.wav

Peak level 82.3 %
Extraction speed 3.9 X
Track quality 100.0 %
Test CRC 4A72F25E
Copy CRC 4A72F25E
Accurately ripped (confidence 3) [4A48CEB0] (AR v1)
Copy OK

Track 14

Filename E:\EAC Rips\2017-05 Mei\Various Artists - De Pre Historie 1980 (1992) [FLAC] {BMG 261.780}\14 - Garland Jeffreys - Matador.wav

Pre-gap length 0:00:01.15

Peak level 99.2 %
Extraction speed 3.7 X
Track quality 99.9 %
Test CRC BA0591A9
Copy CRC BA0591A9
Accurately ripped (confidence 3) [EAE51DD1] (AR v1)
Copy OK

Track 15

Filename E:\EAC Rips\2017-05 Mei\Various Artists - De Pre Historie 1980 (1992) [FLAC] {BMG 261.780}\15 - Marianne Faithfull - The Ballad Of Lucy Jordan.wav

Peak level 84.7 %
Extraction speed 4.1 X
Track quality 100.0 %
Test CRC 02D49476
Copy CRC 02D49476
Accurately ripped (confidence 3) [8456CE77] (AR v1)
Copy OK

Track 16

Filename E:\EAC Rips\2017-05 Mei\Various Artists - De Pre Historie 1980 (1992) [FLAC] {BMG 261.780}\16 - Orchestral Manoeuvres In The Dark - Enola Gay.wav

Peak level 87.6 %
Extraction speed 3.6 X
Track quality 99.9 %
Test CRC FFFDAE3D
Copy CRC FFFDAE3D
Accurately ripped (confidence 3) [B788C5E1] (AR v1)
Copy OK

Track 17

Filename E:\EAC Rips\2017-05 Mei\Various Artists - De Pre Historie 1980 (1992) [FLAC] {BMG 261.780}\17 - Peter Gabriel - Games Without Frontiers.wav

Peak level 99.2 %
Extraction speed 4.3 X
Track quality 100.0 %
Test CRC 66AB3528
Copy CRC 66AB3528
Accurately ripped (confidence 3) [360C58ED] (AR v1)
Copy OK

Track 18

Filename E:\EAC Rips\2017-05 Mei\Various Artists - De Pre Historie 1980 (1992) [FLAC] {BMG 261.780}\18 - Pink Floyd - Another Brick In The Wall, Part II.wav

Peak level 93.3 %
Extraction speed 4.3 X
Track quality 100.0 %
Test CRC EB0B650D
Copy CRC EB0B650D
Accurately ripped (confidence 3) [8191A1AB] (AR v1)
Copy OK


All tracks accurately ripped

No errors occurred

End of status report

–– CUETools DB Plugin V2.1.6

[CTDB TOCID: QVN6bPEusSjPiYVwK0XNG8x9pmg-] found
Submit result: QVN6bPEusSjPiYVwK0XNG8x9pmg- has been confirmed
Track | CTDB Status
1 | (12/12) Accurately ripped
2 | (12/12) Accurately ripped
3 | (12/12) Accurately ripped
4 | (12/12) Accurately ripped
5 | (12/12) Accurately ripped
6 | (12/12) Accurately ripped
7 | (12/12) Accurately ripped
8 | (12/12) Accurately ripped
9 | (12/12) Accurately ripped
10 | (12/12) Accurately ripped
11 | (12/12) Accurately ripped
12 | (12/12) Accurately ripped
13 | (12/12) Accurately ripped
14 | (12/12) Accurately ripped
15 | (11/12) Accurately ripped
16 | (12/12) Accurately ripped
17 | (11/12) Accurately ripped, or (1/12) differs in 31 samples @02:19:39,02:20:08,02:20:29,02:21:42,02:21:63,02:22:11
18 | (11/12) Accurately ripped


==== Log checksum 083DABAD8653E9C328DE67B9A94C6ADB9C71BFA1F727D260E39719346A1CDEED ====
=============================================================
Exact Audio Copy V1.3 from 2. September 2016

EAC extraction logfile from 20. May 2017, 14:32

Various Artists / De Pre Historie 1981

Used drive : ATAPI iHAS124 F Adapter: 1 ID: 2

Read mode : Secure
Utilize accurate stream : Yes
Defeat audio cache : Yes
Make use of C2 pointers : No

Read offset correction : 6
Overread into Lead-In and Lead-Out : No
Fill up missing offset samples with silence : Yes
Delete leading and trailing silent blocks : No
Null samples used in CRC calculations : Yes
Used interface : Native Win32 interface for Win NT & 2000
Gap handling : Appended to previous track

Used output format : User Defined Encoder
Selected bitrate : 1024 kBit/s
Quality : High
Add ID3 tag : No
Command line compressor : C:\cmd.exe
Additional command line options : /c ""C:\F\CUETools.FLACCL.cmd.exe" -8 –verify %source% -o %dest% & "C:\M\metaflac.exe" –set-tag="ARTIST=%artist%" –set-tag="TITLE=%title%" –set-tag="ALBUM=%albumtitle%" –set-tag="DATE=%year%" –set-tag="TRACKNUMBER=%tracknr%" –set-tag="GENRE=%genre%" –set-tag="COMPOSER=%composer%" –set-tag="ALBUMARTIST=%albumartist%" %dest%"


TOC of the extracted CD

Track | Start | Length | Start sector | End sector
––––––––––––––––––––––––––––-
1 | 0:00.33 | 3:48.25 | 33 | 17157
2 | 3:48.58 | 5:59.72 | 17158 | 44154
3 | 9:48.55 | 3:10.60 | 44155 | 58464
4 | 12:59.40 | 3:56.48 | 58465 | 76212
5 | 16:56.13 | 3:44.17 | 76213 | 93029
6 | 20:40.30 | 4:38.08 | 93030 | 113887
7 | 25:18.38 | 3:56.32 | 113888 | 131619
8 | 29:14.70 | 4:29.23 | 131620 | 151817
9 | 33:44.18 | 3:17.12 | 151818 | 166604
10 | 37:01.30 | 3:25.08 | 166605 | 181987
11 | 40:26.38 | 3:43.32 | 181988 | 198744
12 | 44:09.70 | 3:29.15 | 198745 | 214434
13 | 47:39.10 | 3:59.70 | 214435 | 232429
14 | 51:39.05 | 4:34.55 | 232430 | 253034
15 | 56:13.60 | 3:44.25 | 253035 | 269859
16 | 59:58.10 | 4:25.23 | 269860 | 289757
17 | 64:23.33 | 3:20.30 | 289758 | 304787
18 | 67:43.63 | 6:11.45 | 304788 | 332657


Track 1

Filename E:\EAC Rips\2017-05 Mei\Various Artists - De Pre Historie 1981 (1992) [FLAC] {BMG 261.781}\01 - Irene Cara - Fame.wav

Pre-gap length 0:00:02.33

Peak level 89.9 %
Extraction speed 2.1 X
Track quality 100.0 %
Test CRC 740CDA5A
Copy CRC 740CDA5A
Accurately ripped (confidence 5) [48A4C602] (AR v2)
Copy OK

Track 2

Filename E:\EAC Rips\2017-05 Mei\Various Artists - De Pre Historie 1981 (1992) [FLAC] {BMG 261.781}\02 - The Jacksons - Can You Feel It.wav

Peak level 97.5 %
Extraction speed 2.5 X
Track quality 100.0 %
Test CRC B554A78B
Copy CRC B554A78B
Accurately ripped (confidence 5) [3BC25B8C] (AR v2)
Copy OK

Track 3

Filename E:\EAC Rips\2017-05 Mei\Various Artists - De Pre Historie 1981 (1992) [FLAC] {BMG 261.781}\03 - Voggue - Dancin' The Night Away.wav

Peak level 78.8 %
Extraction speed 2.5 X
Track quality 100.0 %
Test CRC BF1EC2C6
Copy CRC BF1EC2C6
Accurately ripped (confidence 5) [D07BEAE9] (AR v2)
Copy OK

Track 4

Filename E:\EAC Rips\2017-05 Mei\Various Artists - De Pre Historie 1981 (1992) [FLAC] {BMG 261.781}\04 - Aneka - Japanese Boy.wav

Peak level 91.6 %
Extraction speed 2.7 X
Track quality 100.0 %
Test CRC D1B8B695
Copy CRC D1B8B695
Accurately ripped (confidence 5) [87D19B51] (AR v2)
Copy OK

Track 5

Filename E:\EAC Rips\2017-05 Mei\Various Artists - De Pre Historie 1981 (1992) [FLAC] {BMG 261.781}\05 - Kim Carnes - Bette Davis Eyes.wav

Pre-gap length 0:00:01.13

Peak level 85.0 %
Extraction speed 2.8 X
Track quality 100.0 %
Test CRC 6F65F20A
Copy CRC 6F65F20A
Accurately ripped (confidence 5) [DEE00021] (AR v2)
Copy OK

Track 6

Filename E:\EAC Rips\2017-05 Mei\Various Artists - De Pre Historie 1981 (1992) [FLAC] {BMG 261.781}\06 - Ultravox - Vienna.wav

Peak level 96.2 %
Extraction speed 3.1 X
Track quality 100.0 %
Test CRC FB9813C2
Copy CRC FB9813C2
Accurately ripped (confidence 4) [CBB137C1] (AR v2)
Copy OK

Track 7

Filename E:\EAC Rips\2017-05 Mei\Various Artists - De Pre Historie 1981 (1992) [FLAC] {BMG 261.781}\07 - Kim Wilde - Cambodia.wav

Peak level 98.4 %
Extraction speed 3.1 X
Track quality 100.0 %
Test CRC 64DA0214
Copy CRC 64DA0214
Accurately ripped (confidence 4) [50ED4792] (AR v2)
Copy OK

Track 8

Filename E:\EAC Rips\2017-05 Mei\Various Artists - De Pre Historie 1981 (1992) [FLAC] {BMG 261.781}\08 - Grace Jones - I've Seen That Face Before.wav

Peak level 88.9 %
Extraction speed 3.3 X
Track quality 100.0 %
Test CRC 61898103
Copy CRC 61898103
Accurately ripped (confidence 5) [F144B435] (AR v2)
Copy OK

Track 9

Filename E:\EAC Rips\2017-05 Mei\Various Artists - De Pre Historie 1981 (1992) [FLAC] {BMG 261.781}\09 - T.C. Matic - O La La La.wav

Peak level 88.3 %
Extraction speed 3.3 X
Track quality 100.0 %
Test CRC 220B7FB6
Copy CRC 220B7FB6
Accurately ripped (confidence 5) [A9DEE546] (AR v2)
Copy OK

Track 10

Filename E:\EAC Rips\2017-05 Mei\Various Artists - De Pre Historie 1981 (1992) [FLAC] {BMG 261.781}\10 - Stray Cats - Rock This Town.wav

Peak level 90.7 %
Extraction speed 3.4 X
Track quality 100.0 %
Test CRC 53FD53EE
Copy CRC 53FD53EE
Accurately ripped (confidence 5) [028ADE98] (AR v2)
Copy OK

Track 11

Filename E:\EAC Rips\2017-05 Mei\Various Artists - De Pre Historie 1981 (1992) [FLAC] {BMG 261.781}\11 - De Kreuners - Zij Heeft Stijl.wav

Peak level 96.2 %
Extraction speed 2.5 X
Track quality 99.9 %
Test CRC 3028F7E0
Copy CRC 3028F7E0
Accurately ripped (confidence 5) [014EB805] (AR v2)
Copy OK

Track 12

Filename E:\EAC Rips\2017-05 Mei\Various Artists - De Pre Historie 1981 (1992) [FLAC] {BMG 261.781}\12 - Duran Duran - Girls On Film.wav

Peak level 96.9 %
Extraction speed 3.6 X
Track quality 100.0 %
Test CRC 19F9B8E0
Copy CRC 19F9B8E0
Accurately ripped (confidence 5) [65CD2B5E] (AR v2)
Copy OK

Track 13

Filename E:\EAC Rips\2017-05 Mei\Various Artists - De Pre Historie 1981 (1992) [FLAC] {BMG 261.781}\13 - Visage - Fade To Gray.wav

Peak level 88.5 %
Extraction speed 3.8 X
Track quality 100.0 %
Test CRC 64C663C6
Copy CRC 64C663C6
Accurately ripped (confidence 5) [E2F0A2EF] (AR v2)
Copy OK

Track 14

Filename E:\EAC Rips\2017-05 Mei\Various Artists - De Pre Historie 1981 (1992) [FLAC] {BMG 261.781}\14 - Champaign - How 'Bout Us.wav

Peak level 99.0 %
Extraction speed 3.9 X
Track quality 100.0 %
Test CRC 5D9A1380
Copy CRC 5D9A1380
Accurately ripped (confidence 4) [47DE617C] (AR v2)
Copy OK

Track 15

Filename E:\EAC Rips\2017-05 Mei\Various Artists - De Pre Historie 1981 (1992) [FLAC] {BMG 261.781}\15 - Lime - Your Love.wav

Peak level 86.1 %
Extraction speed 4.0 X
Track quality 100.0 %
Test CRC 0B8BE019
Copy CRC 0B8BE019
Accurately ripped (confidence 5) [4A0F1253] (AR v2)
Copy OK

Track 16

Filename E:\EAC Rips\2017-05 Mei\Various Artists - De Pre Historie 1981 (1992) [FLAC] {BMG 261.781}\16 - Diana Ross & Lionel Richie - Endless Love.wav

Peak level 94.0 %
Extraction speed 4.1 X
Track quality 100.0 %
Test CRC 24469AD4
Copy CRC 24469AD4
Accurately ripped (confidence 5) [18481058] (AR v2)
Copy OK

Track 17

Filename E:\EAC Rips\2017-05 Mei\Various Artists - De Pre Historie 1981 (1992) [FLAC] {BMG 261.781}\17 - Madness - It Must Be Love.wav

Peak level 95.5 %
Extraction speed 4.0 X
Track quality 100.0 %
Test CRC 23B93239
Copy CRC 23B93239
Accurately ripped (confidence 5) [E0340FA8] (AR v2)
Copy OK

Track 18

Filename E:\EAC Rips\2017-05 Mei\Various Artists - De Pre Historie 1981 (1992) [FLAC] {BMG 261.781}\18 - Roxy Music - Jealous Guy.wav

Peak level 93.6 %
Extraction speed 4.5 X
Track quality 100.0 %
Test CRC 8C4CCA42
Copy CRC 8C4CCA42
Accurately ripped (confidence 5) [7F2FECB0] (AR v2)
Copy OK


All tracks accurately ripped

No errors occurred

End of status report

–– CUETools DB Plugin V2.1.6

[CTDB TOCID: 6xV3KuigzWcDl7Zkyvs78VFRb7M-] found
Submit result: 6xV3KuigzWcDl7Zkyvs78VFRb7M- has been confirmed
Track | CTDB Status
1 | (11/12) Accurately ripped
2 | (11/12) Accurately ripped
3 | (11/12) Accurately ripped
4 | (10/12) Accurately ripped
5 | (11/12) Accurately ripped
6 | (11/12) Accurately ripped
7 | (11/12) Accurately ripped
8 | (11/12) Accurately ripped
9 | (11/12) Accurately ripped
10 | (11/12) Accurately ripped
11 | (11/12) Accurately ripped
12 | (11/12) Accurately ripped
13 | (10/12) Accurately ripped
14 | (10/12) Accurately ripped
15 | (11/12) Accurately ripped
16 | (11/12) Accurately ripped
17 | (11/12) Accurately ripped
18 | (10/12) Accurately ripped


==== Log checksum BAF4A8F22D02FC7091D2989533354C2D7E24A1972C7AF41E2C3D16CA34D65F90 ====
======================================================
Exact Audio Copy V1.3 from 2. September 2016

EAC extraction logfile from 21. May 2017, 0:50

Various Artists / De Pre Historie 1982

Used drive : ATAPI iHAS124 F Adapter: 1 ID: 0

Read mode : Secure
Utilize accurate stream : Yes
Defeat audio cache : Yes
Make use of C2 pointers : No

Read offset correction : 6
Overread into Lead-In and Lead-Out : No
Fill up missing offset samples with silence : Yes
Delete leading and trailing silent blocks : No
Null samples used in CRC calculations : Yes
Used interface : Native Win32 interface for Win NT & 2000
Gap handling : Appended to previous track

Used output format : User Defined Encoder
Selected bitrate : 1024 kBit/s
Quality : High
Add ID3 tag : No
Command line compressor : C:\cmd.exe
Additional command line options : /c ""C:\F\CUETools.FLACCL.cmd.exe" -8 –verify %source% -o %dest% & "C:\M\metaflac.exe" –set-tag="ARTIST=%artist%" –set-tag="TITLE=%title%" –set-tag="ALBUM=%albumtitle%" –set-tag="DATE=%year%" –set-tag="TRACKNUMBER=%tracknr%" –set-tag="GENRE=%genre%" –set-tag="COMPOSER=%composer%" –set-tag="ALBUMARTIST=%albumartist%" %dest%"


TOC of the extracted CD

Track | Start | Length | Start sector | End sector
––––––––––––––––––––––––––––-
1 | 0:00.33 | 4:23.67 | 33 | 19824
2 | 4:24.25 | 4:10.70 | 19825 | 38644
3 | 8:35.20 | 2:48.08 | 38645 | 51252
4 | 11:23.28 | 3:20.70 | 51253 | 66322
5 | 14:44.23 | 3:52.55 | 66323 | 83777
6 | 18:37.03 | 4:17.55 | 83778 | 103107
7 | 22:54.58 | 3:26.60 | 103108 | 118617
8 | 26:21.43 | 3:41.40 | 118618 | 135232
9 | 30:03.08 | 4:05.47 | 135233 | 153654
10 | 34:08.55 | 3:26.58 | 153655 | 169162
11 | 37:35.38 | 3:38.27 | 169163 | 185539
12 | 41:13.65 | 4:47.30 | 185540 | 207094
13 | 46:01.20 | 4:14.70 | 207095 | 226214
14 | 50:16.15 | 3:57.18 | 226215 | 244007
15 | 54:13.33 | 4:21.55 | 244008 | 263637
16 | 58:35.13 | 4:29.20 | 263638 | 283832
17 | 63:04.33 | 4:03.40 | 283833 | 302097
18 | 67:07.73 | 4:06.47 | 302098 | 320594
19 | 71:14.45 | 3:39.63 | 320595 | 337082


Track 1

Filename E:\EAC Rips\2017-05 Mei\Various Artists - De Pre Historie 1982 (1990) [FLAC] {BMG 261.782}\01 - Culture Club - Do You Really Want To Hurt Me.wav

Pre-gap length 0:00:02.33

Peak level 94.2 %
Extraction speed 3.0 X
Track quality 100.0 %
Test CRC 39E78324
Copy CRC 39E78324
Accurately ripped (confidence 2) [769FE43C] (AR v1)
Copy OK

Track 2

Filename E:\EAC Rips\2017-05 Mei\Various Artists - De Pre Historie 1982 (1990) [FLAC] {BMG 261.782}\02 - Orchestral Manoeuvres In The Dark - Maid Of Orleans (The Waltz Joan Of Arc).wav

Peak level 88.8 %
Extraction speed 3.3 X
Track quality 100.0 %
Test CRC 0F0AEC34
Copy CRC 0F0AEC34
Accurately ripped (confidence 2) [FC6B7D30] (AR v1)
Copy OK

Track 3

Filename E:\EAC Rips\2017-05 Mei\Various Artists - De Pre Historie 1982 (1990) [FLAC] {BMG 261.782}\03 - Fun Boy Three & Bananarama - It Ain't What You Do It's The Way That You Do It.wav

Peak level 93.0 %
Extraction speed 3.3 X
Track quality 100.0 %
Test CRC C2309DC3
Copy CRC C2309DC3
Accurately ripped (confidence 3) [C0005422] (AR v1)
Copy OK

Track 4

Filename E:\EAC Rips\2017-05 Mei\Various Artists - De Pre Historie 1982 (1990) [FLAC] {BMG 261.782}\04 - Musical Youth - Pass The Dutchie.wav

Peak level 97.6 %
Extraction speed 3.6 X
Track quality 100.0 %
Test CRC 9A2A1E99
Copy CRC 9A2A1E99
Accurately ripped (confidence 3) [F404288E] (AR v1)
Copy OK

Track 5

Filename E:\EAC Rips\2017-05 Mei\Various Artists - De Pre Historie 1982 (1990) [FLAC] {BMG 261.782}\05 - Kid Creole And The Coconuts - Annie, I'm Not Your Daddy.wav

Peak level 88.1 %
Extraction speed 3.1 X
Track quality 99.9 %
Test CRC 34DF84DA
Copy CRC 34DF84DA
Accurately ripped (confidence 3) [67E6FA8A] (AR v1)
Copy OK

Track 6

Filename E:\EAC Rips\2017-05 Mei\Various Artists - De Pre Historie 1982 (1990) [FLAC] {BMG 261.782}\06 - Dionne Warwick - Heartbreaker.wav

Peak level 90.1 %
Extraction speed 4.1 X
Track quality 100.0 %
Test CRC 71CAECCF
Copy CRC 71CAECCF
Accurately ripped (confidence 2) [4D88CA22] (AR v1)
Copy OK

Track 7

Filename E:\EAC Rips\2017-05 Mei\Various Artists - De Pre Historie 1982 (1990) [FLAC] {BMG 261.782}\07 - Elton John - Blue Eyes.wav

Peak level 88.4 %
Extraction speed 3.3 X
Track quality 99.9 %
Test CRC 2D74C9CB
Copy CRC 2D74C9CB
Accurately ripped (confidence 2) [7AD29ED3] (AR v1)
Copy OK

Track 8

Filename E:\EAC Rips\2017-05 Mei\Various Artists - De Pre Historie 1982 (1990) [FLAC] {BMG 261.782}\08 - Men At Work - Down Under.wav

Suspicious position 0:01:51

Peak level 87.9 %
Extraction speed 0.6 X
Track quality 99.2 %
Test CRC FF80084B
Copy CRC 6C8D47B7
Cannot be verified as accurate (confidence 6) [61641BD7], AccurateRip returned [905A8970] (AR v2)
Copy finished

Track 9

Filename E:\EAC Rips\2017-05 Mei\Various Artists - De Pre Historie 1982 (1990) [FLAC] {BMG 261.782}\09 - Dexys Midnight Runners - Come On Eileen.wav

Peak level 81.2 %
Extraction speed 4.6 X
Track quality 100.0 %
Test CRC 74E01D95
Copy CRC 74E01D95
Accurately ripped (confidence 3) [D35FECD0] (AR v1)
Copy OK

Track 10

Filename E:\EAC Rips\2017-05 Mei\Various Artists - De Pre Historie 1982 (1990) [FLAC] {BMG 261.782}\10 - The Stranglers - Golden Brown.wav

Peak level 95.0 %
Extraction speed 4.6 X
Track quality 100.0 %
Test CRC 9D8DD298
Copy CRC 9D8DD298
Accurately ripped (confidence 2) [76B83FE3] (AR v1)
Copy OK

Track 11

Filename E:\EAC Rips\2017-05 Mei\Various Artists - De Pre Historie 1982 (1990) [FLAC] {BMG 261.782}\11 - Adrian Gurvitz - Classic.wav

Peak level 80.2 %
Extraction speed 4.9 X
Track quality 100.0 %
Test CRC AF87054C
Copy CRC AF87054C
Accurately ripped (confidence 2) [700B6B07] (AR v1)
Copy OK

Track 12

Filename E:\EAC Rips\2017-05 Mei\Various Artists - De Pre Historie 1982 (1990) [FLAC] {BMG 261.782}\12 - ABC - All Of My Heart.wav

Peak level 90.9 %
Extraction speed 5.2 X
Track quality 100.0 %
Test CRC 8063970F
Copy CRC 8063970F
Accurately ripped (confidence 3) [718C0B9E] (AR v1)
Copy OK

Track 13

Filename E:\EAC Rips\2017-05 Mei\Various Artists - De Pre Historie 1982 (1990) [FLAC] {BMG 261.782}\13 - Roxy Music - Avalon.wav

Peak level 83.9 %
Extraction speed 4.2 X
Track quality 99.9 %
Test CRC 6ACFF691
Copy CRC 6ACFF691
Cannot be verified as accurate (confidence 5) [4EC181EC], AccurateRip returned [531306EC] (AR v2)
Copy OK

Track 14

Filename E:\EAC Rips\2017-05 Mei\Various Artists - De Pre Historie 1982 (1990) [FLAC] {BMG 261.782}\14 - The Human League - Don't You Want Me.wav

Peak level 96.6 %
Extraction speed 5.4 X
Track quality 100.0 %
Test CRC 8C161111
Copy CRC 8C161111
Accurately ripped (confidence 2) [F6F75B2A] (AR v1)
Copy OK

Track 15

Filename E:\EAC Rips\2017-05 Mei\Various Artists - De Pre Historie 1982 (1990) [FLAC] {BMG 261.782}\15 - Simple Minds - Promised You A Miracle.wav

Peak level 95.5 %
Extraction speed 5.6 X
Track quality 100.0 %
Test CRC F9728D94
Copy CRC F9728D94
Accurately ripped (confidence 2) [DCC24315] (AR v1)
Copy OK

Track 16

Filename E:\EAC Rips\2017-05 Mei\Various Artists - De Pre Historie 1982 (1990) [FLAC] {BMG 261.782}\16 - Jon And Vangelis - I'll Find My Way Home.wav

Peak level 83.6 %
Extraction speed 4.7 X
Track quality 99.9 %
Test CRC D3C49504
Copy CRC D3C49504
Accurately ripped (confidence 2) [C49369F0] (AR v1)
Copy OK

Track 17

Filename E:\EAC Rips\2017-05 Mei\Various Artists - De Pre Historie 1982 (1990) [FLAC] {BMG 261.782}\17 - Frida - I Know There's Something Going On.wav

Peak level 95.1 %
Extraction speed 5.9 X
Track quality 100.0 %
Test CRC DF9B5A35
Copy CRC DF9B5A35
Accurately ripped (confidence 2) [17827251] (AR v1)
Copy OK

Track 18

Filename E:\EAC Rips\2017-05 Mei\Various Artists - De Pre Historie 1982 (1990) [FLAC] {BMG 261.782}\18 - Marvin Gaye - Sexual Healing.wav

Peak level 81.2 %
Extraction speed 4.8 X
Track quality 99.9 %
Test CRC 1B9A0BF2
Copy CRC 1B9A0BF2
Accurately ripped (confidence 2) [C27E9140] (AR v1)
Copy OK

Track 19

Filename E:\EAC Rips\2017-05 Mei\Various Artists - De Pre Historie 1982 (1990) [FLAC] {BMG 261.782}\19 - Jo Lemaire + Flouze - Je Suis Venue Te Dire Que Je M'en Vais.wav

Peak level 92.5 %
Extraction speed 3.5 X
Track quality 99.9 %
Test CRC B3301E41
Copy CRC B3301E41
Accurately ripped (confidence 2) [D723345F] (AR v1)
Copy OK


17 track(s) accurately ripped
2 track(s) could not be verified as accurate

Some tracks could not be verified as accurate

There were errors

End of status report

–– CUETools DB Plugin V2.1.6

[CTDB TOCID: 9t3BUOxAfcYQ2T9os.SrUauATkQ-] found
Submit result: insufficient quality
Track | CTDB Status
1 | (13/14) Accurately ripped
2 | (13/14) Accurately ripped
3 | (13/14) Accurately ripped
4 | (13/14) Accurately ripped
5 | (13/14) Accurately ripped
6 | (13/14) Accurately ripped
7 | (13/14) Accurately ripped
8 | ( 1/14) Differs in 12 samples @01:52:28, or (1/14) differs in 12 samples @01:52:28, or (1/14) differs in 12 samples @01:52:28, or (9/14) differs in 12 samples @01:52:28
9 | (13/14) Accurately ripped
10 | (13/14) Accurately ripped
11 | (13/14) Accurately ripped
12 | (11/14) Accurately ripped, or (1/14) differs in 19 samples @02:31:44
13 | (13/14) Accurately ripped
14 | (12/14) Accurately ripped, or (1/14) differs in 8 samples @02:56:00,02:57:43
15 | (13/14) Accurately ripped
16 | (13/14) Accurately ripped
17 | (13/14) Accurately ripped
18 | (13/14) Accurately ripped
19 | (12/14) Accurately ripped, or (1/14) differs in 261 samples @02:33:46,02:33:68-02:33:69,02:34:15-02:34:16,02:40:43,02:41:57,02:42:04,02:42:27,02:43:64,02:44:26,02:44:34,02:44:56,02:45:19,02:45:26,02:45:41,02:45:48,02:46:11,02:46:62,02:47:32,02:47:48-02:47:49,02:48:24,02:48:69,02:49:39,02:51:23,02:51:67-02:51:68,02:52:15-02:52:16,02:52:60-02:52:61,02:53:08,02:53:30-02:53:31,02:53:53,02:55:15,02:59:51,02:59:74
If you are sure that your rip contains errors, you can use CUETools to repair it.


==== Log checksum 4C8E700ABB3259A2CB62B26E9DA9D7067EA66836D4145A6171A8A189D63674CA ====
===================================================