Subcategories

VA - Hed Kandi Back To Love [3CD] (2013)

Posted By: JET 1
VA - Hed Kandi Back To Love [3CD] (2013)

VA - Hed Kandi Back To Love [3CD] (2013)
EAC Rip | FLAC (Tracks) +CUE, LOG | 1.53 GB | Covers Included
Genre: House, Downtempo | Label: Hed Kandi | Catalog Number: HEDK-127

Back To Love celebrates the finest club classics that paved the way for a whole generation of music lovers. With a 90s revival in full swing and the sounds of the 80s still influencing new music, it's always time to wipe the dust off the 80s and 90s records we once loved. This album will bring back memories of legendary soul-infused house and hip hop anthems. Including vocally dominated anthems from Incognito & Jocelyn Brown, Degrees of Motion and Donna Summer as well as house classics from Nightcrawlers and Ultra Naté, Back To Love represents hip hop and house with the likes of Jungle Brothers, A Tribe Called Quest and DJ EZ Rock.

Exact Audio Copy V1.3 from 2. September 2016

EAC extraction logfile from 31. December 2016, 16:40

Various / Hed Kandi - Back To Love

Used drive : ATAPI iHAS124 Y Adapter: 1 ID: 0

Read mode : Secure
Utilize accurate stream : Yes
Defeat audio cache : No
Make use of C2 pointers : Yes

Read offset correction : 48
Overread into Lead-In and Lead-Out : No
Fill up missing offset samples with silence : Yes
Delete leading and trailing silent blocks : No
Null samples used in CRC calculations : Yes
Used interface : Native Win32 interface for Win NT & 2000
Gap handling : Not detected, thus appended to previous track

Used output format : User Defined Encoder
Selected bitrate : 768 kBit/s
Quality : High
Add ID3 tag : No
Command line compressor : C:\Program Files (x86)\Exact Audio Copy\FLAC\FLAC.EXE
Additional command line options : -6 -V -T "ARTIST=%artist%" -T "TITLE=%title%" -T "ALBUM=%albumtitle%" -T "DATE=%year%" -T "TRACKNUMBER=%tracknr%" -T "GENRE=%genre%" -T "COMMENT=%comment%" -T "BAND=%albuminterpret%" -T "ALBUMARTIST=%albuminterpret%" -T "COMPOSER=%composer%" %haslyrics%–tag-from-file=LYRICS="%lyricsfile%"%haslyrics% -T "DISCNUMBER=%cdnumber%" -T "TOTALDISCS=%totalcds%" -T "TOTALTRACKS=%numtracks%" %hascover%–picture="%coverfile%"%hascover% %source% -o %dest%


TOC of the extracted CD

Track | Start | Length | Start sector | End sector
––––––––––––––––––––––––––––-
1 | 0:00.00 | 6:01.01 | 0 | 27075
2 | 6:01.01 | 6:08.00 | 27076 | 54675
3 | 12:09.01 | 5:49.33 | 54676 | 80883
4 | 17:58.34 | 3:40.01 | 80884 | 97384
5 | 21:38.35 | 5:42.21 | 97385 | 123055
6 | 27:20.56 | 5:48.29 | 123056 | 149184
7 | 33:09.10 | 6:54.14 | 149185 | 180248
8 | 40:03.24 | 3:25.12 | 180249 | 195635
9 | 43:28.36 | 5:09.51 | 195636 | 218861
10 | 48:38.12 | 4:00.24 | 218862 | 236885
11 | 52:38.36 | 5:11.62 | 236886 | 260272
12 | 57:50.23 | 5:51.59 | 260273 | 286656
13 | 63:42.07 | 4:54.52 | 286657 | 308758
14 | 68:36.59 | 4:06.18 | 308759 | 327226
15 | 72:43.02 | 6:31.00 | 327227 | 356551


Track 1

Filename A:\PsPBuRnOuT's MUSIC\DANCE - HOUSE - CLUB\HED KANDI\Hed Kandi - Back To Love\HKBTL - Mix - 01\01.Incognito Feat. Jocelyn Brown - Always There [MAW Main Mix].wav

Peak level 97.0 %
Extraction speed 16.0 X
Track quality 100.0 %
Copy CRC 581125F3
Accurately ripped (confidence 10) [7A4C0A17] (AR v2)
Copy OK

Track 2

Filename A:\PsPBuRnOuT's MUSIC\DANCE - HOUSE - CLUB\HED KANDI\Hed Kandi - Back To Love\HKBTL - Mix - 01\02.Degrees Of Motion - Do You Want It Right Now [King Street Mix].wav

Peak level 97.0 %
Extraction speed 21.3 X
Track quality 100.0 %
Copy CRC 70BE99F8
Accurately ripped (confidence 10) [4D88A137] (AR v2)
Copy OK

Track 3

Filename A:\PsPBuRnOuT's MUSIC\DANCE - HOUSE - CLUB\HED KANDI\Hed Kandi - Back To Love\HKBTL - Mix - 01\03.Ce Ce Peniston - Finally [12" Choice Mix].wav

Peak level 97.0 %
Extraction speed 23.7 X
Track quality 100.0 %
Copy CRC 029E8428
Accurately ripped (confidence 10) [5E343390] (AR v2)
Copy OK

Track 4

Filename A:\PsPBuRnOuT's MUSIC\DANCE - HOUSE - CLUB\HED KANDI\Hed Kandi - Back To Love\HKBTL - Mix - 01\04.Pulse Feat. Antoine Robertson - The Lover That You Are [The Club Vocal Mix].wav

Peak level 97.0 %
Extraction speed 26.7 X
Track quality 100.0 %
Copy CRC 8276EBF9
Accurately ripped (confidence 10) [540586F8] (AR v2)
Copy OK

Track 5

Filename A:\PsPBuRnOuT's MUSIC\DANCE - HOUSE - CLUB\HED KANDI\Hed Kandi - Back To Love\HKBTL - Mix - 01\05.Chrissy Ward - Right & Exact [StoneBridge Club Mix].wav

Peak level 97.0 %
Extraction speed 28.0 X
Track quality 100.0 %
Copy CRC 4DB33AD2
Accurately ripped (confidence 10) [8F221443] (AR v2)
Copy OK

Track 6

Filename A:\PsPBuRnOuT's MUSIC\DANCE - HOUSE - CLUB\HED KANDI\Hed Kandi - Back To Love\HKBTL - Mix - 01\06.Alison Limerick - Where Love Lives [Come On In] [Classic Mix].wav

Peak level 97.0 %
Extraction speed 29.9 X
Track quality 100.0 %
Copy CRC DEF7EEEA
Accurately ripped (confidence 10) [33583922] (AR v2)
Copy OK

Track 7

Filename A:\PsPBuRnOuT's MUSIC\DANCE - HOUSE - CLUB\HED KANDI\Hed Kandi - Back To Love\HKBTL - Mix - 01\07.Masters At Work Presents. India - To Be In Love.wav

Peak level 97.0 %
Extraction speed 30.7 X
Track quality 100.0 %
Copy CRC B19C7CB2
Accurately ripped (confidence 10) [3E9CDC1A] (AR v2)
Copy OK

Track 8

Filename A:\PsPBuRnOuT's MUSIC\DANCE - HOUSE - CLUB\HED KANDI\Hed Kandi - Back To Love\HKBTL - Mix - 01\08.Wamdue Project - King Of My Castle [Roy Malone's King Mix].wav

Peak level 97.0 %
Extraction speed 31.5 X
Track quality 100.0 %
Copy CRC BFAAC5A3
Accurately ripped (confidence 10) [D5BEA8DF] (AR v2)
Copy OK

Track 9

Filename A:\PsPBuRnOuT's MUSIC\DANCE - HOUSE - CLUB\HED KANDI\Hed Kandi - Back To Love\HKBTL - Mix - 01\09.Kathy Sledge - Another Star [Classic 12" Mix].wav

Peak level 97.0 %
Extraction speed 32.9 X
Track quality 100.0 %
Copy CRC C007B244
Accurately ripped (confidence 10) [E9EDDF9A] (AR v2)
Copy OK

Track 10

Filename A:\PsPBuRnOuT's MUSIC\DANCE - HOUSE - CLUB\HED KANDI\Hed Kandi - Back To Love\HKBTL - Mix - 01\10.The Fog - Been A Long Time [Gio's Dope Mix].wav

Peak level 97.0 %
Extraction speed 35.7 X
Track quality 100.0 %
Copy CRC D767A91C
Accurately ripped (confidence 10) [44FC1949] (AR v2)
Copy OK

Track 11

Filename A:\PsPBuRnOuT's MUSIC\DANCE - HOUSE - CLUB\HED KANDI\Hed Kandi - Back To Love\HKBTL - Mix - 01\11.The Brand New Heavies - Back To Love [Graeme Park Remix].wav

Peak level 97.0 %
Extraction speed 35.4 X
Track quality 100.0 %
Copy CRC 1BAC0895
Accurately ripped (confidence 10) [0FD48D02] (AR v2)
Copy OK

Track 12

Filename A:\PsPBuRnOuT's MUSIC\DANCE - HOUSE - CLUB\HED KANDI\Hed Kandi - Back To Love\HKBTL - Mix - 01\12.Ann Consuelo - See The Day [StoneBridge Club Mix].wav

Peak level 97.0 %
Extraction speed 32.2 X
Track quality 99.9 %
Copy CRC B703CE3E
Accurately ripped (confidence 10) [620A1EA4] (AR v2)
Copy OK

Track 13

Filename A:\PsPBuRnOuT's MUSIC\DANCE - HOUSE - CLUB\HED KANDI\Hed Kandi - Back To Love\HKBTL - Mix - 01\13.Kamar - I Need You [Original Style Mix].wav

Peak level 97.0 %
Extraction speed 30.1 X
Track quality 100.0 %
Copy CRC 51351977
Accurately ripped (confidence 10) [E3918873] (AR v2)
Copy OK

Track 14

Filename A:\PsPBuRnOuT's MUSIC\DANCE - HOUSE - CLUB\HED KANDI\Hed Kandi - Back To Love\HKBTL - Mix - 01\14.Joe Smooth - Promised Land.wav

Peak level 97.0 %
Extraction speed 38.6 X
Track quality 100.0 %
Copy CRC B7390567
Accurately ripped (confidence 10) [E7BD685A] (AR v2)
Copy OK

Track 15

Filename A:\PsPBuRnOuT's MUSIC\DANCE - HOUSE - CLUB\HED KANDI\Hed Kandi - Back To Love\HKBTL - Mix - 01\15.Duke - So In Love With You [Full Intention 12" Mix].wav

Peak level 97.0 %
Extraction speed 35.4 X
Track quality 99.9 %
Copy CRC A325797A
Accurately ripped (confidence 10) [9E03B73F] (AR v2)
Copy OK


All tracks accurately ripped

No errors occurred

End of status report

–– CUETools DB Plugin V2.1.6

[CTDB TOCID: Mnc3NuYQcjDi4Lik6Con2sggtQ4-] found
Submit result: Mnc3NuYQcjDi4Lik6Con2sggtQ4- has been confirmed
Track | CTDB Status
1 | (12/12) Accurately ripped
2 | (12/12) Accurately ripped
3 | (11/12) Accurately ripped
4 | (11/12) Accurately ripped
5 | (12/12) Accurately ripped
6 | (12/12) Accurately ripped
7 | (12/12) Accurately ripped
8 | (12/12) Accurately ripped
9 | (12/12) Accurately ripped
10 | (12/12) Accurately ripped
11 | (12/12) Accurately ripped
12 | (12/12) Accurately ripped
13 | (12/12) Accurately ripped
14 | (12/12) Accurately ripped
15 | (12/12) Accurately ripped


Exact Audio Copy V1.3 from 2. September 2016

EAC extraction logfile from 1. January 2017, 0:17

Various / Hed Kandi - Back To Love

Used drive : ATAPI iHAS124 Y Adapter: 1 ID: 0

Read mode : Secure
Utilize accurate stream : Yes
Defeat audio cache : No
Make use of C2 pointers : Yes

Read offset correction : 48
Overread into Lead-In and Lead-Out : No
Fill up missing offset samples with silence : Yes
Delete leading and trailing silent blocks : No
Null samples used in CRC calculations : Yes
Used interface : Native Win32 interface for Win NT & 2000
Gap handling : Not detected, thus appended to previous track

Used output format : User Defined Encoder
Selected bitrate : 768 kBit/s
Quality : High
Add ID3 tag : No
Command line compressor : C:\Program Files (x86)\Exact Audio Copy\FLAC\FLAC.EXE
Additional command line options : -6 -V -T "ARTIST=%artist%" -T "TITLE=%title%" -T "ALBUM=%albumtitle%" -T "DATE=%year%" -T "TRACKNUMBER=%tracknr%" -T "GENRE=%genre%" -T "COMMENT=%comment%" -T "BAND=%albuminterpret%" -T "ALBUMARTIST=%albuminterpret%" -T "COMPOSER=%composer%" %haslyrics%–tag-from-file=LYRICS="%lyricsfile%"%haslyrics% -T "DISCNUMBER=%cdnumber%" -T "TOTALDISCS=%totalcds%" -T "TOTALTRACKS=%numtracks%" %hascover%–picture="%coverfile%"%hascover% %source% -o %dest%


TOC of the extracted CD

Track | Start | Length | Start sector | End sector
––––––––––––––––––––––––––––-
1 | 0:00.00 | 5:40.23 | 0 | 25522
2 | 5:40.23 | 2:49.48 | 25523 | 38245
3 | 8:29.71 | 6:25.41 | 38246 | 67161
4 | 14:55.37 | 3:43.47 | 67162 | 83933
5 | 18:39.09 | 3:49.32 | 83934 | 101140
6 | 22:28.41 | 5:15.71 | 101141 | 124836
7 | 27:44.37 | 5:54.06 | 124837 | 151392
8 | 33:38.43 | 3:19.70 | 151393 | 166387
9 | 36:58.38 | 4:13.41 | 166388 | 185403
10 | 41:12.04 | 6:11.44 | 185404 | 213272
11 | 47:23.48 | 7:05.62 | 213273 | 245209
12 | 54:29.35 | 3:19.26 | 245210 | 260160
13 | 57:48.61 | 5:32.67 | 260161 | 285127
14 | 63:21.53 | 5:27.07 | 285128 | 309659
15 | 68:48.60 | 8:16.30 | 309660 | 346889


Track 1

Filename A:\PsPBuRnOuT's MUSIC\DANCE - HOUSE - CLUB\HED KANDI\Hed Kandi - Back To Love\HKBTL - Mix - 02\01.Ultra Nate - Free [Mood II Swing Extended Vocal Mix].wav

Peak level 97.0 %
Extraction speed 14.9 X
Track quality 99.9 %
Copy CRC 714B72BB
Accurately ripped (confidence 10) [FD774C1B] (AR v2)
Copy OK

Track 2

Filename A:\PsPBuRnOuT's MUSIC\DANCE - HOUSE - CLUB\HED KANDI\Hed Kandi - Back To Love\HKBTL - Mix - 02\02.Nightcrawlers - Push The Feeling On [1994 Dub Of Doom Mix].wav

Peak level 97.0 %
Extraction speed 16.1 X
Track quality 100.0 %
Copy CRC AA05575F
Accurately ripped (confidence 10) [4682E671] (AR v2)
Copy OK

Track 3

Filename A:\PsPBuRnOuT's MUSIC\DANCE - HOUSE - CLUB\HED KANDI\Hed Kandi - Back To Love\HKBTL - Mix - 02\03.M People - Moving On Up [MK Like A Man Dub].wav

Peak level 97.0 %
Extraction speed 22.8 X
Track quality 100.0 %
Copy CRC C04A8B84
Accurately ripped (confidence 10) [7DFD7279] (AR v2)
Copy OK

Track 4

Filename A:\PsPBuRnOuT's MUSIC\DANCE - HOUSE - CLUB\HED KANDI\Hed Kandi - Back To Love\HKBTL - Mix - 02\04.Kym Sims - Too Blind To See It [Hurley's House Mix].wav

Peak level 97.0 %
Extraction speed 24.5 X
Track quality 100.0 %
Copy CRC 09A38158
Accurately ripped (confidence 10) [F95ABA45] (AR v2)
Copy OK

Track 5

Filename A:\PsPBuRnOuT's MUSIC\DANCE - HOUSE - CLUB\HED KANDI\Hed Kandi - Back To Love\HKBTL - Mix - 02\05.Sounds Of Blackness - The Pressure [Classic 12' Mix].wav

Peak level 97.0 %
Extraction speed 22.4 X
Track quality 99.9 %
Copy CRC 9771A5E0
Accurately ripped (confidence 10) [08472C7B] (AR v2)
Copy OK

Track 6

Filename A:\PsPBuRnOuT's MUSIC\DANCE - HOUSE - CLUB\HED KANDI\Hed Kandi - Back To Love\HKBTL - Mix - 02\06.Byron Stingily - Get Up [Everybody] [Mousse T. Extended Mix].wav

Peak level 97.0 %
Extraction speed 24.4 X
Track quality 100.0 %
Copy CRC 816DC490
Accurately ripped (confidence 10) [1665D66B] (AR v2)
Copy OK

Track 7

Filename A:\PsPBuRnOuT's MUSIC\DANCE - HOUSE - CLUB\HED KANDI\Hed Kandi - Back To Love\HKBTL - Mix - 02\07.Robin S. - Show Me Love [StoneBridge Club Mix].wav

Peak level 97.0 %
Extraction speed 30.2 X
Track quality 100.0 %
Copy CRC 9D2F5BDF
Accurately ripped (confidence 10) [F89F266E] (AR v2)
Copy OK

Track 8

Filename A:\PsPBuRnOuT's MUSIC\DANCE - HOUSE - CLUB\HED KANDI\Hed Kandi - Back To Love\HKBTL - Mix - 02\08.The Heller & Farley Project - Ultra Flava [Original Flava].wav

Peak level 97.0 %
Extraction speed 32.0 X
Track quality 100.0 %
Copy CRC 9E564E41
Accurately ripped (confidence 10) [19AF4DDB] (AR v2)
Copy OK

Track 9

Filename A:\PsPBuRnOuT's MUSIC\DANCE - HOUSE - CLUB\HED KANDI\Hed Kandi - Back To Love\HKBTL - Mix - 02\09.Kristine W - Feel What You Want [Our Tribe Vocal Edit].wav

Peak level 97.0 %
Extraction speed 31.1 X
Track quality 100.0 %
Copy CRC 9C744AF0
Accurately ripped (confidence 10) [155FEE7D] (AR v2)
Copy OK

Track 10

Filename A:\PsPBuRnOuT's MUSIC\DANCE - HOUSE - CLUB\HED KANDI\Hed Kandi - Back To Love\HKBTL - Mix - 02\10.Ralphi Rosario Feat. Xavier Gold - U Used To Hold Me [Kenny's Mix].wav

Peak level 97.0 %
Extraction speed 34.2 X
Track quality 100.0 %
Copy CRC D1944A07
Accurately ripped (confidence 10) [CC4BB25F] (AR v2)
Copy OK

Track 11

Filename A:\PsPBuRnOuT's MUSIC\DANCE - HOUSE - CLUB\HED KANDI\Hed Kandi - Back To Love\HKBTL - Mix - 02\11.The Believers - Who Dares To Believe In Me!.wav

Peak level 97.0 %
Extraction speed 35.9 X
Track quality 100.0 %
Copy CRC 1D8C8D9C
Accurately ripped (confidence 10) [F9F9BBE2] (AR v2)
Copy OK

Track 12

Filename A:\PsPBuRnOuT's MUSIC\DANCE - HOUSE - CLUB\HED KANDI\Hed Kandi - Back To Love\HKBTL - Mix - 02\12.Crystal Waters - Gypsy Woman [She's Homeless] [Basement Boy Strip To The Bone Mix].wav

Peak level 97.0 %
Extraction speed 35.5 X
Track quality 100.0 %
Copy CRC 41F19DB3
Accurately ripped (confidence 10) [1A3A806E] (AR v2)
Copy OK

Track 13

Filename A:\PsPBuRnOuT's MUSIC\DANCE - HOUSE - CLUB\HED KANDI\Hed Kandi - Back To Love\HKBTL - Mix - 02\13.Hardrive - Deep Inside.wav

Peak level 97.0 %
Extraction speed 37.1 X
Track quality 100.0 %
Copy CRC 5BCF71BA
Accurately ripped (confidence 10) [E62C5F72] (AR v2)
Copy OK

Track 14

Filename A:\PsPBuRnOuT's MUSIC\DANCE - HOUSE - CLUB\HED KANDI\Hed Kandi - Back To Love\HKBTL - Mix - 02\14.MK - Burning [Vibe Mix].wav

Peak level 97.0 %
Extraction speed 39.5 X
Track quality 100.0 %
Copy CRC BB2C03C7
Accurately ripped (confidence 10) [2E57D1A5] (AR v2)
Copy OK

Track 15

Filename A:\PsPBuRnOuT's MUSIC\DANCE - HOUSE - CLUB\HED KANDI\Hed Kandi - Back To Love\HKBTL - Mix - 02\15.Donna Summer - I Feel Love [12' Version].wav

Peak level 97.0 %
Extraction speed 40.1 X
Track quality 100.0 %
Copy CRC 1721D3C0
Accurately ripped (confidence 10) [BCECF176] (AR v2)
Copy OK


All tracks accurately ripped

No errors occurred

End of status report

–– CUETools DB Plugin V2.1.6

[CTDB TOCID: S9RT7HHLqc2xzcc_NnBCzjh2cFI-] found
Submit result: S9RT7HHLqc2xzcc_NnBCzjh2cFI- has been confirmed
Track | CTDB Status
1 | (9/9) Accurately ripped
2 | (9/9) Accurately ripped
3 | (9/9) Accurately ripped
4 | (9/9) Accurately ripped
5 | (9/9) Accurately ripped
6 | (9/9) Accurately ripped
7 | (9/9) Accurately ripped
8 | (9/9) Accurately ripped
9 | (9/9) Accurately ripped
10 | (9/9) Accurately ripped
11 | (9/9) Accurately ripped
12 | (9/9) Accurately ripped
13 | (9/9) Accurately ripped
14 | (9/9) Accurately ripped
15 | (9/9) Accurately ripped


Exact Audio Copy V1.3 from 2. September 2016

EAC extraction logfile from 1. January 2017, 3:58

Various / Hed Kandi - Back To Love

Used drive : ATAPI iHAS124 Y Adapter: 1 ID: 0

Read mode : Secure
Utilize accurate stream : Yes
Defeat audio cache : No
Make use of C2 pointers : Yes

Read offset correction : 48
Overread into Lead-In and Lead-Out : No
Fill up missing offset samples with silence : Yes
Delete leading and trailing silent blocks : No
Null samples used in CRC calculations : Yes
Used interface : Native Win32 interface for Win NT & 2000
Gap handling : Not detected, thus appended to previous track

Used output format : User Defined Encoder
Selected bitrate : 768 kBit/s
Quality : High
Add ID3 tag : No
Command line compressor : C:\Program Files (x86)\Exact Audio Copy\FLAC\FLAC.EXE
Additional command line options : -6 -V -T "ARTIST=%artist%" -T "TITLE=%title%" -T "ALBUM=%albumtitle%" -T "DATE=%year%" -T "TRACKNUMBER=%tracknr%" -T "GENRE=%genre%" -T "COMMENT=%comment%" -T "BAND=%albuminterpret%" -T "ALBUMARTIST=%albuminterpret%" -T "COMPOSER=%composer%" %haslyrics%–tag-from-file=LYRICS="%lyricsfile%"%haslyrics% -T "DISCNUMBER=%cdnumber%" -T "TOTALDISCS=%totalcds%" -T "TOTALTRACKS=%numtracks%" %hascover%–picture="%coverfile%"%hascover% %source% -o %dest%


TOC of the extracted CD

Track | Start | Length | Start sector | End sector
––––––––––––––––––––––––––––-
1 | 0:00.00 | 4:19.58 | 0 | 19482
2 | 4:19.58 | 6:13.72 | 19483 | 47529
3 | 10:33.55 | 5:01.13 | 47530 | 70117
4 | 15:34.68 | 7:12.71 | 70118 | 102588
5 | 22:47.64 | 3:12.48 | 102589 | 117036
6 | 26:00.37 | 4:04.74 | 117037 | 135410
7 | 30:05.36 | 3:45.67 | 135411 | 152352
8 | 33:51.28 | 5:48.13 | 152353 | 178465
9 | 39:39.41 | 5:46.25 | 178466 | 204440
10 | 45:25.66 | 4:04.45 | 204441 | 222785
11 | 49:30.36 | 4:04.35 | 222786 | 241120
12 | 53:34.71 | 4:18.23 | 241121 | 260493
13 | 57:53.19 | 3:49.61 | 260494 | 277729
14 | 61:43.05 | 4:52.11 | 277730 | 299640
15 | 66:35.16 | 4:45.01 | 299641 | 321016


Track 1

Filename A:\PsPBuRnOuT's MUSIC\DANCE - HOUSE - CLUB\HED KANDI\Hed Kandi - Back To Love\HKBTL - Mix - 03\01.Jamiroquai - Alright.wav

Peak level 97.0 %
Extraction speed 14.8 X
Track quality 100.0 %
Copy CRC 53C6ABA4
Accurately ripped (confidence 9) [37ACE24A] (AR v2)
Copy OK

Track 2

Filename A:\PsPBuRnOuT's MUSIC\DANCE - HOUSE - CLUB\HED KANDI\Hed Kandi - Back To Love\HKBTL - Mix - 03\02.A Tribe Called Quest - Can I Kick It! [Boilerhouse Mix].wav

Peak level 97.0 %
Extraction speed 20.4 X
Track quality 100.0 %
Copy CRC 5FA4DA1F
Accurately ripped (confidence 9) [C1DE1D37] (AR v2)
Copy OK

Track 3

Filename A:\PsPBuRnOuT's MUSIC\DANCE - HOUSE - CLUB\HED KANDI\Hed Kandi - Back To Love\HKBTL - Mix - 03\03.Beats International - Dub Be Good To Me [Norman Cooks Excursion In The Version].wav

Peak level 97.0 %
Extraction speed 23.4 X
Track quality 100.0 %
Copy CRC D926B5D2
Accurately ripped (confidence 9) [D772FC20] (AR v2)
Copy OK

Track 4

Filename A:\PsPBuRnOuT's MUSIC\DANCE - HOUSE - CLUB\HED KANDI\Hed Kandi - Back To Love\HKBTL - Mix - 03\04.Carly Simon - Why [Extended Version].wav

Peak level 97.0 %
Extraction speed 24.9 X
Track quality 100.0 %
Copy CRC 3B9825CE
Accurately ripped (confidence 9) [BF1F9CE7] (AR v2)
Copy OK

Track 5

Filename A:\PsPBuRnOuT's MUSIC\DANCE - HOUSE - CLUB\HED KANDI\Hed Kandi - Back To Love\HKBTL - Mix - 03\05.Maceo And The Macks - Cross The Tracks [We Better Go Back].wav

Peak level 97.0 %
Extraction speed 26.6 X
Track quality 100.0 %
Copy CRC B8F1768F
Accurately ripped (confidence 9) [EAED05E9] (AR v2)
Copy OK

Track 6

Filename A:\PsPBuRnOuT's MUSIC\DANCE - HOUSE - CLUB\HED KANDI\Hed Kandi - Back To Love\HKBTL - Mix - 03\06.Eric B. & Rakim - I Know You Got Soul.wav

Peak level 97.0 %
Extraction speed 27.5 X
Track quality 100.0 %
Copy CRC 7699F3A3
Accurately ripped (confidence 9) [AA5EF102] (AR v2)
Copy OK

Track 7

Filename A:\PsPBuRnOuT's MUSIC\DANCE - HOUSE - CLUB\HED KANDI\Hed Kandi - Back To Love\HKBTL - Mix - 03\07.Young Disciples - Apparently Nothin'.wav

Peak level 97.0 %
Extraction speed 28.7 X
Track quality 100.0 %
Copy CRC FD28C826
Accurately ripped (confidence 9) [26DFB8F4] (AR v2)
Copy OK

Track 8

Filename A:\PsPBuRnOuT's MUSIC\DANCE - HOUSE - CLUB\HED KANDI\Hed Kandi - Back To Love\HKBTL - Mix - 03\08.Blue Boy - Remember Me.wav

Peak level 97.0 %
Extraction speed 30.6 X
Track quality 100.0 %
Copy CRC 5A1F9293
Accurately ripped (confidence 9) [5C87A8D5] (AR v2)
Copy OK

Track 9

Filename A:\PsPBuRnOuT's MUSIC\DANCE - HOUSE - CLUB\HED KANDI\Hed Kandi - Back To Love\HKBTL - Mix - 03\09.Shannon - Let The Music Play [Original 12' Mix].wav

Peak level 97.0 %
Extraction speed 32.1 X
Track quality 100.0 %
Copy CRC 32492125
Accurately ripped (confidence 9) [97FC7010] (AR v2)
Copy OK

Track 10

Filename A:\PsPBuRnOuT's MUSIC\DANCE - HOUSE - CLUB\HED KANDI\Hed Kandi - Back To Love\HKBTL - Mix - 03\10.Rob Base & DJ EZ Rock - It Takes Two.wav

Peak level 97.0 %
Extraction speed 33.3 X
Track quality 100.0 %
Copy CRC 9238C444
Accurately ripped (confidence 9) [F7191E70] (AR v2)
Copy OK

Track 11

Filename A:\PsPBuRnOuT's MUSIC\DANCE - HOUSE - CLUB\HED KANDI\Hed Kandi - Back To Love\HKBTL - Mix - 03\11.Nomad - Devotion.wav

Peak level 97.0 %
Extraction speed 35.9 X
Track quality 100.0 %
Copy CRC 8A65E407
Accurately ripped (confidence 9) [16D76D6F] (AR v2)
Copy OK

Track 12

Filename A:\PsPBuRnOuT's MUSIC\DANCE - HOUSE - CLUB\HED KANDI\Hed Kandi - Back To Love\HKBTL - Mix - 03\12.KC Flightt - Planet E [Hip Hop Mix].wav

Peak level 97.0 %
Extraction speed 35.3 X
Track quality 100.0 %
Copy CRC A7D6BF4F
Accurately ripped (confidence 9) [9C017490] (AR v2)
Copy OK

Track 13

Filename A:\PsPBuRnOuT's MUSIC\DANCE - HOUSE - CLUB\HED KANDI\Hed Kandi - Back To Love\HKBTL - Mix - 03\13.Doug Lazy - Let It Roll.wav

Peak level 97.0 %
Extraction speed 37.5 X
Track quality 100.0 %
Copy CRC 66EED514
Accurately ripped (confidence 9) [B7816897] (AR v2)
Copy OK

Track 14

Filename A:\PsPBuRnOuT's MUSIC\DANCE - HOUSE - CLUB\HED KANDI\Hed Kandi - Back To Love\HKBTL - Mix - 03\14.Jungle Brothers - I’ll House You.wav

Peak level 97.0 %
Extraction speed 37.1 X
Track quality 100.0 %
Copy CRC 394DE3A7
Accurately ripped (confidence 9) [A3746B51] (AR v2)
Copy OK

Track 15

Filename A:\PsPBuRnOuT's MUSIC\DANCE - HOUSE - CLUB\HED KANDI\Hed Kandi - Back To Love\HKBTL - Mix - 03\15.First Choice - Let No Man Put Asunder.wav

Peak level 97.0 %
Extraction speed 40.0 X
Track quality 100.0 %
Copy CRC 8A3303FE
Accurately ripped (confidence 9) [EC53BD23] (AR v2)
Copy OK


All tracks accurately ripped

No errors occurred

End of status report

–– CUETools DB Plugin V2.1.6

[CTDB TOCID: gSTqd_xeIX0hdp8A0ab6rQgyAMU-] found
Submit result: gSTqd_xeIX0hdp8A0ab6rQgyAMU- has been confirmed
Track | CTDB Status
1 | (11/11) Accurately ripped
2 | (11/11) Accurately ripped
3 | (11/11) Accurately ripped
4 | (11/11) Accurately ripped
5 | (11/11) Accurately ripped
6 | (11/11) Accurately ripped
7 | (11/11) Accurately ripped
8 | (11/11) Accurately ripped
9 | (11/11) Accurately ripped
10 | (11/11) Accurately ripped
11 | (11/11) Accurately ripped
12 | (11/11) Accurately ripped
13 | (11/11) Accurately ripped
14 | (11/11) Accurately ripped
15 | (11/11) Accurately ripped

Tracklist:
CD1
01 Incognito & Jocelyn Brown - Always There (Maw Main Mix) [06:01]
02 Degrees Of Motion - Do You Want It Right Now (King Street Mix) [06:08]
03 Ce Ce Peniston - Finally (12'' Choice Mix) [05:49]
04 Pulse Feat. Antoine Robertson - The Lover That You Are (Club Vox Mix) [03:40]
05 Chrissy Ward - Right & Exact (Stonebridge Club Mix) [05:42]
06 Alison Limerick - Where Love Lives (Come On In)(Classic Mix) [05:48]
07 Masters At Work Presenrs India - To Be In Love [06:54]
08 Wamdue Project - King Of My Castle (Roy Malone's King Mix) [03:25]
09 Kathy Sledge - Another Star (Classic 12'' Mix) [05:10]
10 The Fog - Been A Long Time (Gio's Dope Mix) [04:00]
11 The Brand New Heavies - Back To Love (Graeme Park Mix) [05:12]
12 Ann Consuelo - See The Day (StoneBridge Club Mix) [05:52]
13 Kamar - I Need You ( Original Style Mix) [04:55]
14 Joe Smooth - Promised Land [04:06]
15 Duke - So In Love With You (Full Intention 12'' Mix) [06:31]

CD2
01 Ultra Nate - Free (Mood II Swing Extended Vocal Mix) [05:40]
02 Nightcrawlers - Push The Feeling On (1994 Dub Of Doom Mix) [02:50]
03 M People - Moving On Up (Mk Like A Man Dub) [06:26]
04 Kym Sims - Too Blind To See It (Hurley's House Mix) [03:44]
05 Sounds Of Blackness - The Pressure (Classic 12' Mix) [03:49]
06 Byron Stingily - Get Up (Everybody) (Mousse T. Extended Remix) [05:16]
07 Robin S. - Show Me Love (Stonebridge Club Mix) [05:54]
08 The Heller & Farley Project - Ultra Flava (Original Flava) [03:20]
09 Kristine W - Feel What You Want (Our Tribe Vocal Edit) [04:14]
10 Ralphi Rosario Feat. Xavier Gold - You Used To Hold Me (Kenny's Mix) [06:12]
11 The Believers - Who Dares To Believe In Me? [07:06]
12 Crystal Waters - Gypsy Woman (She's Homeless (Basement Boy Strip To The Bone Mix) [03:19]
13 Hardrive - Deep Inside [05:33]
14 Mk - Burning (Vibe Mix) [05:27]
15 Donna Summer - I Feel Love (12'' Version) [08:16]

CD3
01 Jamiroquai - Alright [04:20]
02 A Tribe Called Quest - Can I Kick It? (Boilerhouse Mix) [06:14]
03 Beats International - Dub Be Good To Me (Norman Cooks Excursion In The Version) [05:01]
04 Carly Simon - Why (Extended Version) [07:13]
05 Maceo & The Macks - Cross The Tracks (We Better Go Back) [03:13]
06 Eric B & Rakim - I Know You Got Soul [04:05]
07 Young Disciples - Apparently Nothin' [03:46]
08 Blue Boy - Remember Me [05:48]
09 Shannon - Let The Music Play (Original 12'' Mix) [05:46]
10 Rob Base & Dj Ez Rock - It Takes Two [04:05]
11 Nomad - (I Wanna Give You) Devotion [04:04]
12 Kc Flightt - Planet E (Hip Hop Mix) [04:18]
13 Doug Lazy - Let It Roll [03:50]
14 Jungle Brothers - I'll House You [04:52]
15 First Choice - Let No Man Put Asunder [04:45]