Subcategories

Ella Fitzgerald, Dinah Washington, Billie Holiday & others - Jazz Ladies [Recorded 1954-1965] (2006)

Posted By: gribovar
Ella Fitzgerald, Dinah Washington, Billie Holiday & others - Jazz Ladies [Recorded 1954-1965] (2006)

Ella Fitzgerald, Dinah Washington, Billie Holiday & others - Jazz Ladies [Recorded 1954-1965] (2006)
EAC Rip | FLAC (image+.cue+log) - 289 MB | MP3 CBR 320 kbps (LAME 3.93) - 124 MB | Covers (12 MB) included
Genre: Vocal Jazz | RAR 3% Rec. | Label: Universal Music (2600814)

The Jazz Club series is an attractive addition to the Verve catalogue. With it's modern design and popular choice of repertoire, the Jazz Club is not only opened for Jazz fans, but for everyone that loves good music.
Tracklist:
01. Dinah Washington - If I Were A Bell
02. Ella Fitzgerald -You Hit The Spot
03. Sarah Vaughan - Shiny Stockings
04. Sue Raney - A Beautiful Friendship
05. Shirley Horn - Mack The Knife
06. Ernestine Anderson - It Don't Mean A Thing (If It Ain't Got That Swing)
07. Billie Holiday - What A Little Moonlight Can Do
08. Margaret Whiting - A Fine Romance
09. Helen Merrill - You'd Be So Nice To Come Home To
10. Blossom Dearie - Rhode Island Is Famous For You
11. Rita Reys - My Funny Valentine
12. Carmen McRae - Give Me The Simple Life
13. Jeri Southern - You're Driving Me Crazy
14. Rosemary Clooney - 'Deed I Do
15. Patti Page - My Kind Of Love
16. Anita O'Day - My Heart Belongs To Daddy
17. Beverly Kenney - Undecided
18. Peggy Lee - They Can't Take That Away From Me

Total time: 47:41

Exact Audio Copy V0.99 prebeta 4 from 23. January 2008

EAC extraction logfile from 27. March 2009, 13:39

Verve Jazz Club / Jazz Ladies

Used drive : HL-DT-STDVD-RAM GH22NP20 Adapter: 0 ID: 0

Read mode : Secure
Utilize accurate stream : Yes
Defeat audio cache : Yes
Make use of C2 pointers : No

Read offset correction : 102
Overread into Lead-In and Lead-Out : No
Fill up missing offset samples with silence : Yes
Delete leading and trailing silent blocks : No
Null samples used in CRC calculations : Yes
Used interface : Native Win32 interface for Win NT & 2000

Used output format : User Defined Encoder
Selected bitrate : 1024 kBit/s
Quality : High
Add ID3 tag : No
Command line compressor : C:\Program Files (x86)\Exact Audio Copy\Flac\flac.exe
Additional command line options : -V -8 -T "artist=%a" -T "title=%t" -T "album=%g" -T "date=%y" -T "tracknumber=%n" -T "genre=%m" %s
Use compression offset : 0


TOC of the extracted CD

Track | Start | Length | Start sector | End sector
––––––––––––––––––––––––––––-
1 | 0:00.00 | 2:06.68 | 0 | 9517
2 | 2:06.68 | 2:45.72 | 9518 | 21964
3 | 4:52.65 | 3:26.64 | 21965 | 37478
4 | 8:19.54 | 2:23.69 | 37479 | 48272
5 | 10:43.48 | 3:03.41 | 48273 | 62038
6 | 13:47.14 | 2:17.46 | 62039 | 72359
7 | 16:04.60 | 3:13.61 | 72360 | 86895
8 | 19:18.46 | 3:37.03 | 86896 | 103173
9 | 22:55.49 | 4:20.24 | 103174 | 122697
10 | 27:15.73 | 2:13.03 | 122698 | 132675
11 | 29:29.01 | 2:05.05 | 132676 | 142055
12 | 31:34.06 | 2:19.60 | 142056 | 152540
13 | 33:53.66 | 2:20.21 | 152541 | 163061
14 | 36:14.12 | 1:48.28 | 163062 | 171189
15 | 38:02.40 | 1:33.31 | 171190 | 178195
16 | 39:35.71 | 2:53.65 | 178196 | 191235
17 | 42:29.61 | 2:14.32 | 191236 | 201317
18 | 44:44.18 | 2:56.60 | 201318 | 214577


Range status and errors

Selected range

Filename D:\Rips\Verve Jazz Club - Jazz Ladies.wav

Peak level 99.9 %
Range quality 99.9 %
Test CRC 821FEED2
Copy CRC 821FEED2
Copy OK

No errors occurred


AccurateRip summary

Track 1 cannot be verified as accurate (confidence 4) [F990F393], AccurateRip returned [27A99963]
Track 2 cannot be verified as accurate (confidence 4) [0E8A312E], AccurateRip returned [DEEFB3CE]
Track 3 cannot be verified as accurate (confidence 4) [3065EF3C], AccurateRip returned [46CEA20C]
Track 4 cannot be verified as accurate (confidence 4) [3434E8B8], AccurateRip returned [667A4590]
Track 5 cannot be verified as accurate (confidence 4) [6257AA4E], AccurateRip returned [843E6266]
Track 6 cannot be verified as accurate (confidence 4) [B4DA36E4], AccurateRip returned [16F3A778]
Track 7 cannot be verified as accurate (confidence 4) [6C651F1F], AccurateRip returned [E6C5EEC2]
Track 8 cannot be verified as accurate (confidence 4) [B480A031], AccurateRip returned [68B981E6]
Track 9 cannot be verified as accurate (confidence 4) [57A4F08A], AccurateRip returned [4DF518C2]
Track 10 cannot be verified as accurate (confidence 4) [1D0043AE], AccurateRip returned [B79ACFCE]
Track 11 cannot be verified as accurate (confidence 4) [238DB7FB], AccurateRip returned [90A13E13]
Track 12 cannot be verified as accurate (confidence 4) [92292412], AccurateRip returned [1A0F8BDA]
Track 13 cannot be verified as accurate (confidence 4) [558E20B8], AccurateRip returned [A5F940A8]
Track 14 cannot be verified as accurate (confidence 4) [521A5CEA], AccurateRip returned [7541BE3A]
Track 15 cannot be verified as accurate (confidence 4) [3C829DC4], AccurateRip returned [83FD18BC]
Track 16 cannot be verified as accurate (confidence 4) [1CE6A17E], AccurateRip returned [1D5EF416]
Track 17 cannot be verified as accurate (confidence 4) [87A3C4A2], AccurateRip returned [4F34D24A]
Track 18 cannot be verified as accurate (confidence 4) [E8F50A6D], AccurateRip returned [0A0FB365]

No tracks could be verified as accurate
You may have a different pressing from the one(s) in the database

End of status report

[CUETools log; Date: 31.12.2019 18:49:12; Version: 2.1.4]
Truncated 4608 extra samples in some input files.
[CTDB TOCID: e1umrftwq17w0Ry8n7.mvTRmtys-] found.
Track | CTDB Status
1 | (90/90) Accurately ripped
2 | (90/90) Accurately ripped
3 | (90/90) Accurately ripped
4 | (90/90) Accurately ripped
5 | (90/90) Accurately ripped
6 | (90/90) Accurately ripped
7 | (90/90) Accurately ripped
8 | (90/90) Accurately ripped
9 | (89/90) Accurately ripped
10 | (90/90) Accurately ripped
11 | (90/90) Accurately ripped
12 | (90/90) Accurately ripped
13 | (90/90) Accurately ripped
14 | (90/90) Accurately ripped
15 | (90/90) Accurately ripped
16 | (90/90) Accurately ripped
17 | (90/90) Accurately ripped
18 | (90/90) Accurately ripped
[AccurateRip ID: 00203717-01ab57fa-0d0b2d12] found.
Track [ CRC | V2 ] Status
01 [f990f393|5d048397] (02+00/63) Accurately ripped
02 [0e8a312e|a49597b2] (02+00/63) Accurately ripped
03 [3065ef3c|8710eac2] (02+00/63) Accurately ripped
04 [3434e8b8|39ac6179] (02+00/63) Accurately ripped
05 [6257aa4e|108f0c6a] (02+00/63) Accurately ripped
06 [b4da36e4|5f26fa48] (02+00/63) Accurately ripped
07 [6c651f1f|58e82bab] (02+00/63) Accurately ripped
08 [b480a031|a831c9d3] (02+00/63) Accurately ripped
09 [57a4f08a|7e59652e] (02+00/63) Accurately ripped
10 [1d0043ae|3a935b45] (02+00/63) Accurately ripped
11 [238db7fb|e78929dc] (02+00/63) Accurately ripped
12 [92292412|5a4d0802] (02+00/63) Accurately ripped
13 [558e20b8|44e5212e] (02+00/63) Accurately ripped
14 [521a5cea|50d2fae2] (02+00/63) Accurately ripped
15 [3c829dc4|9d57137b] (02+00/63) Accurately ripped
16 [1ce6a17e|b3b635ef] (02+00/63) Accurately ripped
17 [87a3c4a2|f2a0c542] (02+00/63) Accurately ripped
18 [e8f50a6d|e40822b8] (02+00/63) Accurately ripped
Offsetted by 664:
01 [27a99963] (22/63) Accurately ripped
02 [deefb3ce] (22/63) Accurately ripped
03 [46cea20c] (22/63) Accurately ripped
04 [667a4590] (22/63) Accurately ripped
05 [843e6266] (22/63) Accurately ripped
06 [16f3a778] (22/63) Accurately ripped
07 [e6c5eec2] (22/63) Accurately ripped
08 [68b981e6] (22/63) Accurately ripped
09 [4df518c2] (22/63) Accurately ripped
10 [b79acfce] (22/63) Accurately ripped
11 [90a13e13] (22/63) Accurately ripped
12 [1a0f8bda] (22/63) Accurately ripped
13 [a5f940a8] (22/63) Accurately ripped
14 [7541be3a] (22/63) Accurately ripped
15 [83fd18bc] (22/63) Accurately ripped
16 [1d5ef416] (22/63) Accurately ripped
17 [4f34d24a] (22/63) Accurately ripped
18 [0a0fb365] (22/63) Accurately ripped
Offsetted by 18:
01 [1cbe57af] (00/63) No match (V2 was not tested)
02 [fc4916a6] (00/63) No match (V2 was not tested)
03 [a0d01918] (00/63) No match (V2 was not tested)
04 [32168f7a] (00/63) No match (V2 was not tested)
05 [b5b1a480] (00/63) No match (V2 was not tested)
06 [d2113984] (00/63) No match (V2 was not tested)
07 [19c2ea68] (00/63) No match (V2 was not tested)
08 [47b213f2] (00/63) No match (V2 was not tested)
09 [92c15454] (00/63) No match (V2 was not tested)
10 [1610d246] (00/63) No match (V2 was not tested)
11 [c4d134ad] (00/63) No match (V2 was not tested)
12 [1fde6c48] (00/63) No match (V2 was not tested)
13 [52566dec] (00/63) No match (V2 was not tested)
14 [c08cc7a6] (00/63) No match (V2 was not tested)
15 [62b0589e] (00/63) No match (V2 was not tested)
16 [35969d90] (00/63) No match (V2 was not tested)
17 [d64d7bc0] (00/63) No match (V2 was not tested)
18 [9e49cfc7] (00/63) No match (V2 was not tested)
Offsetted by 634:
01 [97b347df] (00/63) No match (V2 was not tested)
02 [a806e006] (00/63) No match (V2 was not tested)
03 [e0c85c48] (00/63) No match (V2 was not tested)
04 [6a252fa2] (00/63) No match (V2 was not tested)
05 [a3dac168] (00/63) No match (V2 was not tested)
06 [95c53d1d] (00/63) No match (V2 was not tested)
07 [09769bbe] (00/63) No match (V2 was not tested)
08 [694c168b] (00/63) No match (V2 was not tested)
09 [961b1d1c] (00/63) No match (V2 was not tested)
10 [c2b1e226] (00/63) No match (V2 was not tested)
11 [d9a8c395] (00/63) No match (V2 was not tested)
12 [d88c1380] (00/63) No match (V2 was not tested)
13 [5600bffc] (00/63) No match (V2 was not tested)
14 [12830c56] (00/63) No match (V2 was not tested)
15 [ef0636a6] (00/63) No match (V2 was not tested)
16 [9ee44ff8] (00/63) No match (V2 was not tested)
17 [76c4a118] (00/63) No match (V2 was not tested)
18 [dbd7bfcf] (00/63) No match (V2 was not tested)
Offsetted by 652:
01 [bae0abfb] (00/63) No match (V2 was not tested)
02 [95c5c57e] (00/63) No match (V2 was not tested)
03 [51328624] (00/63) No match (V2 was not tested)
04 [67f1d664] (00/63) No match (V2 was not tested)
05 [f749bb9a] (00/63) No match (V2 was not tested)
06 [7283a5b2] (00/63) No match (V2 was not tested)
07 [c179672a] (00/63) No match (V2 was not tested)
08 [02548a28] (00/63) No match (V2 was not tested)
09 [d13780e6] (00/63) No match (V2 was not tested)
10 [bc0a70be] (00/63) No match (V2 was not tested)
11 [7aa44047] (00/63) No match (V2 was not tested)
12 [66415bb6] (00/63) No match (V2 was not tested)
13 [52c90d30] (00/63) No match (V2 was not tested)
14 [80f57712] (00/63) No match (V2 was not tested)
15 [1533f180] (00/63) No match (V2 was not tested)
16 [b7944c0a] (00/63) No match (V2 was not tested)
17 [c56e5836] (00/63) No match (V2 was not tested)
18 [912c8529] (00/63) No match (V2 was not tested)

Track Peak [ CRC32 ] [W/O NULL] [ LOG ]
– 99,9 [821FEED2] [5FCBE167] CRC32
01 92,2 [D117AE26] [AF4AD141]
02 99,9 [DDB2ED1F] [208A4AD4]
03 99,9 [46743083] [34A33428]
04 76,8 [F1FD54A4] [5FC6B2F7]
05 90,4 [C42C963C] [5E0B6892]
06 83,7 [6784CB1D] [EAA92731]
07 78,2 [C504A91B] [2E66A49C]
08 94,7 [9145DBB6] [4B447A5D]
09 99,9 [35CA5720] [41669D88]
10 82,3 [B852B179] [30D753DA]
11 93,0 [7A71FFC9] [5815D17C]
12 75,8 [EA53423B] [FCE79C7A]
13 90,7 [CB4AD7C2] [4AD80A86]
14 90,1 [BA659184] [5F52A70D]
15 91,8 [9DD748B4] [D3749434]
16 84,4 [7FF31640] [CA43B73E]
17 82,4 [83C9D9A5] [7CC80673]
18 97,7 [0548D1A4] [15CE474E]

Thanks to the original releaser