Tags
Language
Tags
June 2024
Su Mo Tu We Th Fr Sa
26 27 28 29 30 31 1
2 3 4 5 6 7 8
9 10 11 12 13 14 15
16 17 18 19 20 21 22
23 24 25 26 27 28 29
30 1 2 3 4 5 6

VA - Let's Disco: The Best Of Disco Hits [3CD Box Set] (2018)

Posted By: JET 1
VA - Let's Disco: The Best Of Disco Hits [3CD Box Set] (2018)

VA - Let's Disco: The Best Of Disco Hits [3CD Box Set] (2018)
EAC Rip | FLAC (Tracks) +CUE, LOG | 1.57 GB | Scans
Genre: Disco, Funk, Soul, Pop, Dance | Label: Universal Music | Catalog Number: UICZ 1677-9

A compilation board released as part of the "Disco Fever" campaign jointly held by record companies in commemoration of the 40th anniversary of the movie "Saturday Night Fever" in Japan. It is good to dance and fever but I also want to reconfirm the height of the musicality where the melody, the beat and the chorus come together to create the groove.

Exact Audio Copy V1.3 from 2. September 2016

EAC extraction logfile from 30. November 2018, 23:36

Various Artists / Let's Disco ~The Best Of Disco Hits~ (Disc 1)

Used drive : PLEXTOR PX-891SAF Adapter: 1 ID: 0

Read mode : Secure
Utilize accurate stream : Yes
Defeat audio cache : Yes
Make use of C2 pointers : No

Read offset correction : 6
Overread into Lead-In and Lead-Out : No
Fill up missing offset samples with silence : Yes
Delete leading and trailing silent blocks : No
Null samples used in CRC calculations : Yes
Used interface : Native Win32 interface for Win NT & 2000
Gap handling : Appended to previous track

Used output format : User Defined Encoder
Selected bitrate : 1024 kBit/s
Quality : High
Add ID3 tag : No
Command line compressor : C:\Program Files (x86)\Exact Audio Copy\Flac\flac.exe
Additional command line options : -8 -V -T "ARTIST=%artist%" -T "TITLE=%title%" -T "ALBUM=%albumtitle%" -T "DATE=%year%" -T "TRACKNUMBER=%tracknr%" -T "GENRE=%genre%" -T "PERFORMER=%albuminterpret%" -T "COMPOSER=%composer%" %haslyrics%–tag-from-file=LYRICS="%lyricsfile%"%haslyrics% -T "ALBUMARTIST=%albumartist%" -T "DISCNUMBER=%cdnumber%" -T "TOTALDISCS=%totalcds%" -T "TOTALTRACKS=%numtracks%" -T "COMMENT=%comment%" %source% -o %dest%


TOC of the extracted CD

Track | Start | Length | Start sector | End sector
––––––––––––––––––––––––––––-
1 | 0:00.00 | 3:38.17 | 0 | 16366
2 | 3:38.17 | 3:07.24 | 16367 | 30415
3 | 6:45.41 | 3:18.52 | 30416 | 45317
4 | 10:04.18 | 4:47.57 | 45318 | 66899
5 | 14:52.00 | 2:58.51 | 66900 | 80300
6 | 17:50.51 | 3:04.53 | 80301 | 94153
7 | 20:55.29 | 3:21.50 | 94154 | 109278
8 | 24:17.04 | 3:10.73 | 109279 | 123601
9 | 27:28.02 | 3:02.61 | 123602 | 137312
10 | 30:30.63 | 3:29.62 | 137313 | 153049
11 | 34:00.50 | 2:58.06 | 153050 | 166405
12 | 36:58.56 | 3:44.06 | 166406 | 183211
13 | 40:42.62 | 3:56.27 | 183212 | 200938
14 | 44:39.14 | 3:33.10 | 200939 | 216923
15 | 48:12.24 | 3:47.39 | 216924 | 233987
16 | 51:59.63 | 3:54.64 | 233988 | 251601
17 | 55:54.52 | 4:54.05 | 251602 | 273656
18 | 60:48.57 | 4:00.03 | 273657 | 291659
19 | 64:48.60 | 4:04.03 | 291660 | 309962
20 | 68:52.63 | 3:29.52 | 309963 | 325689


Track 1

Filename D:\#New wavs + flac\VA - Let's Disco The Best Of Disco Hits\cd 1\01. The Love Unlimited Orchestra - Love's Theme.wav

Pre-gap length 0:00:02.00

Peak level 77.9 %
Extraction speed 5.6 X
Track quality 100.0 %
Test CRC AC490619
Copy CRC AC490619
Track not present in AccurateRip database
Copy OK

Track 2

Filename D:\#New wavs + flac\VA - Let's Disco The Best Of Disco Hits\cd 1\02. The Hues Corporation - Rock The Boat.wav

Pre-gap length 0:00:00.64

Peak level 78.5 %
Extraction speed 5.9 X
Track quality 100.0 %
Test CRC 9D37D2F6
Copy CRC 9D37D2F6
Track not present in AccurateRip database
Copy OK

Track 3

Filename D:\#New wavs + flac\VA - Let's Disco The Best Of Disco Hits\cd 1\03. George McCrae - Rock Your Baby.wav

Pre-gap length 0:00:00.64

Peak level 98.8 %
Extraction speed 6.3 X
Track quality 100.0 %
Test CRC 98526D93
Copy CRC 98526D93
Track not present in AccurateRip database
Copy OK

Track 4

Filename D:\#New wavs + flac\VA - Let's Disco The Best Of Disco Hits\cd 1\04. Silver Convention - Fly, Robin, Fly.wav

Pre-gap length 0:00:00.64

Peak level 78.5 %
Extraction speed 7.1 X
Track quality 100.0 %
Test CRC F4E0B9FA
Copy CRC F4E0B9FA
Track not present in AccurateRip database
Copy OK

Track 5

Filename D:\#New wavs + flac\VA - Let's Disco The Best Of Disco Hits\cd 1\05. The Miracles - Love Machine.wav

Pre-gap length 0:00:00.64

Peak level 98.8 %
Extraction speed 7.0 X
Track quality 100.0 %
Test CRC C6B0AA44
Copy CRC C6B0AA44
Track not present in AccurateRip database
Copy OK

Track 6

Filename D:\#New wavs + flac\VA - Let's Disco The Best Of Disco Hits\cd 1\06. KC & the Sunshine Band - That's The Way.wav

Pre-gap length 0:00:00.65

Peak level 88.1 %
Extraction speed 7.3 X
Track quality 100.0 %
Test CRC A5EE838A
Copy CRC A5EE838A
Track not present in AccurateRip database
Copy OK

Track 7

Filename D:\#New wavs + flac\VA - Let's Disco The Best Of Disco Hits\cd 1\07. Rhythm Heritage - Theme From S.W.A.T..wav

Pre-gap length 0:00:00.65

Peak level 98.8 %
Extraction speed 7.7 X
Track quality 100.0 %
Test CRC 35B23279
Copy CRC 35B23279
Track not present in AccurateRip database
Copy OK

Track 8

Filename D:\#New wavs + flac\VA - Let's Disco The Best Of Disco Hits\cd 1\08. Wild Cherry - Play That Funky Music.wav

Pre-gap length 0:00:00.64

Peak level 83.1 %
Extraction speed 7.9 X
Track quality 100.0 %
Test CRC 9AD0982C
Copy CRC 9AD0982C
Track not present in AccurateRip database
Copy OK

Track 9

Filename D:\#New wavs + flac\VA - Let's Disco The Best Of Disco Hits\cd 1\09. Walter Murphy - A Fifth Of Beethoven.wav

Pre-gap length 0:00:00.64

Peak level 98.8 %
Extraction speed 8.1 X
Track quality 100.0 %
Test CRC EBD597C9
Copy CRC EBD597C9
Track not present in AccurateRip database
Copy OK

Track 10

Filename D:\#New wavs + flac\VA - Let's Disco The Best Of Disco Hits\cd 1\10. Cantina Band,Meco - Star Wars Theme.wav

Pre-gap length 0:00:00.64

Peak level 98.8 %
Extraction speed 6.9 X
Track quality 99.9 %
Test CRC A2B80481
Copy CRC A2B80481
Track not present in AccurateRip database
Copy OK

Track 11

Filename D:\#New wavs + flac\VA - Let's Disco The Best Of Disco Hits\cd 1\11. Yvonne Elliman - If I Can't Have You.wav

Pre-gap length 0:00:00.64

Peak level 93.3 %
Extraction speed 8.6 X
Track quality 100.0 %
Test CRC C114C431
Copy CRC C114C431
Track not present in AccurateRip database
Copy OK

Track 12

Filename D:\#New wavs + flac\VA - Let's Disco The Best Of Disco Hits\cd 1\12. A Taste of Honey - Boogie Oogie Oogie.wav

Pre-gap length 0:00:00.65

Peak level 98.7 %
Extraction speed 7.5 X
Track quality 99.9 %
Test CRC ECAFF11C
Copy CRC ECAFF11C
Track not present in AccurateRip database
Copy OK

Track 13

Filename D:\#New wavs + flac\VA - Let's Disco The Best Of Disco Hits\cd 1\13. Donna Summer - MacArthur Park.wav

Pre-gap length 0:00:00.64

Peak level 91.2 %
Extraction speed 8.0 X
Track quality 99.9 %
Test CRC F50359DE
Copy CRC F50359DE
Track not present in AccurateRip database
Copy OK

Track 14

Filename D:\#New wavs + flac\VA - Let's Disco The Best Of Disco Hits\cd 1\14. Chic - Le Freak.wav

Pre-gap length 0:00:00.65

Peak level 84.5 %
Extraction speed 7.6 X
Track quality 99.9 %
Test CRC 9E3E5DC1
Copy CRC 9E3E5DC1
Track not present in AccurateRip database
Copy OK

Track 15

Filename D:\#New wavs + flac\VA - Let's Disco The Best Of Disco Hits\cd 1\15. Gloria Gaynor - I Will Survive.wav

Pre-gap length 0:00:00.65

Peak level 88.1 %
Extraction speed 10.0 X
Track quality 100.0 %
Test CRC 1CD3E992
Copy CRC 1CD3E992
Track not present in AccurateRip database
Copy OK

Track 16

Filename D:\#New wavs + flac\VA - Let's Disco The Best Of Disco Hits\cd 1\16. Donna Summer - Bad Girls.wav

Pre-gap length 0:00:00.65

Peak level 88.1 %
Extraction speed 10.2 X
Track quality 100.0 %
Test CRC 3B0D0AE4
Copy CRC 3B0D0AE4
Track not present in AccurateRip database
Copy OK

Track 17

Filename D:\#New wavs + flac\VA - Let's Disco The Best Of Disco Hits\cd 1\17. M - Pop MusiK.wav

Pre-gap length 0:00:00.65

Peak level 83.1 %
Extraction speed 10.8 X
Track quality 100.0 %
Test CRC 0D11E598
Copy CRC 0D11E598
Track not present in AccurateRip database
Copy OK

Track 18

Filename D:\#New wavs + flac\VA - Let's Disco The Best Of Disco Hits\cd 1\18. The Knack - My Sharona.wav

Pre-gap length 0:00:00.65

Peak level 98.8 %
Extraction speed 8.7 X
Track quality 99.9 %
Test CRC AEB7D199
Copy CRC AEB7D199
Track not present in AccurateRip database
Copy OK

Track 19

Filename D:\#New wavs + flac\VA - Let's Disco The Best Of Disco Hits\cd 1\19. Lipps Inc. - Funkytown.wav

Pre-gap length 0:00:00.64

Peak level 98.8 %
Extraction speed 9.1 X
Track quality 99.9 %
Test CRC 4CD17161
Copy CRC 4CD17161
Track not present in AccurateRip database
Copy OK

Track 20

Filename D:\#New wavs + flac\VA - Let's Disco The Best Of Disco Hits\cd 1\20. Blondie - Call Me.wav

Pre-gap length 0:00:00.64

Peak level 92.1 %
Extraction speed 10.9 X
Track quality 100.0 %
Test CRC 83F5DDBB
Copy CRC 83F5DDBB
Track not present in AccurateRip database
Copy OK


None of the tracks are present in the AccurateRip database

No errors occurred

End of status report

–– CUETools DB Plugin V2.1.6

[CTDB TOCID: eVRONS4hKkKz_qv0b272Bv0FpI8-] found
Submit result: already submitted
Track | CTDB Status
1 | (5/5) Accurately ripped
2 | (5/5) Accurately ripped
3 | (5/5) Accurately ripped
4 | (5/5) Accurately ripped
5 | (5/5) Accurately ripped
6 | (5/5) Accurately ripped
7 | (5/5) Accurately ripped
8 | (5/5) Accurately ripped
9 | (5/5) Accurately ripped
10 | (5/5) Accurately ripped
11 | (5/5) Accurately ripped
12 | (5/5) Accurately ripped
13 | (5/5) Accurately ripped
14 | (5/5) Accurately ripped
15 | (5/5) Accurately ripped
16 | (5/5) Accurately ripped
17 | (5/5) Accurately ripped
18 | (5/5) Accurately ripped
19 | (5/5) Accurately ripped
20 | (4/5) Accurately ripped


==== Log checksum F96957B6FE373A7D6706F3F554F0BE42B93F47921E0AAE20B4CD9C6BDD7143A3 ====

––––––––––––––––––––––––––––––

Exact Audio Copy V1.3 from 2. September 2016

EAC extraction logfile from 30. November 2018, 23:36

Various Artists / Let's Disco ~The Best Of Disco Hits~ (Disc 1)

Used drive : PLEXTOR PX-891SAF Adapter: 1 ID: 0

Read mode : Secure
Utilize accurate stream : Yes
Defeat audio cache : Yes
Make use of C2 pointers : No

Read offset correction : 6
Overread into Lead-In and Lead-Out : No
Fill up missing offset samples with silence : Yes
Delete leading and trailing silent blocks : No
Null samples used in CRC calculations : Yes
Used interface : Native Win32 interface for Win NT & 2000
Gap handling : Appended to previous track

Used output format : User Defined Encoder
Selected bitrate : 1024 kBit/s
Quality : High
Add ID3 tag : No
Command line compressor : C:\Program Files (x86)\Exact Audio Copy\Flac\flac.exe
Additional command line options : -8 -V -T "ARTIST=%artist%" -T "TITLE=%title%" -T "ALBUM=%albumtitle%" -T "DATE=%year%" -T "TRACKNUMBER=%tracknr%" -T "GENRE=%genre%" -T "PERFORMER=%albuminterpret%" -T "COMPOSER=%composer%" %haslyrics%–tag-from-file=LYRICS="%lyricsfile%"%haslyrics% -T "ALBUMARTIST=%albumartist%" -T "DISCNUMBER=%cdnumber%" -T "TOTALDISCS=%totalcds%" -T "TOTALTRACKS=%numtracks%" -T "COMMENT=%comment%" %source% -o %dest%


TOC of the extracted CD

Track | Start | Length | Start sector | End sector
––––––––––––––––––––––––––––-
1 | 0:00.00 | 3:38.17 | 0 | 16366
2 | 3:38.17 | 3:07.24 | 16367 | 30415
3 | 6:45.41 | 3:18.52 | 30416 | 45317
4 | 10:04.18 | 4:47.57 | 45318 | 66899
5 | 14:52.00 | 2:58.51 | 66900 | 80300
6 | 17:50.51 | 3:04.53 | 80301 | 94153
7 | 20:55.29 | 3:21.50 | 94154 | 109278
8 | 24:17.04 | 3:10.73 | 109279 | 123601
9 | 27:28.02 | 3:02.61 | 123602 | 137312
10 | 30:30.63 | 3:29.62 | 137313 | 153049
11 | 34:00.50 | 2:58.06 | 153050 | 166405
12 | 36:58.56 | 3:44.06 | 166406 | 183211
13 | 40:42.62 | 3:56.27 | 183212 | 200938
14 | 44:39.14 | 3:33.10 | 200939 | 216923
15 | 48:12.24 | 3:47.39 | 216924 | 233987
16 | 51:59.63 | 3:54.64 | 233988 | 251601
17 | 55:54.52 | 4:54.05 | 251602 | 273656
18 | 60:48.57 | 4:00.03 | 273657 | 291659
19 | 64:48.60 | 4:04.03 | 291660 | 309962
20 | 68:52.63 | 3:29.52 | 309963 | 325689


Track 1

Filename D:\#New wavs + flac\VA - Let's Disco The Best Of Disco Hits\cd 1\01. The Love Unlimited Orchestra - Love's Theme.wav

Pre-gap length 0:00:02.00

Peak level 77.9 %
Extraction speed 5.6 X
Track quality 100.0 %
Test CRC AC490619
Copy CRC AC490619
Track not present in AccurateRip database
Copy OK

Track 2

Filename D:\#New wavs + flac\VA - Let's Disco The Best Of Disco Hits\cd 1\02. The Hues Corporation - Rock The Boat.wav

Pre-gap length 0:00:00.64

Peak level 78.5 %
Extraction speed 5.9 X
Track quality 100.0 %
Test CRC 9D37D2F6
Copy CRC 9D37D2F6
Track not present in AccurateRip database
Copy OK

Track 3

Filename D:\#New wavs + flac\VA - Let's Disco The Best Of Disco Hits\cd 1\03. George McCrae - Rock Your Baby.wav

Pre-gap length 0:00:00.64

Peak level 98.8 %
Extraction speed 6.3 X
Track quality 100.0 %
Test CRC 98526D93
Copy CRC 98526D93
Track not present in AccurateRip database
Copy OK

Track 4

Filename D:\#New wavs + flac\VA - Let's Disco The Best Of Disco Hits\cd 1\04. Silver Convention - Fly, Robin, Fly.wav

Pre-gap length 0:00:00.64

Peak level 78.5 %
Extraction speed 7.1 X
Track quality 100.0 %
Test CRC F4E0B9FA
Copy CRC F4E0B9FA
Track not present in AccurateRip database
Copy OK

Track 5

Filename D:\#New wavs + flac\VA - Let's Disco The Best Of Disco Hits\cd 1\05. The Miracles - Love Machine.wav

Pre-gap length 0:00:00.64

Peak level 98.8 %
Extraction speed 7.0 X
Track quality 100.0 %
Test CRC C6B0AA44
Copy CRC C6B0AA44
Track not present in AccurateRip database
Copy OK

Track 6

Filename D:\#New wavs + flac\VA - Let's Disco The Best Of Disco Hits\cd 1\06. KC & the Sunshine Band - That's The Way.wav

Pre-gap length 0:00:00.65

Peak level 88.1 %
Extraction speed 7.3 X
Track quality 100.0 %
Test CRC A5EE838A
Copy CRC A5EE838A
Track not present in AccurateRip database
Copy OK

Track 7

Filename D:\#New wavs + flac\VA - Let's Disco The Best Of Disco Hits\cd 1\07. Rhythm Heritage - Theme From S.W.A.T..wav

Pre-gap length 0:00:00.65

Peak level 98.8 %
Extraction speed 7.7 X
Track quality 100.0 %
Test CRC 35B23279
Copy CRC 35B23279
Track not present in AccurateRip database
Copy OK

Track 8

Filename D:\#New wavs + flac\VA - Let's Disco The Best Of Disco Hits\cd 1\08. Wild Cherry - Play That Funky Music.wav

Pre-gap length 0:00:00.64

Peak level 83.1 %
Extraction speed 7.9 X
Track quality 100.0 %
Test CRC 9AD0982C
Copy CRC 9AD0982C
Track not present in AccurateRip database
Copy OK

Track 9

Filename D:\#New wavs + flac\VA - Let's Disco The Best Of Disco Hits\cd 1\09. Walter Murphy - A Fifth Of Beethoven.wav

Pre-gap length 0:00:00.64

Peak level 98.8 %
Extraction speed 8.1 X
Track quality 100.0 %
Test CRC EBD597C9
Copy CRC EBD597C9
Track not present in AccurateRip database
Copy OK

Track 10

Filename D:\#New wavs + flac\VA - Let's Disco The Best Of Disco Hits\cd 1\10. Cantina Band,Meco - Star Wars Theme.wav

Pre-gap length 0:00:00.64

Peak level 98.8 %
Extraction speed 6.9 X
Track quality 99.9 %
Test CRC A2B80481
Copy CRC A2B80481
Track not present in AccurateRip database
Copy OK

Track 11

Filename D:\#New wavs + flac\VA - Let's Disco The Best Of Disco Hits\cd 1\11. Yvonne Elliman - If I Can't Have You.wav

Pre-gap length 0:00:00.64

Peak level 93.3 %
Extraction speed 8.6 X
Track quality 100.0 %
Test CRC C114C431
Copy CRC C114C431
Track not present in AccurateRip database
Copy OK

Track 12

Filename D:\#New wavs + flac\VA - Let's Disco The Best Of Disco Hits\cd 1\12. A Taste of Honey - Boogie Oogie Oogie.wav

Pre-gap length 0:00:00.65

Peak level 98.7 %
Extraction speed 7.5 X
Track quality 99.9 %
Test CRC ECAFF11C
Copy CRC ECAFF11C
Track not present in AccurateRip database
Copy OK

Track 13

Filename D:\#New wavs + flac\VA - Let's Disco The Best Of Disco Hits\cd 1\13. Donna Summer - MacArthur Park.wav

Pre-gap length 0:00:00.64

Peak level 91.2 %
Extraction speed 8.0 X
Track quality 99.9 %
Test CRC F50359DE
Copy CRC F50359DE
Track not present in AccurateRip database
Copy OK

Track 14

Filename D:\#New wavs + flac\VA - Let's Disco The Best Of Disco Hits\cd 1\14. Chic - Le Freak.wav

Pre-gap length 0:00:00.65

Peak level 84.5 %
Extraction speed 7.6 X
Track quality 99.9 %
Test CRC 9E3E5DC1
Copy CRC 9E3E5DC1
Track not present in AccurateRip database
Copy OK

Track 15

Filename D:\#New wavs + flac\VA - Let's Disco The Best Of Disco Hits\cd 1\15. Gloria Gaynor - I Will Survive.wav

Pre-gap length 0:00:00.65

Peak level 88.1 %
Extraction speed 10.0 X
Track quality 100.0 %
Test CRC 1CD3E992
Copy CRC 1CD3E992
Track not present in AccurateRip database
Copy OK

Track 16

Filename D:\#New wavs + flac\VA - Let's Disco The Best Of Disco Hits\cd 1\16. Donna Summer - Bad Girls.wav

Pre-gap length 0:00:00.65

Peak level 88.1 %
Extraction speed 10.2 X
Track quality 100.0 %
Test CRC 3B0D0AE4
Copy CRC 3B0D0AE4
Track not present in AccurateRip database
Copy OK

Track 17

Filename D:\#New wavs + flac\VA - Let's Disco The Best Of Disco Hits\cd 1\17. M - Pop MusiK.wav

Pre-gap length 0:00:00.65

Peak level 83.1 %
Extraction speed 10.8 X
Track quality 100.0 %
Test CRC 0D11E598
Copy CRC 0D11E598
Track not present in AccurateRip database
Copy OK

Track 18

Filename D:\#New wavs + flac\VA - Let's Disco The Best Of Disco Hits\cd 1\18. The Knack - My Sharona.wav

Pre-gap length 0:00:00.65

Peak level 98.8 %
Extraction speed 8.7 X
Track quality 99.9 %
Test CRC AEB7D199
Copy CRC AEB7D199
Track not present in AccurateRip database
Copy OK

Track 19

Filename D:\#New wavs + flac\VA - Let's Disco The Best Of Disco Hits\cd 1\19. Lipps Inc. - Funkytown.wav

Pre-gap length 0:00:00.64

Peak level 98.8 %
Extraction speed 9.1 X
Track quality 99.9 %
Test CRC 4CD17161
Copy CRC 4CD17161
Track not present in AccurateRip database
Copy OK

Track 20

Filename D:\#New wavs + flac\VA - Let's Disco The Best Of Disco Hits\cd 1\20. Blondie - Call Me.wav

Pre-gap length 0:00:00.64

Peak level 92.1 %
Extraction speed 10.9 X
Track quality 100.0 %
Test CRC 83F5DDBB
Copy CRC 83F5DDBB
Track not present in AccurateRip database
Copy OK


None of the tracks are present in the AccurateRip database

No errors occurred

End of status report

–– CUETools DB Plugin V2.1.6

[CTDB TOCID: eVRONS4hKkKz_qv0b272Bv0FpI8-] found
Submit result: already submitted
Track | CTDB Status
1 | (5/5) Accurately ripped
2 | (5/5) Accurately ripped
3 | (5/5) Accurately ripped
4 | (5/5) Accurately ripped
5 | (5/5) Accurately ripped
6 | (5/5) Accurately ripped
7 | (5/5) Accurately ripped
8 | (5/5) Accurately ripped
9 | (5/5) Accurately ripped
10 | (5/5) Accurately ripped
11 | (5/5) Accurately ripped
12 | (5/5) Accurately ripped
13 | (5/5) Accurately ripped
14 | (5/5) Accurately ripped
15 | (5/5) Accurately ripped
16 | (5/5) Accurately ripped
17 | (5/5) Accurately ripped
18 | (5/5) Accurately ripped
19 | (5/5) Accurately ripped
20 | (4/5) Accurately ripped


==== Log checksum F96957B6FE373A7D6706F3F554F0BE42B93F47921E0AAE20B4CD9C6BDD7143A3 ====

Exact Audio Copy V1.3 from 2. September 2016

EAC extraction logfile from 1. December 2018, 9:42

Various Artists / Let's Disco ~The Best Of Disco Hits~ (Disc 2)

Used drive : PLEXTOR PX-891SAF Adapter: 1 ID: 0

Read mode : Secure
Utilize accurate stream : Yes
Defeat audio cache : Yes
Make use of C2 pointers : No

Read offset correction : 6
Overread into Lead-In and Lead-Out : No
Fill up missing offset samples with silence : Yes
Delete leading and trailing silent blocks : No
Null samples used in CRC calculations : Yes
Used interface : Native Win32 interface for Win NT & 2000
Gap handling : Appended to previous track

Used output format : User Defined Encoder
Selected bitrate : 1024 kBit/s
Quality : High
Add ID3 tag : No
Command line compressor : C:\Program Files (x86)\Exact Audio Copy\Flac\flac.exe
Additional command line options : -8 -V -T "ARTIST=%artist%" -T "TITLE=%title%" -T "ALBUM=%albumtitle%" -T "DATE=%year%" -T "TRACKNUMBER=%tracknr%" -T "GENRE=%genre%" -T "PERFORMER=%albuminterpret%" -T "COMPOSER=%composer%" %haslyrics%–tag-from-file=LYRICS="%lyricsfile%"%haslyrics% -T "ALBUMARTIST=%albumartist%" -T "DISCNUMBER=%cdnumber%" -T "TOTALDISCS=%totalcds%" -T "TOTALTRACKS=%numtracks%" -T "COMMENT=%comment%" %source% -o %dest%


TOC of the extracted CD

Track | Start | Length | Start sector | End sector
––––––––––––––––––––––––––––-
1 | 0:00.00 | 3:44.52 | 0 | 16851
2 | 3:44.52 | 3:17.01 | 16852 | 31627
3 | 7:01.53 | 3:58.66 | 31628 | 49543
4 | 11:00.44 | 3:27.17 | 49544 | 65085
5 | 14:27.61 | 3:14.43 | 65086 | 79678
6 | 17:42.29 | 3:27.02 | 79679 | 95205
7 | 21:09.31 | 3:44.68 | 95206 | 112073
8 | 24:54.24 | 3:40.55 | 112074 | 128628
9 | 28:35.04 | 4:37.05 | 128629 | 149408
10 | 33:12.09 | 4:03.41 | 149409 | 167674
11 | 37:15.50 | 3:35.51 | 167675 | 183850
12 | 40:51.26 | 3:50.07 | 183851 | 201107
13 | 44:41.33 | 3:42.55 | 201108 | 217812
14 | 48:24.13 | 3:13.18 | 217813 | 232305
15 | 51:37.31 | 3:34.15 | 232306 | 248370
16 | 55:11.46 | 4:56.53 | 248371 | 270623
17 | 60:08.24 | 4:10.69 | 270624 | 289442
18 | 64:19.18 | 6:29.34 | 289443 | 318651
19 | 70:48.52 | 3:37.67 | 318652 | 334993
20 | 74:26.44 | 3:24.42 | 334994 | 350335


Track 1

Filename D:\#New wavs + flac\VA - Let's Disco The Best Of Disco Hits\cd 2\01. M.F.S.B. Feat. The Three Degrees - T.S.O.P..wav

Pre-gap length 0:00:02.00

Peak level 78.5 %
Extraction speed 5.6 X
Track quality 100.0 %
Test CRC 242F7920
Copy CRC 242F7920
Track not present in AccurateRip database
Copy OK

Track 2

Filename D:\#New wavs + flac\VA - Let's Disco The Best Of Disco Hits\cd 2\02. Carl Douglas - Kung Fu Fighting.wav

Pre-gap length 0:00:00.64

Peak level 98.8 %
Extraction speed 5.9 X
Track quality 100.0 %
Test CRC AC2EF4F2
Copy CRC AC2EF4F2
Track not present in AccurateRip database
Copy OK

Track 3

Filename D:\#New wavs + flac\VA - Let's Disco The Best Of Disco Hits\cd 2\03. Average White Band - Pick Up The Pieces.wav

Pre-gap length 0:00:00.64

Peak level 90.7 %
Extraction speed 6.5 X
Track quality 100.0 %
Test CRC EFB1AE44
Copy CRC EFB1AE44
Track not present in AccurateRip database
Copy OK

Track 4

Filename D:\#New wavs + flac\VA - Let's Disco The Best Of Disco Hits\cd 2\04. Van McCoy - The Hustle.wav

Pre-gap length 0:00:00.64

Peak level 77.4 %
Extraction speed 6.9 X
Track quality 100.0 %
Test CRC 8B77A476
Copy CRC 8B77A476
Track not present in AccurateRip database
Copy OK

Track 5

Filename D:\#New wavs + flac\VA - Let's Disco The Best Of Disco Hits\cd 2\05. Tavares - It Only Takes A Minute.wav

Pre-gap length 0:00:00.64

Peak level 98.8 %
Extraction speed 6.9 X
Track quality 100.0 %
Test CRC 3BBEC22D
Copy CRC 3BBEC22D
Track not present in AccurateRip database
Copy OK

Track 6

Filename D:\#New wavs + flac\VA - Let's Disco The Best Of Disco Hits\cd 2\06. The Sylvers - Boogie Fever.wav

Pre-gap length 0:00:00.64

Peak level 93.3 %
Extraction speed 7.4 X
Track quality 100.0 %
Test CRC BDF2FE36
Copy CRC BDF2FE36
Track not present in AccurateRip database
Copy OK

Track 7

Filename D:\#New wavs + flac\VA - Let's Disco The Best Of Disco Hits\cd 2\07. Diana Ross - Love Hangover.wav

Pre-gap length 0:00:00.64

Peak level 98.8 %
Extraction speed 7.8 X
Track quality 100.0 %
Test CRC 346AAAEE
Copy CRC 346AAAEE
Track not present in AccurateRip database
Copy OK

Track 8

Filename D:\#New wavs + flac\VA - Let's Disco The Best Of Disco Hits\cd 2\08. The Emotions - Best Of My Love.wav

Pre-gap length 0:00:00.64

Peak level 88.0 %
Extraction speed 6.5 X
Track quality 99.9 %
Test CRC 0F111FB5
Copy CRC 0F111FB5
Track not present in AccurateRip database
Copy OK

Track 9

Filename D:\#New wavs + flac\VA - Let's Disco The Best Of Disco Hits\cd 2\09. Marilyn McCoo & Billy Davis Jr. - You Don't Have To Be A Star.wav

Pre-gap length 0:00:00.64

Peak level 93.3 %
Extraction speed 8.7 X
Track quality 100.0 %
Test CRC FABDCECF
Copy CRC FABDCECF
Track not present in AccurateRip database
Copy OK

Track 10

Filename D:\#New wavs + flac\VA - Let's Disco The Best Of Disco Hits\cd 2\10. Chaka Khan - I'm Every Woman.wav

Pre-gap length 0:00:00.64

Peak level 98.8 %
Extraction speed 8.8 X
Track quality 100.0 %
Test CRC 36B9CCB1
Copy CRC 36B9CCB1
Track not present in AccurateRip database
Copy OK

Track 11

Filename D:\#New wavs + flac\VA - Let's Disco The Best Of Disco Hits\cd 2\11. Earth, Wind & Fire - September.wav

Pre-gap length 0:00:00.64

Peak level 78.4 %
Extraction speed 8.9 X
Track quality 100.0 %
Test CRC 05FD9AD9
Copy CRC 05FD9AD9
Track not present in AccurateRip database
Copy OK

Track 12

Filename D:\#New wavs + flac\VA - Let's Disco The Best Of Disco Hits\cd 2\12. Donna Summer - Hot Stuff.wav

Pre-gap length 0:00:00.64

Peak level 98.8 %
Extraction speed 7.6 X
Track quality 99.9 %
Test CRC 26A71A4B
Copy CRC 26A71A4B
Track not present in AccurateRip database
Copy OK

Track 13

Filename D:\#New wavs + flac\VA - Let's Disco The Best Of Disco Hits\cd 2\13. Chic - Good Times.wav

Pre-gap length 0:00:00.64

Peak level 98.8 %
Extraction speed 7.8 X
Track quality 99.9 %
Test CRC 3A73C852
Copy CRC 3A73C852
Track not present in AccurateRip database
Copy OK

Track 14

Filename D:\#New wavs + flac\VA - Let's Disco The Best Of Disco Hits\cd 2\14. S.O.S. Band - Take Your Time (Do It Right).wav

Pre-gap length 0:00:00.65

Peak level 86.6 %
Extraction speed 9.4 X
Track quality 100.0 %
Test CRC 6D070751
Copy CRC 6D070751
Track not present in AccurateRip database
Copy OK

Track 15

Filename D:\#New wavs + flac\VA - Let's Disco The Best Of Disco Hits\cd 2\15. Jermaine Jackson - Let's Get Serious.wav

Pre-gap length 0:00:00.64

Peak level 93.3 %
Extraction speed 9.8 X
Track quality 100.0 %
Test CRC ED37AF21
Copy CRC ED37AF21
Track not present in AccurateRip database
Copy OK

Track 16

Filename D:\#New wavs + flac\VA - Let's Disco The Best Of Disco Hits\cd 2\16. Kool & the Gang - Celebration.wav

Pre-gap length 0:00:00.65

Peak level 98.8 %
Extraction speed 10.4 X
Track quality 100.0 %
Test CRC 1B921CC1
Copy CRC 1B921CC1
Track not present in AccurateRip database
Copy OK

Track 17

Filename D:\#New wavs + flac\VA - Let's Disco The Best Of Disco Hits\cd 2\17. The Gap Band - Burn Rubber On Me (Why You Wanna Hurt Me).wav

Pre-gap length 0:00:00.65

Peak level 95.4 %
Extraction speed 10.5 X
Track quality 100.0 %
Test CRC 947AEC6D
Copy CRC 947AEC6D
Track not present in AccurateRip database
Copy OK

Track 18

Filename D:\#New wavs + flac\VA - Let's Disco The Best Of Disco Hits\cd 2\18. Blondie - Rapture.wav

Pre-gap length 0:00:00.64

Peak level 75.5 %
Extraction speed 10.0 X
Track quality 99.9 %
Test CRC ED60F059
Copy CRC ED60F059
Track not present in AccurateRip database
Copy OK

Track 19

Filename D:\#New wavs + flac\VA - Let's Disco The Best Of Disco Hits\cd 2\19. Diana Ross - Upside Down.wav

Pre-gap length 0:00:00.65

Peak level 94.0 %
Extraction speed 10.9 X
Track quality 100.0 %
Test CRC 6F4C0978
Copy CRC 6F4C0978
Track not present in AccurateRip database
Copy OK

Track 20

Filename D:\#New wavs + flac\VA - Let's Disco The Best Of Disco Hits\cd 2\20. Rick James - Super Freak.wav

Pre-gap length 0:00:00.64

Peak level 98.8 %
Extraction speed 7.4 X
Track quality 99.8 %
Test CRC 1E229779
Copy CRC 1E229779
Track not present in AccurateRip database
Copy OK


None of the tracks are present in the AccurateRip database

No errors occurred

End of status report

–– CUETools DB Plugin V2.1.6

[CTDB TOCID: LRHbJ0xr9KPWzPXBTZSCodwkKlI-] found
Submit result: LRHbJ0xr9KPWzPXBTZSCodwkKlI- has been confirmed
Track | CTDB Status
1 | (5/5) Accurately ripped
2 | (5/5) Accurately ripped
3 | (5/5) Accurately ripped
4 | (5/5) Accurately ripped
5 | (5/5) Accurately ripped
6 | (5/5) Accurately ripped
7 | (5/5) Accurately ripped
8 | (5/5) Accurately ripped
9 | (5/5) Accurately ripped
10 | (5/5) Accurately ripped
11 | (5/5) Accurately ripped
12 | (5/5) Accurately ripped
13 | (5/5) Accurately ripped
14 | (5/5) Accurately ripped
15 | (5/5) Accurately ripped
16 | (5/5) Accurately ripped
17 | (5/5) Accurately ripped
18 | (5/5) Accurately ripped
19 | (5/5) Accurately ripped
20 | (5/5) Accurately ripped


==== Log checksum 1778C3F12448CDBC127308A354E97A7C6E854F89A517C5AC313642408AD51EF0 ====

––––––––––––––––––––––––––––––

Exact Audio Copy V1.3 from 2. September 2016

EAC extraction logfile from 1. December 2018, 9:42

Various Artists / Let's Disco ~The Best Of Disco Hits~ (Disc 2)

Used drive : PLEXTOR PX-891SAF Adapter: 1 ID: 0

Read mode : Secure
Utilize accurate stream : Yes
Defeat audio cache : Yes
Make use of C2 pointers : No

Read offset correction : 6
Overread into Lead-In and Lead-Out : No
Fill up missing offset samples with silence : Yes
Delete leading and trailing silent blocks : No
Null samples used in CRC calculations : Yes
Used interface : Native Win32 interface for Win NT & 2000
Gap handling : Appended to previous track

Used output format : User Defined Encoder
Selected bitrate : 1024 kBit/s
Quality : High
Add ID3 tag : No
Command line compressor : C:\Program Files (x86)\Exact Audio Copy\Flac\flac.exe
Additional command line options : -8 -V -T "ARTIST=%artist%" -T "TITLE=%title%" -T "ALBUM=%albumtitle%" -T "DATE=%year%" -T "TRACKNUMBER=%tracknr%" -T "GENRE=%genre%" -T "PERFORMER=%albuminterpret%" -T "COMPOSER=%composer%" %haslyrics%–tag-from-file=LYRICS="%lyricsfile%"%haslyrics% -T "ALBUMARTIST=%albumartist%" -T "DISCNUMBER=%cdnumber%" -T "TOTALDISCS=%totalcds%" -T "TOTALTRACKS=%numtracks%" -T "COMMENT=%comment%" %source% -o %dest%


TOC of the extracted CD

Track | Start | Length | Start sector | End sector
––––––––––––––––––––––––––––-
1 | 0:00.00 | 3:44.52 | 0 | 16851
2 | 3:44.52 | 3:17.01 | 16852 | 31627
3 | 7:01.53 | 3:58.66 | 31628 | 49543
4 | 11:00.44 | 3:27.17 | 49544 | 65085
5 | 14:27.61 | 3:14.43 | 65086 | 79678
6 | 17:42.29 | 3:27.02 | 79679 | 95205
7 | 21:09.31 | 3:44.68 | 95206 | 112073
8 | 24:54.24 | 3:40.55 | 112074 | 128628
9 | 28:35.04 | 4:37.05 | 128629 | 149408
10 | 33:12.09 | 4:03.41 | 149409 | 167674
11 | 37:15.50 | 3:35.51 | 167675 | 183850
12 | 40:51.26 | 3:50.07 | 183851 | 201107
13 | 44:41.33 | 3:42.55 | 201108 | 217812
14 | 48:24.13 | 3:13.18 | 217813 | 232305
15 | 51:37.31 | 3:34.15 | 232306 | 248370
16 | 55:11.46 | 4:56.53 | 248371 | 270623
17 | 60:08.24 | 4:10.69 | 270624 | 289442
18 | 64:19.18 | 6:29.34 | 289443 | 318651
19 | 70:48.52 | 3:37.67 | 318652 | 334993
20 | 74:26.44 | 3:24.42 | 334994 | 350335


Track 1

Filename D:\#New wavs + flac\VA - Let's Disco The Best Of Disco Hits\cd 2\01. M.F.S.B. Feat. The Three Degrees - T.S.O.P..wav

Pre-gap length 0:00:02.00

Peak level 78.5 %
Extraction speed 5.6 X
Track quality 100.0 %
Test CRC 242F7920
Copy CRC 242F7920
Track not present in AccurateRip database
Copy OK

Track 2

Filename D:\#New wavs + flac\VA - Let's Disco The Best Of Disco Hits\cd 2\02. Carl Douglas - Kung Fu Fighting.wav

Pre-gap length 0:00:00.64

Peak level 98.8 %
Extraction speed 5.9 X
Track quality 100.0 %
Test CRC AC2EF4F2
Copy CRC AC2EF4F2
Track not present in AccurateRip database
Copy OK

Track 3

Filename D:\#New wavs + flac\VA - Let's Disco The Best Of Disco Hits\cd 2\03. Average White Band - Pick Up The Pieces.wav

Pre-gap length 0:00:00.64

Peak level 90.7 %
Extraction speed 6.5 X
Track quality 100.0 %
Test CRC EFB1AE44
Copy CRC EFB1AE44
Track not present in AccurateRip database
Copy OK

Track 4

Filename D:\#New wavs + flac\VA - Let's Disco The Best Of Disco Hits\cd 2\04. Van McCoy - The Hustle.wav

Pre-gap length 0:00:00.64

Peak level 77.4 %
Extraction speed 6.9 X
Track quality 100.0 %
Test CRC 8B77A476
Copy CRC 8B77A476
Track not present in AccurateRip database
Copy OK

Track 5

Filename D:\#New wavs + flac\VA - Let's Disco The Best Of Disco Hits\cd 2\05. Tavares - It Only Takes A Minute.wav

Pre-gap length 0:00:00.64

Peak level 98.8 %
Extraction speed 6.9 X
Track quality 100.0 %
Test CRC 3BBEC22D
Copy CRC 3BBEC22D
Track not present in AccurateRip database
Copy OK

Track 6

Filename D:\#New wavs + flac\VA - Let's Disco The Best Of Disco Hits\cd 2\06. The Sylvers - Boogie Fever.wav

Pre-gap length 0:00:00.64

Peak level 93.3 %
Extraction speed 7.4 X
Track quality 100.0 %
Test CRC BDF2FE36
Copy CRC BDF2FE36
Track not present in AccurateRip database
Copy OK

Track 7

Filename D:\#New wavs + flac\VA - Let's Disco The Best Of Disco Hits\cd 2\07. Diana Ross - Love Hangover.wav

Pre-gap length 0:00:00.64

Peak level 98.8 %
Extraction speed 7.8 X
Track quality 100.0 %
Test CRC 346AAAEE
Copy CRC 346AAAEE
Track not present in AccurateRip database
Copy OK

Track 8

Filename D:\#New wavs + flac\VA - Let's Disco The Best Of Disco Hits\cd 2\08. The Emotions - Best Of My Love.wav

Pre-gap length 0:00:00.64

Peak level 88.0 %
Extraction speed 6.5 X
Track quality 99.9 %
Test CRC 0F111FB5
Copy CRC 0F111FB5
Track not present in AccurateRip database
Copy OK

Track 9

Filename D:\#New wavs + flac\VA - Let's Disco The Best Of Disco Hits\cd 2\09. Marilyn McCoo & Billy Davis Jr. - You Don't Have To Be A Star.wav

Pre-gap length 0:00:00.64

Peak level 93.3 %
Extraction speed 8.7 X
Track quality 100.0 %
Test CRC FABDCECF
Copy CRC FABDCECF
Track not present in AccurateRip database
Copy OK

Track 10

Filename D:\#New wavs + flac\VA - Let's Disco The Best Of Disco Hits\cd 2\10. Chaka Khan - I'm Every Woman.wav

Pre-gap length 0:00:00.64

Peak level 98.8 %
Extraction speed 8.8 X
Track quality 100.0 %
Test CRC 36B9CCB1
Copy CRC 36B9CCB1
Track not present in AccurateRip database
Copy OK

Track 11

Filename D:\#New wavs + flac\VA - Let's Disco The Best Of Disco Hits\cd 2\11. Earth, Wind & Fire - September.wav

Pre-gap length 0:00:00.64

Peak level 78.4 %
Extraction speed 8.9 X
Track quality 100.0 %
Test CRC 05FD9AD9
Copy CRC 05FD9AD9
Track not present in AccurateRip database
Copy OK

Track 12

Filename D:\#New wavs + flac\VA - Let's Disco The Best Of Disco Hits\cd 2\12. Donna Summer - Hot Stuff.wav

Pre-gap length 0:00:00.64

Peak level 98.8 %
Extraction speed 7.6 X
Track quality 99.9 %
Test CRC 26A71A4B
Copy CRC 26A71A4B
Track not present in AccurateRip database
Copy OK

Track 13

Filename D:\#New wavs + flac\VA - Let's Disco The Best Of Disco Hits\cd 2\13. Chic - Good Times.wav

Pre-gap length 0:00:00.64

Peak level 98.8 %
Extraction speed 7.8 X
Track quality 99.9 %
Test CRC 3A73C852
Copy CRC 3A73C852
Track not present in AccurateRip database
Copy OK

Track 14

Filename D:\#New wavs + flac\VA - Let's Disco The Best Of Disco Hits\cd 2\14. S.O.S. Band - Take Your Time (Do It Right).wav

Pre-gap length 0:00:00.65

Peak level 86.6 %
Extraction speed 9.4 X
Track quality 100.0 %
Test CRC 6D070751
Copy CRC 6D070751
Track not present in AccurateRip database
Copy OK

Track 15

Filename D:\#New wavs + flac\VA - Let's Disco The Best Of Disco Hits\cd 2\15. Jermaine Jackson - Let's Get Serious.wav

Pre-gap length 0:00:00.64

Peak level 93.3 %
Extraction speed 9.8 X
Track quality 100.0 %
Test CRC ED37AF21
Copy CRC ED37AF21
Track not present in AccurateRip database
Copy OK

Track 16

Filename D:\#New wavs + flac\VA - Let's Disco The Best Of Disco Hits\cd 2\16. Kool & the Gang - Celebration.wav

Pre-gap length 0:00:00.65

Peak level 98.8 %
Extraction speed 10.4 X
Track quality 100.0 %
Test CRC 1B921CC1
Copy CRC 1B921CC1
Track not present in AccurateRip database
Copy OK

Track 17

Filename D:\#New wavs + flac\VA - Let's Disco The Best Of Disco Hits\cd 2\17. The Gap Band - Burn Rubber On Me (Why You Wanna Hurt Me).wav

Pre-gap length 0:00:00.65

Peak level 95.4 %
Extraction speed 10.5 X
Track quality 100.0 %
Test CRC 947AEC6D
Copy CRC 947AEC6D
Track not present in AccurateRip database
Copy OK

Track 18

Filename D:\#New wavs + flac\VA - Let's Disco The Best Of Disco Hits\cd 2\18. Blondie - Rapture.wav

Pre-gap length 0:00:00.64

Peak level 75.5 %
Extraction speed 10.0 X
Track quality 99.9 %
Test CRC ED60F059
Copy CRC ED60F059
Track not present in AccurateRip database
Copy OK

Track 19

Filename D:\#New wavs + flac\VA - Let's Disco The Best Of Disco Hits\cd 2\19. Diana Ross - Upside Down.wav

Pre-gap length 0:00:00.65

Peak level 94.0 %
Extraction speed 10.9 X
Track quality 100.0 %
Test CRC 6F4C0978
Copy CRC 6F4C0978
Track not present in AccurateRip database
Copy OK

Track 20

Filename D:\#New wavs + flac\VA - Let's Disco The Best Of Disco Hits\cd 2\20. Rick James - Super Freak.wav

Pre-gap length 0:00:00.64

Peak level 98.8 %
Extraction speed 7.4 X
Track quality 99.8 %
Test CRC 1E229779
Copy CRC 1E229779
Track not present in AccurateRip database
Copy OK


None of the tracks are present in the AccurateRip database

No errors occurred

End of status report

–– CUETools DB Plugin V2.1.6

[CTDB TOCID: LRHbJ0xr9KPWzPXBTZSCodwkKlI-] found
Submit result: LRHbJ0xr9KPWzPXBTZSCodwkKlI- has been confirmed
Track | CTDB Status
1 | (5/5) Accurately ripped
2 | (5/5) Accurately ripped
3 | (5/5) Accurately ripped
4 | (5/5) Accurately ripped
5 | (5/5) Accurately ripped
6 | (5/5) Accurately ripped
7 | (5/5) Accurately ripped
8 | (5/5) Accurately ripped
9 | (5/5) Accurately ripped
10 | (5/5) Accurately ripped
11 | (5/5) Accurately ripped
12 | (5/5) Accurately ripped
13 | (5/5) Accurately ripped
14 | (5/5) Accurately ripped
15 | (5/5) Accurately ripped
16 | (5/5) Accurately ripped
17 | (5/5) Accurately ripped
18 | (5/5) Accurately ripped
19 | (5/5) Accurately ripped
20 | (5/5) Accurately ripped


==== Log checksum 1778C3F12448CDBC127308A354E97A7C6E854F89A517C5AC313642408AD51EF0 ====

Exact Audio Copy V1.3 from 2. September 2016

EAC extraction logfile from 1. December 2018, 10:05

Various Artists / Let's Disco ~The Best Of Disco Hits~ (Disc 3)

Used drive : PLEXTOR PX-891SAF Adapter: 1 ID: 0

Read mode : Secure
Utilize accurate stream : Yes
Defeat audio cache : Yes
Make use of C2 pointers : No

Read offset correction : 6
Overread into Lead-In and Lead-Out : No
Fill up missing offset samples with silence : Yes
Delete leading and trailing silent blocks : No
Null samples used in CRC calculations : Yes
Used interface : Native Win32 interface for Win NT & 2000
Gap handling : Appended to previous track

Used output format : User Defined Encoder
Selected bitrate : 1024 kBit/s
Quality : High
Add ID3 tag : No
Command line compressor : C:\Program Files (x86)\Exact Audio Copy\Flac\flac.exe
Additional command line options : -8 -V -T "ARTIST=%artist%" -T "TITLE=%title%" -T "ALBUM=%albumtitle%" -T "DATE=%year%" -T "TRACKNUMBER=%tracknr%" -T "GENRE=%genre%" -T "PERFORMER=%albuminterpret%" -T "COMPOSER=%composer%" %haslyrics%–tag-from-file=LYRICS="%lyricsfile%"%haslyrics% -T "ALBUMARTIST=%albumartist%" -T "DISCNUMBER=%cdnumber%" -T "TOTALDISCS=%totalcds%" -T "TOTALTRACKS=%numtracks%" -T "COMMENT=%comment%" %source% -o %dest%


TOC of the extracted CD

Track | Start | Length | Start sector | End sector
––––––––––––––––––––––––––––-
1 | 0:00.00 | 4:39.26 | 0 | 20950
2 | 4:39.26 | 2:52.63 | 20951 | 33913
3 | 7:32.14 | 3:50.46 | 33914 | 51209
4 | 11:22.60 | 3:05.56 | 51210 | 65140
5 | 14:28.41 | 5:06.27 | 65141 | 88117
6 | 19:34.68 | 3:11.34 | 88118 | 102476
7 | 22:46.27 | 4:55.54 | 102477 | 124655
8 | 27:42.06 | 3:15.37 | 124656 | 139317
9 | 30:57.43 | 4:45.66 | 139318 | 160758
10 | 35:43.34 | 3:32.45 | 160759 | 176703
11 | 39:16.04 | 5:55.34 | 176704 | 203362
12 | 45:11.38 | 3:45.41 | 203363 | 220278
13 | 48:57.04 | 3:14.71 | 220279 | 234899
14 | 52:12.00 | 4:25.05 | 234900 | 254779
15 | 56:37.05 | 3:32.61 | 254780 | 270740
16 | 60:09.66 | 3:27.08 | 270741 | 286273
17 | 63:36.74 | 3:03.72 | 286274 | 300070
18 | 66:40.71 | 2:52.52 | 300071 | 313022
19 | 69:33.48 | 4:26.48 | 313023 | 333020
20 | 74:00.21 | 3:35.73 | 333021 | 349218


Track 1

Filename D:\#New wavs + flac\VA - Let's Disco The Best Of Disco Hits\cd 3\01. Earth, Wind & Fire - Fantasy.wav

Pre-gap length 0:00:02.00

Peak level 83.1 %
Extraction speed 5.9 X
Track quality 100.0 %
Test CRC 3442355D
Copy CRC 3442355D
Track not present in AccurateRip database
Copy OK

Track 2

Filename D:\#New wavs + flac\VA - Let's Disco The Best Of Disco Hits\cd 3\02. Commodores - The Bump.wav

Pre-gap length 0:00:00.64

Peak level 88.3 %
Extraction speed 6.0 X
Track quality 100.0 %
Test CRC CB6D67E8
Copy CRC CB6D67E8
Track not present in AccurateRip database
Copy OK

Track 3

Filename D:\#New wavs + flac\VA - Let's Disco The Best Of Disco Hits\cd 3\03. ABBA - Dancing Queen.wav

Pre-gap length 0:00:00.65

Peak level 98.8 %
Extraction speed 6.6 X
Track quality 100.0 %
Test CRC 0DC980A1
Copy CRC 0DC980A1
Track not present in AccurateRip database
Copy OK

Track 4

Filename D:\#New wavs + flac\VA - Let's Disco The Best Of Disco Hits\cd 3\04. KC & the Sunshine Band - Shake Your Booty.wav

Pre-gap length 0:00:00.64

Peak level 98.8 %
Extraction speed 6.8 X
Track quality 100.0 %
Test CRC C206CB85
Copy CRC C206CB85
Track not present in AccurateRip database
Copy OK

Track 5

Filename D:\#New wavs + flac\VA - Let's Disco The Best Of Disco Hits\cd 3\05. Cheryl Lynn - Got To Be Real.wav

Pre-gap length 0:00:00.65

Peak level 98.8 %
Extraction speed 7.6 X
Track quality 100.0 %
Test CRC 08F2D647
Copy CRC 08F2D647
Track not present in AccurateRip database
Copy OK

Track 6

Filename D:\#New wavs + flac\VA - Let's Disco The Best Of Disco Hits\cd 3\06. Con Funk Shun - Too Tight.wav

Pre-gap length 0:00:00.65

Peak level 98.8 %
Extraction speed 7.5 X
Track quality 100.0 %
Test CRC 91699946
Copy CRC 91699946
Track not present in AccurateRip database
Copy OK

Track 7

Filename D:\#New wavs + flac\VA - Let's Disco The Best Of Disco Hits\cd 3\07. Average White Band - Let's Go Round Again.wav

Pre-gap length 0:00:00.65

Peak level 95.5 %
Extraction speed 8.3 X
Track quality 100.0 %
Test CRC 8EE922E2
Copy CRC 8EE922E2
Track not present in AccurateRip database
Copy OK

Track 8

Filename D:\#New wavs + flac\VA - Let's Disco The Best Of Disco Hits\cd 3\08. The Stylistics - Can't Give You Anything.wav

Pre-gap length 0:00:00.64

Peak level 93.3 %
Extraction speed 8.2 X
Track quality 100.0 %
Test CRC 670E6F11
Copy CRC 670E6F11
Track not present in AccurateRip database
Copy OK

Track 9

Filename D:\#New wavs + flac\VA - Let's Disco The Best Of Disco Hits\cd 3\09. Village People - Y.M.C.A.wav

Pre-gap length 0:00:00.65

Peak level 98.8 %
Extraction speed 7.6 X
Track quality 99.9 %
Test CRC 62C913DF
Copy CRC 62C913DF
Track not present in AccurateRip database
Copy OK

Track 10

Filename D:\#New wavs + flac\VA - Let's Disco The Best Of Disco Hits\cd 3\10. Shalamar - A Night To Remember.wav

Pre-gap length 0:00:00.64

Peak level 98.8 %
Extraction speed 9.0 X
Track quality 100.0 %
Test CRC 49925830
Copy CRC 49925830
Track not present in AccurateRip database
Copy OK

Track 11

Filename D:\#New wavs + flac\VA - Let's Disco The Best Of Disco Hits\cd 3\11. B.B. & Q. Band - On The Beat.wav

Pre-gap length 0:00:00.65

Peak level 98.8 %
Extraction speed 9.8 X
Track quality 100.0 %
Test CRC 48350586
Copy CRC 48350586
Track not present in AccurateRip database
Copy OK

Track 12

Filename D:\#New wavs + flac\VA - Let's Disco The Best Of Disco Hits\cd 3\12. The Boys Town Gang - Can't Take My Eyes Off You.wav

Pre-gap length 0:00:00.65

Peak level 94.2 %
Extraction speed 9.7 X
Track quality 100.0 %
Test CRC 28AEF0C7
Copy CRC 28AEF0C7
Track not present in AccurateRip database
Copy OK

Track 13

Filename D:\#New wavs + flac\VA - Let's Disco The Best Of Disco Hits\cd 3\13. Tavares - More Than A Woman.wav

Pre-gap length 0:00:00.64

Peak level 98.8 %
Extraction speed 9.7 X
Track quality 100.0 %
Test CRC A45900F7
Copy CRC A45900F7
Track not present in AccurateRip database
Copy OK

Track 14

Filename D:\#New wavs + flac\VA - Let's Disco The Best Of Disco Hits\cd 3\14. Kiss - I Was Made For Lovin' You.wav

Pre-gap length 0:00:00.64

Peak level 98.8 %
Extraction speed 10.4 X
Track quality 100.0 %
Test CRC D0965173
Copy CRC D0965173
Track not present in AccurateRip database
Copy OK

Track 15

Filename D:\#New wavs + flac\VA - Let's Disco The Best Of Disco Hits\cd 3\15. Village People - Go West.wav

Pre-gap length 0:00:00.65

Peak level 86.6 %
Extraction speed 8.3 X
Track quality 99.9 %
Test CRC 1BF277B2
Copy CRC 1BF277B2
Track not present in AccurateRip database
Copy OK

Track 16

Filename D:\#New wavs + flac\VA - Let's Disco The Best Of Disco Hits\cd 3\16. Arabesque - Hello Mr. Monkey.wav

Pre-gap length 0:00:00.65

Peak level 98.8 %
Extraction speed 10.4 X
Track quality 100.0 %
Test CRC 77ED1DB6
Copy CRC 77ED1DB6
Track not present in AccurateRip database
Copy OK

Track 17

Filename D:\#New wavs + flac\VA - Let's Disco The Best Of Disco Hits\cd 3\17. Genghis Khan - Dschingis Khan.wav

Pre-gap length 0:00:00.65

Peak level 87.9 %
Extraction speed 10.3 X
Track quality 100.0 %
Test CRC 83592428
Copy CRC 83592428
Track not present in AccurateRip database
Copy OK

Track 18

Filename D:\#New wavs + flac\VA - Let's Disco The Best Of Disco Hits\cd 3\18. Jigsaw - Sky High.wav

Pre-gap length 0:00:00.64

Peak level 75.6 %
Extraction speed 10.6 X
Track quality 100.0 %
Test CRC E816287C
Copy CRC E816287C
Track not present in AccurateRip database
Copy OK

Track 19

Filename D:\#New wavs + flac\VA - Let's Disco The Best Of Disco Hits\cd 3\19. Boney M. - Rasputin.wav

Pre-gap length 0:00:00.65

Peak level 70.0 %
Extraction speed 11.5 X
Track quality 100.0 %
Test CRC 2AD1BDC5
Copy CRC 2AD1BDC5
Track not present in AccurateRip database
Copy OK

Track 20

Filename D:\#New wavs + flac\VA - Let's Disco The Best Of Disco Hits\cd 3\20. Hall & Oates - Private Eyes.wav

Pre-gap length 0:00:00.65

Peak level 98.8 %
Extraction speed 11.3 X
Track quality 100.0 %
Test CRC 4F1FC8F5
Copy CRC 4F1FC8F5
Track not present in AccurateRip database
Copy OK


None of the tracks are present in the AccurateRip database

No errors occurred

End of status report

–– CUETools DB Plugin V2.1.6

[CTDB TOCID: HMIJN_btL_1OSjGUkzYD7Jy0eFE-] found
Submit result: HMIJN_btL_1OSjGUkzYD7Jy0eFE- has been confirmed
Track | CTDB Status
1 | (5/5) Accurately ripped
2 | (5/5) Accurately ripped
3 | (5/5) Accurately ripped
4 | (5/5) Accurately ripped
5 | (5/5) Accurately ripped
6 | (5/5) Accurately ripped
7 | (5/5) Accurately ripped
8 | (5/5) Accurately ripped
9 | (5/5) Accurately ripped
10 | (5/5) Accurately ripped
11 | (5/5) Accurately ripped
12 | (5/5) Accurately ripped
13 | (5/5) Accurately ripped
14 | (5/5) Accurately ripped
15 | (5/5) Accurately ripped
16 | (5/5) Accurately ripped
17 | (5/5) Accurately ripped
18 | (5/5) Accurately ripped
19 | (5/5) Accurately ripped
20 | (5/5) Accurately ripped


==== Log checksum C35C778D92DBB1117BE7D0E4CE3BAC8B4BB1640CD08A32E721E1217675D66E43 ====

––––––––––––––––––––––––––––––

Exact Audio Copy V1.3 from 2. September 2016

EAC extraction logfile from 1. December 2018, 10:05

Various Artists / Let's Disco ~The Best Of Disco Hits~ (Disc 3)

Used drive : PLEXTOR PX-891SAF Adapter: 1 ID: 0

Read mode : Secure
Utilize accurate stream : Yes
Defeat audio cache : Yes
Make use of C2 pointers : No

Read offset correction : 6
Overread into Lead-In and Lead-Out : No
Fill up missing offset samples with silence : Yes
Delete leading and trailing silent blocks : No
Null samples used in CRC calculations : Yes
Used interface : Native Win32 interface for Win NT & 2000
Gap handling : Appended to previous track

Used output format : User Defined Encoder
Selected bitrate : 1024 kBit/s
Quality : High
Add ID3 tag : No
Command line compressor : C:\Program Files (x86)\Exact Audio Copy\Flac\flac.exe
Additional command line options : -8 -V -T "ARTIST=%artist%" -T "TITLE=%title%" -T "ALBUM=%albumtitle%" -T "DATE=%year%" -T "TRACKNUMBER=%tracknr%" -T "GENRE=%genre%" -T "PERFORMER=%albuminterpret%" -T "COMPOSER=%composer%" %haslyrics%–tag-from-file=LYRICS="%lyricsfile%"%haslyrics% -T "ALBUMARTIST=%albumartist%" -T "DISCNUMBER=%cdnumber%" -T "TOTALDISCS=%totalcds%" -T "TOTALTRACKS=%numtracks%" -T "COMMENT=%comment%" %source% -o %dest%


TOC of the extracted CD

Track | Start | Length | Start sector | End sector
––––––––––––––––––––––––––––-
1 | 0:00.00 | 4:39.26 | 0 | 20950
2 | 4:39.26 | 2:52.63 | 20951 | 33913
3 | 7:32.14 | 3:50.46 | 33914 | 51209
4 | 11:22.60 | 3:05.56 | 51210 | 65140
5 | 14:28.41 | 5:06.27 | 65141 | 88117
6 | 19:34.68 | 3:11.34 | 88118 | 102476
7 | 22:46.27 | 4:55.54 | 102477 | 124655
8 | 27:42.06 | 3:15.37 | 124656 | 139317
9 | 30:57.43 | 4:45.66 | 139318 | 160758
10 | 35:43.34 | 3:32.45 | 160759 | 176703
11 | 39:16.04 | 5:55.34 | 176704 | 203362
12 | 45:11.38 | 3:45.41 | 203363 | 220278
13 | 48:57.04 | 3:14.71 | 220279 | 234899
14 | 52:12.00 | 4:25.05 | 234900 | 254779
15 | 56:37.05 | 3:32.61 | 254780 | 270740
16 | 60:09.66 | 3:27.08 | 270741 | 286273
17 | 63:36.74 | 3:03.72 | 286274 | 300070
18 | 66:40.71 | 2:52.52 | 300071 | 313022
19 | 69:33.48 | 4:26.48 | 313023 | 333020
20 | 74:00.21 | 3:35.73 | 333021 | 349218


Track 1

Filename D:\#New wavs + flac\VA - Let's Disco The Best Of Disco Hits\cd 3\01. Earth, Wind & Fire - Fantasy.wav

Pre-gap length 0:00:02.00

Peak level 83.1 %
Extraction speed 5.9 X
Track quality 100.0 %
Test CRC 3442355D
Copy CRC 3442355D
Track not present in AccurateRip database
Copy OK

Track 2

Filename D:\#New wavs + flac\VA - Let's Disco The Best Of Disco Hits\cd 3\02. Commodores - The Bump.wav

Pre-gap length 0:00:00.64

Peak level 88.3 %
Extraction speed 6.0 X
Track quality 100.0 %
Test CRC CB6D67E8
Copy CRC CB6D67E8
Track not present in AccurateRip database
Copy OK

Track 3

Filename D:\#New wavs + flac\VA - Let's Disco The Best Of Disco Hits\cd 3\03. ABBA - Dancing Queen.wav

Pre-gap length 0:00:00.65

Peak level 98.8 %
Extraction speed 6.6 X
Track quality 100.0 %
Test CRC 0DC980A1
Copy CRC 0DC980A1
Track not present in AccurateRip database
Copy OK

Track 4

Filename D:\#New wavs + flac\VA - Let's Disco The Best Of Disco Hits\cd 3\04. KC & the Sunshine Band - Shake Your Booty.wav

Pre-gap length 0:00:00.64

Peak level 98.8 %
Extraction speed 6.8 X
Track quality 100.0 %
Test CRC C206CB85
Copy CRC C206CB85
Track not present in AccurateRip database
Copy OK

Track 5

Filename D:\#New wavs + flac\VA - Let's Disco The Best Of Disco Hits\cd 3\05. Cheryl Lynn - Got To Be Real.wav

Pre-gap length 0:00:00.65

Peak level 98.8 %
Extraction speed 7.6 X
Track quality 100.0 %
Test CRC 08F2D647
Copy CRC 08F2D647
Track not present in AccurateRip database
Copy OK

Track 6

Filename D:\#New wavs + flac\VA - Let's Disco The Best Of Disco Hits\cd 3\06. Con Funk Shun - Too Tight.wav

Pre-gap length 0:00:00.65

Peak level 98.8 %
Extraction speed 7.5 X
Track quality 100.0 %
Test CRC 91699946
Copy CRC 91699946
Track not present in AccurateRip database
Copy OK

Track 7

Filename D:\#New wavs + flac\VA - Let's Disco The Best Of Disco Hits\cd 3\07. Average White Band - Let's Go Round Again.wav

Pre-gap length 0:00:00.65

Peak level 95.5 %
Extraction speed 8.3 X
Track quality 100.0 %
Test CRC 8EE922E2
Copy CRC 8EE922E2
Track not present in AccurateRip database
Copy OK

Track 8

Filename D:\#New wavs + flac\VA - Let's Disco The Best Of Disco Hits\cd 3\08. The Stylistics - Can't Give You Anything.wav

Pre-gap length 0:00:00.64

Peak level 93.3 %
Extraction speed 8.2 X
Track quality 100.0 %
Test CRC 670E6F11
Copy CRC 670E6F11
Track not present in AccurateRip database
Copy OK

Track 9

Filename D:\#New wavs + flac\VA - Let's Disco The Best Of Disco Hits\cd 3\09. Village People - Y.M.C.A.wav

Pre-gap length 0:00:00.65

Peak level 98.8 %
Extraction speed 7.6 X
Track quality 99.9 %
Test CRC 62C913DF
Copy CRC 62C913DF
Track not present in AccurateRip database
Copy OK

Track 10

Filename D:\#New wavs + flac\VA - Let's Disco The Best Of Disco Hits\cd 3\10. Shalamar - A Night To Remember.wav

Pre-gap length 0:00:00.64

Peak level 98.8 %
Extraction speed 9.0 X
Track quality 100.0 %
Test CRC 49925830
Copy CRC 49925830
Track not present in AccurateRip database
Copy OK

Track 11

Filename D:\#New wavs + flac\VA - Let's Disco The Best Of Disco Hits\cd 3\11. B.B. & Q. Band - On The Beat.wav

Pre-gap length 0:00:00.65

Peak level 98.8 %
Extraction speed 9.8 X
Track quality 100.0 %
Test CRC 48350586
Copy CRC 48350586
Track not present in AccurateRip database
Copy OK

Track 12

Filename D:\#New wavs + flac\VA - Let's Disco The Best Of Disco Hits\cd 3\12. The Boys Town Gang - Can't Take My Eyes Off You.wav

Pre-gap length 0:00:00.65

Peak level 94.2 %
Extraction speed 9.7 X
Track quality 100.0 %
Test CRC 28AEF0C7
Copy CRC 28AEF0C7
Track not present in AccurateRip database
Copy OK

Track 13

Filename D:\#New wavs + flac\VA - Let's Disco The Best Of Disco Hits\cd 3\13. Tavares - More Than A Woman.wav

Pre-gap length 0:00:00.64

Peak level 98.8 %
Extraction speed 9.7 X
Track quality 100.0 %
Test CRC A45900F7
Copy CRC A45900F7
Track not present in AccurateRip database
Copy OK

Track 14

Filename D:\#New wavs + flac\VA - Let's Disco The Best Of Disco Hits\cd 3\14. Kiss - I Was Made For Lovin' You.wav

Pre-gap length 0:00:00.64

Peak level 98.8 %
Extraction speed 10.4 X
Track quality 100.0 %
Test CRC D0965173
Copy CRC D0965173
Track not present in AccurateRip database
Copy OK

Track 15

Filename D:\#New wavs + flac\VA - Let's Disco The Best Of Disco Hits\cd 3\15. Village People - Go West.wav

Pre-gap length 0:00:00.65

Peak level 86.6 %
Extraction speed 8.3 X
Track quality 99.9 %
Test CRC 1BF277B2
Copy CRC 1BF277B2
Track not present in AccurateRip database
Copy OK

Track 16

Filename D:\#New wavs + flac\VA - Let's Disco The Best Of Disco Hits\cd 3\16. Arabesque - Hello Mr. Monkey.wav

Pre-gap length 0:00:00.65

Peak level 98.8 %
Extraction speed 10.4 X
Track quality 100.0 %
Test CRC 77ED1DB6
Copy CRC 77ED1DB6
Track not present in AccurateRip database
Copy OK

Track 17

Filename D:\#New wavs + flac\VA - Let's Disco The Best Of Disco Hits\cd 3\17. Genghis Khan - Dschingis Khan.wav

Pre-gap length 0:00:00.65

Peak level 87.9 %
Extraction speed 10.3 X
Track quality 100.0 %
Test CRC 83592428
Copy CRC 83592428
Track not present in AccurateRip database
Copy OK

Track 18

Filename D:\#New wavs + flac\VA - Let's Disco The Best Of Disco Hits\cd 3\18. Jigsaw - Sky High.wav

Pre-gap length 0:00:00.64

Peak level 75.6 %
Extraction speed 10.6 X
Track quality 100.0 %
Test CRC E816287C
Copy CRC E816287C
Track not present in AccurateRip database
Copy OK

Track 19

Filename D:\#New wavs + flac\VA - Let's Disco The Best Of Disco Hits\cd 3\19. Boney M. - Rasputin.wav

Pre-gap length 0:00:00.65

Peak level 70.0 %
Extraction speed 11.5 X
Track quality 100.0 %
Test CRC 2AD1BDC5
Copy CRC 2AD1BDC5
Track not present in AccurateRip database
Copy OK

Track 20

Filename D:\#New wavs + flac\VA - Let's Disco The Best Of Disco Hits\cd 3\20. Hall & Oates - Private Eyes.wav

Pre-gap length 0:00:00.65

Peak level 98.8 %
Extraction speed 11.3 X
Track quality 100.0 %
Test CRC 4F1FC8F5
Copy CRC 4F1FC8F5
Track not present in AccurateRip database
Copy OK


None of the tracks are present in the AccurateRip database

No errors occurred

End of status report

–– CUETools DB Plugin V2.1.6

[CTDB TOCID: HMIJN_btL_1OSjGUkzYD7Jy0eFE-] found
Submit result: HMIJN_btL_1OSjGUkzYD7Jy0eFE- has been confirmed
Track | CTDB Status
1 | (5/5) Accurately ripped
2 | (5/5) Accurately ripped
3 | (5/5) Accurately ripped
4 | (5/5) Accurately ripped
5 | (5/5) Accurately ripped
6 | (5/5) Accurately ripped
7 | (5/5) Accurately ripped
8 | (5/5) Accurately ripped
9 | (5/5) Accurately ripped
10 | (5/5) Accurately ripped
11 | (5/5) Accurately ripped
12 | (5/5) Accurately ripped
13 | (5/5) Accurately ripped
14 | (5/5) Accurately ripped
15 | (5/5) Accurately ripped
16 | (5/5) Accurately ripped
17 | (5/5) Accurately ripped
18 | (5/5) Accurately ripped
19 | (5/5) Accurately ripped
20 | (5/5) Accurately ripped


==== Log checksum C35C778D92DBB1117BE7D0E4CE3BAC8B4BB1640CD08A32E721E1217675D66E43 ====


Tracklist ::
CD 1
01. The Love Unlimited Orchestra - Love's theme
02. The Hues Corporation - Rock the boat
03. George MacRae - Rock your baby
04. Silver Convention - Fly, Robin, fly
05. The Miracles - Lova machine part 1
06. KC & The Sunshine Band - That's the way (I like it)
07. Rhythm Heritage - Theme from S.W.A.T
08. Wild Cherry - Play that funky music
09. Walter Murphy - A fifth of Beethoven
10. Meco - Star wars theme ; Cantina band
11. Yvonne Elliman - If I can't have you
12. A Taste Of Honey - Boogie oogie oogie
13. Donna Summer - MacArthur park
14. Chic - Le freak
15. Gloria Gaynor - I will survive
16. Donna Summer - Bad girls
17. M - Pop musik
18. The Knack - My Sharona
19. Lipps Inc - Funkytown
20. Blondie - Call me

CD 2
01. MFSB - T.S.O.P
02. Carl Douglas - Kung fu fighting
03. Average White Band - Pick up the pieces
04. Van McCoy - The hustle
05. Tavares - It only takes a minute
06. The Sylvers - Boogie fever
07. Diana Ross - Love hangover
08. The Emotions - Best of my love
09. Marilyn McCoo - You don't have to be a star (to be in my show)
10. Chaka Khan - I'm every woman
11. Earth, Wind & Fire - September
12. Donna Summer - Hot stuff
13. Chic - Good times
14. S.O.S. Band - Take your time (do it right)
15. Jermaine Jackson - Let 's get serious
16. Kool & The Gang - Celebration
17. The Gap Band - Burn rubber on me (why you wanna hurt me)
18. Blondie - Rapture
19. Diana Ross - Upside down
20. Rick James - Super freak

CD 3
01. Earth, Wind & Fire - Fantasy
02. The Commodores - The bump
03. Abba - Dancing queen
04. KC & The Sunshine Band - Shake shake shake shake your booty
05. Cheryl Lynn - Got to be real
06. Con Funk Shun - Too tight
07. Average White Band - Let 's go round again
08. The Stylistics - Can't give you anything (but my love)
09. Village People - Y.M.C.A
10. Shalamar - A night to remember
11. The Brooklyn Bronx & Queens Band - On the beat
12. Boys Town Gang - Can't take my eyes off you
13. Tavares - More than a woman
14. Kiss - I was made for lovin' you
15. Village People - Go west
16. Arabesque - Hello Mr. Monkey
17. Genghis Khan - Dschinghis Khan
18. Jigsaw - Sky high
19. Boney M. - Rasputin
20. Darryl Hall & John Oates - Private eyes