Tags
Language
Tags

VA - Prog Rock And Beyond [2CD Set] (2017)

Posted By: JET 1
VA - Prog Rock And Beyond [2CD Set] (2017)

VA - Prog Rock And Beyond [2CD Set] (2017)
EAC Rip | FLAC (Tracks) +CUE, LOG | 975 MB | Scans
Genre: Prog Rock, Classic Rock | Label: Metro Select | Catalog Number: METRSL145

Progressive rock means never having to explain and never having to compromise. This collection of wholly unorthodox tunes stretches from the prog greats Uriah Heep, Procol Harum, Status Quo and more to the obscure, in a unique journey through the progressive galaxy. Once you put it on, you’ll never come down…

Exact Audio Copy V1.2 from 12. August 2016

EAC extraction logfile from 18. April 2017, 15:09

Various Artists / Prog Rock And Beyond

Used drive : TSSTcorpCDDVDW SE-S084F Adapter: 1 ID: 1

Read mode : Secure
Utilize accurate stream : Yes
Defeat audio cache : Yes
Make use of C2 pointers : No

Read offset correction : 6
Overread into Lead-In and Lead-Out : No
Fill up missing offset samples with silence : Yes
Delete leading and trailing silent blocks : No
Null samples used in CRC calculations : Yes
Used interface : Native Win32 interface for Win NT & 2000
Gap handling : Appended to previous track

Used output format : User Defined Encoder
Selected bitrate : 1024 kBit/s
Quality : High
Add ID3 tag : No
Command line compressor : C:\Program Files (x86)\Exact Audio Copy\Flac\flac.exe
Additional command line options : -8 -V -T "ARTIST=%artist%" -T "TITLE=%title%" -T "ALBUM=%albumtitle%" -T "DATE=%year%" -T "TRACKNUMBER=%tracknr%" -T "GENRE=%genre%" -T "PERFORMER=%albuminterpret%" -T "COMPOSER=%composer%" %haslyrics%–tag-from-file=LYRICS="%lyricsfile%"%haslyrics% -T "ALBUMARTIST=%albumartist%" -T "DISCNUMBER=%cdnumber%" -T "TOTALDISCS=%totalcds%" -T "TOTALTRACKS=%numtracks%" -T "COMMENT=%comment%" %source% -o %dest%


TOC of the extracted CD

Track | Start | Length | Start sector | End sector
––––––––––––––––––––––––––––-
1 | 0:00.00 | 3:18.19 | 0 | 14868
2 | 3:18.19 | 7:30.35 | 14869 | 48653
3 | 10:48.54 | 3:17.07 | 48654 | 63435
4 | 14:05.61 | 3:49.51 | 63436 | 80661
5 | 17:55.37 | 3:07.45 | 80662 | 94731
6 | 21:03.07 | 4:26.13 | 94732 | 114694
7 | 25:29.20 | 4:18.14 | 114695 | 134058
8 | 29:47.34 | 4:12.18 | 134059 | 152976
9 | 33:59.52 | 3:30.27 | 152977 | 168753
10 | 37:30.04 | 5:36.64 | 168754 | 194017
11 | 43:06.68 | 5:55.30 | 194018 | 220672
12 | 49:02.23 | 4:12.01 | 220673 | 239573
13 | 53:14.24 | 5:27.51 | 239574 | 264149
14 | 58:42.00 | 4:19.10 | 264150 | 283584
15 | 63:01.10 | 5:26.44 | 283585 | 308078
16 | 68:27.54 | 3:08.34 | 308079 | 322212
17 | 71:36.13 | 4:31.43 | 322213 | 342580


Track 1

Filename C:\Users\ian\Desktop\VA - Prog Rock And Beyond (2017) [FLAC] {2CD}\Prog Rock And Beyond CD1\01 - The Spectres - Hurdy Gurdy Man.wav

Pre-gap length 0:00:02.00

Peak level 90.1 %
Extraction speed 2.8 X
Track quality 100.0 %
Test CRC D8A0DEDA
Copy CRC D8A0DEDA
Track not present in AccurateRip database
Copy OK

Track 2

Filename C:\Users\ian\Desktop\VA - Prog Rock And Beyond (2017) [FLAC] {2CD}\Prog Rock And Beyond CD1\02 - Atomic Rooster - Death Walks Behind You.wav

Pre-gap length 0:00:01.73

Peak level 97.7 %
Extraction speed 3.4 X
Track quality 100.0 %
Test CRC B2D4A5D6
Copy CRC B2D4A5D6
Track not present in AccurateRip database
Copy OK

Track 3

Filename C:\Users\ian\Desktop\VA - Prog Rock And Beyond (2017) [FLAC] {2CD}\Prog Rock And Beyond CD1\03 - Status Quo - Pictures Of Matchstick Men.wav

Pre-gap length 0:00:01.88

Peak level 92.2 %
Extraction speed 3.4 X
Track quality 100.0 %
Test CRC 699C27FD
Copy CRC 699C27FD
Track not present in AccurateRip database
Copy OK

Track 4

Filename C:\Users\ian\Desktop\VA - Prog Rock And Beyond (2017) [FLAC] {2CD}\Prog Rock And Beyond CD1\04 - Uriah Heep - Come Away Melinda.wav

Pre-gap length 0:00:01.90

Peak level 97.7 %
Extraction speed 3.7 X
Track quality 100.0 %
Test CRC 77341E16
Copy CRC 77341E16
Track not present in AccurateRip database
Copy OK

Track 5

Filename C:\Users\ian\Desktop\VA - Prog Rock And Beyond (2017) [FLAC] {2CD}\Prog Rock And Beyond CD1\05 - Emerson Lake & Palmer - Brain Salad Surgery.wav

Pre-gap length 0:00:01.92

Peak level 97.0 %
Extraction speed 3.7 X
Track quality 100.0 %
Test CRC 6C6B409E
Copy CRC 6C6B409E
Track not present in AccurateRip database
Copy OK

Track 6

Filename C:\Users\ian\Desktop\VA - Prog Rock And Beyond (2017) [FLAC] {2CD}\Prog Rock And Beyond CD1\06 - Colosseum - The Kettle.wav

Pre-gap length 0:00:01.48

Peak level 97.4 %
Extraction speed 4.1 X
Track quality 100.0 %
Test CRC DA319537
Copy CRC DA319537
Track not present in AccurateRip database
Copy OK

Track 7

Filename C:\Users\ian\Desktop\VA - Prog Rock And Beyond (2017) [FLAC] {2CD}\Prog Rock And Beyond CD1\07 - Tempest - Living In Fear.wav

Pre-gap length 0:00:01.65

Peak level 99.7 %
Extraction speed 4.2 X
Track quality 100.0 %
Test CRC EE67F712
Copy CRC EE67F712
Track not present in AccurateRip database
Copy OK

Track 8

Filename C:\Users\ian\Desktop\VA - Prog Rock And Beyond (2017) [FLAC] {2CD}\Prog Rock And Beyond CD1\08 - Amon Duul Il - All The Years Round.wav

Pre-gap length 0:00:01.92

Peak level 97.5 %
Extraction speed 4.4 X
Track quality 100.0 %
Test CRC 4D4BA8E2
Copy CRC 4D4BA8E2
Track not present in AccurateRip database
Copy OK

Track 9

Filename C:\Users\ian\Desktop\VA - Prog Rock And Beyond (2017) [FLAC] {2CD}\Prog Rock And Beyond CD1\09 - Caravan - If I Could Do It All Over Again I d Do It All Over You.wav

Pre-gap length 0:00:01.78

Peak level 87.0 %
Extraction speed 4.4 X
Track quality 100.0 %
Test CRC 9ACF45DA
Copy CRC 9ACF45DA
Track not present in AccurateRip database
Copy OK

Track 10

Filename C:\Users\ian\Desktop\VA - Prog Rock And Beyond (2017) [FLAC] {2CD}\Prog Rock And Beyond CD1\10 - Fruupp - Olde Tyme Future.wav

Pre-gap length 0:00:01.70

Peak level 97.7 %
Extraction speed 4.9 X
Track quality 100.0 %
Test CRC 20B5663E
Copy CRC 20B5663E
Track not present in AccurateRip database
Copy OK

Track 11

Filename C:\Users\ian\Desktop\VA - Prog Rock And Beyond (2017) [FLAC] {2CD}\Prog Rock And Beyond CD1\11 - Quatermass - Gemini.wav

Pre-gap length 0:00:01.97

Peak level 97.7 %
Extraction speed 5.1 X
Track quality 100.0 %
Test CRC 74C6638A
Copy CRC 74C6638A
Track not present in AccurateRip database
Copy OK

Track 12

Filename C:\Users\ian\Desktop\VA - Prog Rock And Beyond (2017) [FLAC] {2CD}\Prog Rock And Beyond CD1\12 - Procol Harum - Conquistador (Live).wav

Pre-gap length 0:00:01.90

Peak level 97.7 %
Extraction speed 4.2 X
Track quality 99.9 %
Test CRC E66FAC67
Copy CRC E66FAC67
Track not present in AccurateRip database
Copy OK

Track 13

Filename C:\Users\ian\Desktop\VA - Prog Rock And Beyond (2017) [FLAC] {2CD}\Prog Rock And Beyond CD1\13 - Van Der Graaf Generator - Bunsho (Live).wav

Pre-gap length 0:00:01.74

Peak level 84.0 %
Extraction speed 4.6 X
Track quality 99.9 %
Test CRC 4957B415
Copy CRC 4957B415
Track not present in AccurateRip database
Copy OK

Track 14

Filename C:\Users\ian\Desktop\VA - Prog Rock And Beyond (2017) [FLAC] {2CD}\Prog Rock And Beyond CD1\14 - Spirogyra - The Future Wont Be Long.wav

Pre-gap length 0:00:01.57

Peak level 87.3 %
Extraction speed 5.4 X
Track quality 100.0 %
Test CRC 39CB8B5A
Copy CRC 39CB8B5A
Track not present in AccurateRip database
Copy OK

Track 15

Filename C:\Users\ian\Desktop\VA - Prog Rock And Beyond (2017) [FLAC] {2CD}\Prog Rock And Beyond CD1\15 - Peter Bardens - The Answer.wav

Pre-gap length 0:00:01.30

Peak level 98.8 %
Extraction speed 5.7 X
Track quality 100.0 %
Test CRC BFB8C504
Copy CRC BFB8C504
Track not present in AccurateRip database
Copy OK

Track 16

Filename C:\Users\ian\Desktop\VA - Prog Rock And Beyond (2017) [FLAC] {2CD}\Prog Rock And Beyond CD1\16 - Jan Dukes De Grey - Eldorado.wav

Pre-gap length 0:00:01.96

Peak level 92.2 %
Extraction speed 5.4 X
Track quality 100.0 %
Test CRC 4CDA0101
Copy CRC 4CDA0101
Track not present in AccurateRip database
Copy OK

Track 17

Filename C:\Users\ian\Desktop\VA - Prog Rock And Beyond (2017) [FLAC] {2CD}\Prog Rock And Beyond CD1\17 - Fire - I Can See The Sky.wav

Pre-gap length 0:00:01.85

Peak level 88.6 %
Extraction speed 4.9 X
Track quality 99.9 %
Test CRC F3D206B5
Copy CRC F3D206B5
Track not present in AccurateRip database
Copy OK


None of the tracks are present in the AccurateRip database

No errors occurred

End of status report

–– CUETools DB Plugin V2.1.6

[CTDB TOCID: Jt.pfPscT6LxzoHPg7Rd_XIEg88-] found
Submit result: Jt.pfPscT6LxzoHPg7Rd_XIEg88- has been confirmed
Track | CTDB Status
1 | (1/1) Accurately ripped
2 | (1/1) Accurately ripped
3 | (1/1) Accurately ripped
4 | (1/1) Accurately ripped
5 | (1/1) Accurately ripped
6 | (1/1) Accurately ripped
7 | (1/1) Accurately ripped
8 | (1/1) Accurately ripped
9 | (1/1) Accurately ripped
10 | (1/1) Accurately ripped
11 | (1/1) Accurately ripped
12 | (1/1) Accurately ripped
13 | (1/1) Accurately ripped
14 | (1/1) Accurately ripped
15 | (1/1) Accurately ripped
16 | (1/1) Accurately ripped
17 | (1/1) Accurately ripped


==== Log checksum 83B4CC350A0EA9A6B4F218CFCE35C1FB2F01500EB18A17BEBC7DBE850879BE2A ====

Exact Audio Copy V1.2 from 12. August 2016

EAC extraction logfile from 18. April 2017, 16:14

Various Artists / Prog Rock And Beyond CD2

Used drive : TSSTcorpCDDVDW SE-S084F Adapter: 1 ID: 1

Read mode : Secure
Utilize accurate stream : Yes
Defeat audio cache : Yes
Make use of C2 pointers : No

Read offset correction : 6
Overread into Lead-In and Lead-Out : No
Fill up missing offset samples with silence : Yes
Delete leading and trailing silent blocks : No
Null samples used in CRC calculations : Yes
Used interface : Native Win32 interface for Win NT & 2000
Gap handling : Appended to previous track

Used output format : User Defined Encoder
Selected bitrate : 1024 kBit/s
Quality : High
Add ID3 tag : No
Command line compressor : C:\Program Files (x86)\Exact Audio Copy\Flac\flac.exe
Additional command line options : -8 -V -T "ARTIST=%artist%" -T "TITLE=%title%" -T "ALBUM=%albumtitle%" -T "DATE=%year%" -T "TRACKNUMBER=%tracknr%" -T "GENRE=%genre%" -T "PERFORMER=%albuminterpret%" -T "COMPOSER=%composer%" %haslyrics%–tag-from-file=LYRICS="%lyricsfile%"%haslyrics% -T "ALBUMARTIST=%albumartist%" -T "DISCNUMBER=%cdnumber%" -T "TOTALDISCS=%totalcds%" -T "TOTALTRACKS=%numtracks%" -T "COMMENT=%comment%" %source% -o %dest%


TOC of the extracted CD

Track | Start | Length | Start sector | End sector
––––––––––––––––––––––––––––-
1 | 0:00.00 | 3:01.07 | 0 | 13581
2 | 3:01.07 | 6:21.38 | 13582 | 42194
3 | 9:22.45 | 5:20.69 | 42195 | 66263
4 | 14:43.39 | 5:31.55 | 66264 | 91143
5 | 20:15.19 | 5:21.55 | 91144 | 115273
6 | 25:36.74 | 2:46.65 | 115274 | 127788
7 | 28:23.64 | 5:06.54 | 127789 | 150792
8 | 33:30.43 | 2:37.16 | 150793 | 162583
9 | 36:07.59 | 5:40.35 | 162584 | 188118
10 | 41:48.19 | 2:49.01 | 188119 | 200794
11 | 44:37.20 | 4:10.42 | 200795 | 219586
12 | 48:47.62 | 4:57.72 | 219587 | 241933
13 | 53:45.59 | 6:54.30 | 241934 | 273013
14 | 60:40.14 | 5:30.69 | 273014 | 297832
15 | 66:11.08 | 5:37.15 | 297833 | 323122
16 | 71:48.23 | 5:19.49 | 323123 | 347096


Track 1

Filename C:\Users\ian\Desktop\VA - Prog Rock And Beyond (2017) [FLAC] {2CD}\Prog Rock And Beyond CD2\01 - Uriah Heep - The Wizard.wav

Pre-gap length 0:00:02.00

Peak level 97.7 %
Extraction speed 2.4 X
Track quality 100.0 %
Test CRC 2D211713
Copy CRC 2D211713
Track not present in AccurateRip database
Copy OK

Track 2

Filename C:\Users\ian\Desktop\VA - Prog Rock And Beyond (2017) [FLAC] {2CD}\Prog Rock And Beyond CD2\02 - Colosseum II - Dark Side Of The Moog.wav

Pre-gap length 0:00:01.38

Peak level 93.3 %
Extraction speed 3.3 X
Track quality 100.0 %
Test CRC 097B2736
Copy CRC 097B2736
Track not present in AccurateRip database
Copy OK

Track 3

Filename C:\Users\ian\Desktop\VA - Prog Rock And Beyond (2017) [FLAC] {2CD}\Prog Rock And Beyond CD2\03 - Blonde on Blonde - Ride With Captain Max.wav

Pre-gap length 0:00:00.80

Peak level 99.4 %
Extraction speed 3.6 X
Track quality 100.0 %
Test CRC 6BBA238A
Copy CRC 6BBA238A
Track not present in AccurateRip database
Copy OK

Track 4

Filename C:\Users\ian\Desktop\VA - Prog Rock And Beyond (2017) [FLAC] {2CD}\Prog Rock And Beyond CD2\04 - Titus Groan - It Wasn t For You.wav

Pre-gap length 0:00:01.20

Peak level 97.7 %
Extraction speed 3.9 X
Track quality 100.0 %
Test CRC 9991612E
Copy CRC 9991612E
Track not present in AccurateRip database
Copy OK

Track 5

Filename C:\Users\ian\Desktop\VA - Prog Rock And Beyond (2017) [FLAC] {2CD}\Prog Rock And Beyond CD2\05 - Three Man Army - Midnight.wav

Pre-gap length 0:00:01.65

Peak level 93.8 %
Extraction speed 4.1 X
Track quality 100.0 %
Test CRC 0AD23A03
Copy CRC 0AD23A03
Track not present in AccurateRip database
Copy OK

Track 6

Filename C:\Users\ian\Desktop\VA - Prog Rock And Beyond (2017) [FLAC] {2CD}\Prog Rock And Beyond CD2\06 - Traffic Jam - Almost But Not Quite There.wav

Pre-gap length 0:00:01.48

Peak level 82.4 %
Extraction speed 3.8 X
Track quality 100.0 %
Test CRC 7A1A3713
Copy CRC 7A1A3713
Track not present in AccurateRip database
Copy OK

Track 7

Filename C:\Users\ian\Desktop\VA - Prog Rock And Beyond (2017) [FLAC] {2CD}\Prog Rock And Beyond CD2\07 - Man - Brother Arnold s Red And White Striped Tent.wav

Pre-gap length 0:00:01.92

Peak level 89.0 %
Extraction speed 3.8 X
Track quality 99.9 %
Test CRC 3DE5C5A1
Copy CRC 3DE5C5A1
Track not present in AccurateRip database
Copy OK

Track 8

Filename C:\Users\ian\Desktop\VA - Prog Rock And Beyond (2017) [FLAC] {2CD}\Prog Rock And Beyond CD2\08 - Mick Farren - Summertime Blues.wav

Pre-gap length 0:00:01.60

Peak level 97.7 %
Extraction speed 4.2 X
Track quality 100.0 %
Test CRC 0AE6FEA8
Copy CRC 0AE6FEA8
Track not present in AccurateRip database
Copy OK

Track 9

Filename C:\Users\ian\Desktop\VA - Prog Rock And Beyond (2017) [FLAC] {2CD}\Prog Rock And Beyond CD2\09 - Velvett Fog - Once Among The Trees.wav

Pre-gap length 0:00:02.17

Peak level 97.7 %
Extraction speed 4.8 X
Track quality 100.0 %
Test CRC 4A4181B9
Copy CRC 4A4181B9
Track not present in AccurateRip database
Copy OK

Track 10

Filename C:\Users\ian\Desktop\VA - Prog Rock And Beyond (2017) [FLAC] {2CD}\Prog Rock And Beyond CD2\10 - Comus - In The Lost Queen s Eyes.wav

Pre-gap length 0:00:02.16

Peak level 83.1 %
Extraction speed 4.5 X
Track quality 100.0 %
Test CRC 652987C0
Copy CRC 652987C0
Track not present in AccurateRip database
Copy OK

Track 11

Filename C:\Users\ian\Desktop\VA - Prog Rock And Beyond (2017) [FLAC] {2CD}\Prog Rock And Beyond CD2\11 - Woody Kern - Tell You I m Gone.wav

Pre-gap length 0:00:01.62

Peak level 97.7 %
Extraction speed 4.9 X
Track quality 100.0 %
Test CRC E3DA7188
Copy CRC E3DA7188
Track not present in AccurateRip database
Copy OK

Track 12

Filename C:\Users\ian\Desktop\VA - Prog Rock And Beyond (2017) [FLAC] {2CD}\Prog Rock And Beyond CD2\12 - ohn Lee s Barclay James Harvest - Child Of The Universe (Live).wav

Pre-gap length 0:00:01.81

Peak level 96.4 %
Extraction speed 5.2 X
Track quality 100.0 %
Test CRC 63490CEE
Copy CRC 63490CEE
Track not present in AccurateRip database
Copy OK

Track 13

Filename C:\Users\ian\Desktop\VA - Prog Rock And Beyond (2017) [FLAC] {2CD}\Prog Rock And Beyond CD2\13 - Twelfth Night - Fur Helene 1 (Live).wav

Pre-gap length 0:00:02.26

Peak level 97.7 %
Extraction speed 5.6 X
Track quality 100.0 %
Test CRC F5D10C4A
Copy CRC F5D10C4A
Track not present in AccurateRip database
Copy OK

Track 14

Filename C:\Users\ian\Desktop\VA - Prog Rock And Beyond (2017) [FLAC] {2CD}\Prog Rock And Beyond CD2\14 - Voivod - Astronomy Domine.wav

Pre-gap length 0:00:01.88

Peak level 97.7 %
Extraction speed 5.7 X
Track quality 100.0 %
Test CRC 0029FA17
Copy CRC 0029FA17
Track not present in AccurateRip database
Copy OK

Track 15

Filename C:\Users\ian\Desktop\VA - Prog Rock And Beyond (2017) [FLAC] {2CD}\Prog Rock And Beyond CD2\15 - Zoroaster - Odyssey.wav

Pre-gap length 0:00:01.94

Peak level 97.7 %
Extraction speed 5.8 X
Track quality 100.0 %
Test CRC 558BE615
Copy CRC 558BE615
Track not present in AccurateRip database
Copy OK

Track 16

Filename C:\Users\ian\Desktop\VA - Prog Rock And Beyond (2017) [FLAC] {2CD}\Prog Rock And Beyond CD2\16 - Tides From Nebula - Laughter Of Gods.wav

Pre-gap length 0:00:01.92

Peak level 98.3 %
Extraction speed 5.8 X
Track quality 100.0 %
Test CRC 313C6E13
Copy CRC 313C6E13
Track not present in AccurateRip database
Copy OK


None of the tracks are present in the AccurateRip database

No errors occurred

End of status report

–– CUETools DB Plugin V2.1.6

[CTDB TOCID: _amoVzbKVLzQR1nZREsTPvRrBbE-] found
Submit result: _amoVzbKVLzQR1nZREsTPvRrBbE- has been confirmed
Track | CTDB Status
1 | (1/1) Accurately ripped
2 | (1/1) Accurately ripped
3 | (1/1) Accurately ripped
4 | (1/1) Accurately ripped
5 | (1/1) Accurately ripped
6 | (1/1) Accurately ripped
7 | (1/1) Accurately ripped
8 | (1/1) Accurately ripped
9 | (1/1) Accurately ripped
10 | (1/1) Accurately ripped
11 | (1/1) Accurately ripped
12 | (1/1) Accurately ripped
13 | (1/1) Accurately ripped
14 | (1/1) Accurately ripped
15 | (1/1) Accurately ripped
16 | (1/1) Accurately ripped


==== Log checksum 81E6F438892FE50C37BE5E0AEF311460A0C2D9D93818DC971830C2ABFA8F1F1D ====

Tracklist ::::
Disc 1
1. The Spectres – Hurdy Gurdy Man
2. Atomic Rooster – Death Walks Behind You
3. Status Quo – Pictures Of Matchstick Man
4. Uriah Heep – Come Away Melinda
5. Emerson, Lake & Palmer – Brain Salad Surgery
6. Colosseum – The Kettle
7. Tempest – Living In Fear
8. Amon Düül II – All The Years Round
9. Caravan – If I Could Do It All Over Again, I'd Do It All Over You
10. Fruupp – Olde Tyme Future
11. Quatermass – Gemini
12. Procol Harum – Conquistador
13. Van Der Graaf Generator – Bunsho (Live At Metropolis)
14. Spirogyra – The Future Won't Be Long
15. Peter Bardens – The Answer
16. Jan Dukes De Grey – Eldorado
17. Fire – I Can See The Sky

Disc 2
1. Uriah Heep – The Wizard
2. Colosseum II – Dark Side Of The Moog
3. Blonde On Blonde – Ride With Captain Max
4. Titus Groan – It Wasn't For You
5. Three Man Army – Midnight
6. Traffic Jam – Almost But Not Quite There
7. Man – Brother Arnold's Red And White Striped Tent
8. Mick Farren – Summertime Blues
9. Velvett Fog – Once Among The Trees
10. Comus – In The Lost Queen's Eyes
11. Woody Kern – Tell You I'm Gone
12. John Lee's Barclay James Harvest – Child Of The Universe (Live At Metropolis)
13. Twelfth Night – Fur Helene 1 (Live)
14. Voivod – Astronomy Domine
15. Zoroaster – Odyssey
16. Tides From Nebula – Laughter Of Gods