Subcategories

V.A. - Prog Rocks! Five Discs Celebrating Five Legendary Prog Rock Labels [5CD Box Set] (2013) (Repost)

Posted By: gribovar
V.A. - Prog Rocks! Five Discs Celebrating Five Legendary Prog Rock Labels [5CD Box Set] (2013) (Repost)

V.A. - Prog Rocks! Five Discs Celebrating Five Legendary Prog Rock Labels [5CD Box Set] (2013)
EAC Rip | FLAC (tracks+.cue+log) - 2,24 GB | MP3 CBR 320 kbps (LAME 3.93) - 832 MB | Covers - 33 MB
Genre: Progressive Rock, Psychedelic Rock, Folk Rock | RAR 3% Rec. | Label: EMI (50999 7 25070 2 5)

This Box Set features 5 discs celebrating 5 legendary progressive rock labels! Part of the successful EMI Global Prog Rocks! Campaign, highlighting the work of some of the World's greatest artists associated with the genre. Featuring classic Prog riches from Harvest, Charisma, Virgin, Liberty / UA and newer, more cutting edge progressive rock from the enterprising Inside Out label. This compilation serves as the ideal introduction to the wide variety of bands and musical styles on these labels and offers a broad insight into the delights of progressive music! Syd Barrett, Electric Light Orchestra, Barclay James Harvest, Van Der Graaf Generator, The Nice, Peter Hammill, Gong, Hatfield And The North, Tangerine Dream, Steve Hillage, Daevid Allen, Hawkwind, Pain Of Salvation, Riverside and many more.

V.A. - Prog Rocks! Five Discs Celebrating Five Legendary Prog Rock Labels [5CD Box Set] (2013) (Repost)

CD 1 - Harvest
EAC Rip | FLAC (tracks+.cue+log) - 417 MB | MP3 CBR 320 kbps (LAME 3.93) - 159 MB
Genre: Progressive Rock, Psychedelic Rock, Folk Rock | RAR 3% Rec. | Label: EMI (50999 7 25071 2 4)

Tracklist:
01. Deep Purple - Bird Has Flown
02. Kevin Ayers - The Lady Rachel
03. Panama Limited Jug Band - Round And Round
04. Forest - Searching For Shadows
05. Syd Barrett - Baby Lemonade
06. The Greatest Show On Earth - Angelina
07. Pete Brown & Piblokto! - Got A Letter From A Computer
08. The Electric Light Orchestra - Queen Of The Hours
09. The Move - The Words Of Aaron
10. Barclay James Harvest - Galadriel
11. Third Ear Band - Fleance
12. Babe Ruth - The Mexican
13. Edgar Broughton Band - Chilly Morning Mama
14. Spontaneous Combustion - Sabre Dance
15. Be-Bop Deluxe - Sister Seagull
16. Machiavel - Moments
17. Pallas - Cut And Run

Total time: 01:07:45

Exact Audio Copy V1.0 beta 3 from 29. August 2011

EAC extraction logfile from 31. May 2013, 22:03

Prog Rocks! / Harvest

Used drive : Optiarc DVD RW AD-7240S Adapter: 1 ID: 0

Read mode : Secure
Utilize accurate stream : Yes
Defeat audio cache : Yes
Make use of C2 pointers : No

Read offset correction : 48
Overread into Lead-In and Lead-Out : No
Fill up missing offset samples with silence : Yes
Delete leading and trailing silent blocks : No
Null samples used in CRC calculations : Yes
Used interface : Native Win32 interface for Win NT & 2000
Gap handling : Appended to previous track

Used output format : User Defined Encoder
Selected bitrate : 1024 kBit/s
Quality : High
Add ID3 tag : No
Command line compressor : C:\Program Files (x86)\Exact Audio Copy\Flac\flac.exe
Additional command line options : -8 -V -T "ARTIST=%artist%" -T "TITLE=%title%" -T "ALBUM=%albumtitle%" -T "DATE=%year%" -T "TRACKNUMBER=%tracknr%" -T "GENRE=%genre%" -T "PERFORMER=%albuminterpret%" -T "COMPOSER=%composer%" %haslyrics%–tag-from-file=LYRICS="%lyricsfile%"%haslyrics% -T "ALBUMARTIST=%albumartist%" -T "DISCNUMBER=%cdnumber%" -T "TOTALDISCS=%totalcds%" -T "TOTALTRACKS=%numtracks%" -T "COMMENT=%comment%" %source% -o %dest%


TOC of the extracted CD

Track | Start | Length | Start sector | End sector
––––––––––––––––––––––––––––-
1 | 0:00.00 | 2:53.01 | 0 | 12975
2 | 2:53.01 | 5:19.54 | 12976 | 36954
3 | 8:12.55 | 3:16.61 | 36955 | 51715
4 | 11:29.41 | 3:03.28 | 51716 | 65468
5 | 14:32.69 | 4:07.69 | 65469 | 84062
6 | 18:40.63 | 4:07.04 | 84063 | 102591
7 | 22:47.67 | 5:46.73 | 102592 | 128614
8 | 28:34.65 | 3:22.71 | 128615 | 143835
9 | 31:57.61 | 5:27.17 | 143836 | 168377
10 | 37:25.03 | 3:12.70 | 168378 | 182847
11 | 40:37.73 | 3:59.67 | 182848 | 200839
12 | 44:37.65 | 3:27.18 | 200840 | 216382
13 | 48:05.08 | 4:33.37 | 216383 | 236894
14 | 52:38.45 | 2:59.32 | 236895 | 250351
15 | 55:38.02 | 3:37.11 | 250352 | 266637
16 | 59:15.13 | 3:18.63 | 266638 | 281550
17 | 62:34.01 | 5:11.05 | 281551 | 304880


Track 1

Filename C:\Users\Vinter\Music\Va - Prog Rocks! 5CD Box Celebrating 5 Legendary Prog Rock Labels (2013)-FLAC\CD1 - Harvest\01 - Deep Purple - Bird Has Flown.wav

Pre-gap length 0:00:02.00

Peak level 76.1 %
Extraction speed 2.1 X
Track quality 100.0 %
Test CRC A74A967C
Copy CRC A74A967C
Accurately ripped (confidence 1) [B3517A0F] (AR v2)
Copy OK

Track 2

Filename C:\Users\Vinter\Music\Va - Prog Rocks! 5CD Box Celebrating 5 Legendary Prog Rock Labels (2013)-FLAC\CD1 - Harvest\02 - Kevin Ayers - The Lady Rachel.wav

Pre-gap length 0:00:01.72

Peak level 79.8 %
Extraction speed 2.3 X
Track quality 99.9 %
Test CRC 76718966
Copy CRC 76718966
Accurately ripped (confidence 1) [F8614AB6] (AR v2)
Copy OK

Track 3

Filename C:\Users\Vinter\Music\Va - Prog Rocks! 5CD Box Celebrating 5 Legendary Prog Rock Labels (2013)-FLAC\CD1 - Harvest\03 - Panama Limited Jug Band - Round and Round.wav

Pre-gap length 0:00:01.72

Peak level 87.5 %
Extraction speed 2.6 X
Track quality 100.0 %
Test CRC 6FA75A86
Copy CRC 6FA75A86
Accurately ripped (confidence 1) [5534B241] (AR v2)
Copy OK

Track 4

Filename C:\Users\Vinter\Music\Va - Prog Rocks! 5CD Box Celebrating 5 Legendary Prog Rock Labels (2013)-FLAC\CD1 - Harvest\04 - Forest - Searching For Shadows.wav

Pre-gap length 0:00:01.72

Peak level 97.5 %
Extraction speed 2.8 X
Track quality 100.0 %
Test CRC 7D1D5C4E
Copy CRC 7D1D5C4E
Accurately ripped (confidence 1) [443A87E3] (AR v2)
Copy OK

Track 5

Filename C:\Users\Vinter\Music\Va - Prog Rocks! 5CD Box Celebrating 5 Legendary Prog Rock Labels (2013)-FLAC\CD1 - Harvest\05 - Syd Barrett - Baby Lemonade.wav

Pre-gap length 0:00:01.72

Peak level 78.7 %
Extraction speed 3.0 X
Track quality 100.0 %
Test CRC B0D8C702
Copy CRC B0D8C702
Accurately ripped (confidence 1) [A65CBE79] (AR v2)
Copy OK

Track 6

Filename C:\Users\Vinter\Music\Va - Prog Rocks! 5CD Box Celebrating 5 Legendary Prog Rock Labels (2013)-FLAC\CD1 - Harvest\06 - The Greatest Show On Earth - Angelina.wav

Pre-gap length 0:00:01.70

Peak level 75.3 %
Extraction speed 3.2 X
Track quality 100.0 %
Test CRC 2382E33E
Copy CRC 2382E33E
Accurately ripped (confidence 1) [43F459C2] (AR v2)
Copy OK

Track 7

Filename C:\Users\Vinter\Music\Va - Prog Rocks! 5CD Box Celebrating 5 Legendary Prog Rock Labels (2013)-FLAC\CD1 - Harvest\07 - Pete Brown & Piblokto! - Got a Letter From a Computer.wav

Pre-gap length 0:00:01.72

Peak level 88.3 %
Extraction speed 3.5 X
Track quality 100.0 %
Test CRC EEDB958B
Copy CRC EEDB958B
Accurately ripped (confidence 1) [576707F3] (AR v2)
Copy OK

Track 8

Filename C:\Users\Vinter\Music\Va - Prog Rocks! 5CD Box Celebrating 5 Legendary Prog Rock Labels (2013)-FLAC\CD1 - Harvest\08 - The Electric Light Orchestra - Queen Of The Hours.wav

Pre-gap length 0:00:01.70

Peak level 83.8 %
Extraction speed 3.4 X
Track quality 100.0 %
Test CRC 4D152792
Copy CRC 4D152792
Accurately ripped (confidence 1) [1080A924] (AR v2)
Copy OK

Track 9

Filename C:\Users\Vinter\Music\Va - Prog Rocks! 5CD Box Celebrating 5 Legendary Prog Rock Labels (2013)-FLAC\CD1 - Harvest\09 - The Move - The Words of AAron.wav

Pre-gap length 0:00:01.72

Peak level 84.2 %
Extraction speed 3.8 X
Track quality 100.0 %
Test CRC 7FADB04F
Copy CRC 7FADB04F
Accurately ripped (confidence 1) [3C22B4B0] (AR v2)
Copy OK

Track 10

Filename C:\Users\Vinter\Music\Va - Prog Rocks! 5CD Box Celebrating 5 Legendary Prog Rock Labels (2013)-FLAC\CD1 - Harvest\10 - Barclay James Harvest - Galadriel.wav

Pre-gap length 0:00:01.72

Peak level 92.2 %
Extraction speed 3.7 X
Track quality 100.0 %
Test CRC 0CE505D8
Copy CRC 0CE505D8
Accurately ripped (confidence 1) [25770785] (AR v2)
Copy OK

Track 11

Filename C:\Users\Vinter\Music\Va - Prog Rocks! 5CD Box Celebrating 5 Legendary Prog Rock Labels (2013)-FLAC\CD1 - Harvest\11 - Third Ear Band - Fleance.wav

Pre-gap length 0:00:01.72

Peak level 90.1 %
Extraction speed 3.9 X
Track quality 100.0 %
Test CRC 9EE98F12
Copy CRC 9EE98F12
Accurately ripped (confidence 1) [5539B7EC] (AR v2)
Copy OK

Track 12

Filename C:\Users\Vinter\Music\Va - Prog Rocks! 5CD Box Celebrating 5 Legendary Prog Rock Labels (2013)-FLAC\CD1 - Harvest\12 - Babe Ruth - The Mexican.wav

Pre-gap length 0:00:01.72

Peak level 88.8 %
Extraction speed 4.0 X
Track quality 100.0 %
Test CRC 098E8A18
Copy CRC 098E8A18
Accurately ripped (confidence 1) [94C40523] (AR v2)
Copy OK

Track 13

Filename C:\Users\Vinter\Music\Va - Prog Rocks! 5CD Box Celebrating 5 Legendary Prog Rock Labels (2013)-FLAC\CD1 - Harvest\13 - Edgar Broughton Band - Chilly Morning Mama.wav

Peak level 87.5 %
Extraction speed 4.3 X
Track quality 100.0 %
Test CRC 25E44C7D
Copy CRC 25E44C7D
Accurately ripped (confidence 1) [830CECDE] (AR v2)
Copy OK

Track 14

Filename C:\Users\Vinter\Music\Va - Prog Rocks! 5CD Box Celebrating 5 Legendary Prog Rock Labels (2013)-FLAC\CD1 - Harvest\14 - Spontaneous Combustion - Sabre Dance.wav

Pre-gap length 0:00:01.72

Peak level 92.3 %
Extraction speed 4.2 X
Track quality 100.0 %
Test CRC CCDB6F48
Copy CRC CCDB6F48
Accurately ripped (confidence 1) [4B3858D3] (AR v2)
Copy OK

Track 15

Filename C:\Users\Vinter\Music\Va - Prog Rocks! 5CD Box Celebrating 5 Legendary Prog Rock Labels (2013)-FLAC\CD1 - Harvest\15 - Be-Bop Deluxe - Sister Seagull.wav

Pre-gap length 0:00:01.72

Peak level 98.1 %
Extraction speed 3.8 X
Track quality 99.9 %
Test CRC B02C4518
Copy CRC B02C4518
Accurately ripped (confidence 1) [408E1BF7] (AR v2)
Copy OK

Track 16

Filename C:\Users\Vinter\Music\Va - Prog Rocks! 5CD Box Celebrating 5 Legendary Prog Rock Labels (2013)-FLAC\CD1 - Harvest\16 - Machiavel - Moments.wav

Pre-gap length 0:00:01.72

Peak level 92.5 %
Extraction speed 3.9 X
Track quality 99.9 %
Test CRC ECF2F253
Copy CRC ECF2F253
Cannot be verified as accurate (confidence 1) [4B07A529], AccurateRip returned [89C358AD] (AR v2)
Copy OK

Track 17

Filename C:\Users\Vinter\Music\Va - Prog Rocks! 5CD Box Celebrating 5 Legendary Prog Rock Labels (2013)-FLAC\CD1 - Harvest\17 - Pallas - Cut and Run.wav

Pre-gap length 0:00:01.50

Peak level 96.3 %
Extraction speed 4.4 X
Track quality 99.9 %
Test CRC 48129C90
Copy CRC 48129C90
Track not present in AccurateRip database
Copy OK


15 spåret(en) korrekt kopierat
1 spåret(en) kunde inte verifieras som korrekt
1 spåret(en) finns inte i AccurateRip databasen

Some tracks could not be verified as accurate

No errors occurred

End of status report

–– CUETools DB Plugin V2.1.3

[CTDB TOCID: GjpM8F6Fp0lzuBgEKWVMhAZlMPw-] found, Submit result: GjpM8F6Fp0lzuBgEKWVMhAZlMPw- has been confirmed
[dd436add] (3/3) Accurately ripped


==== Log checksum A39A343C36A1F95EF2E0E838E5955E597F2380A962806B31A87830B7A874D871 ====

[CUETools log; Date: 12.03.2020 17:35:12; Version: 2.1.4]
[CTDB TOCID: GjpM8F6Fp0lzuBgEKWVMhAZlMPw-] found.
Track | CTDB Status
1 | (36/36) Accurately ripped
2 | (36/36) Accurately ripped
3 | (36/36) Accurately ripped
4 | (36/36) Accurately ripped
5 | (36/36) Accurately ripped
6 | (36/36) Accurately ripped
7 | (36/36) Accurately ripped
8 | (36/36) Accurately ripped
9 | (36/36) Accurately ripped
10 | (36/36) Accurately ripped
11 | (36/36) Accurately ripped
12 | (36/36) Accurately ripped
13 | (35/36) Accurately ripped
14 | (35/36) Accurately ripped
15 | (35/36) Accurately ripped
16 | (35/36) Accurately ripped
17 | (35/36) Accurately ripped
[AccurateRip ID: 0029bb8c-0212340b-0f0fe111] found.
Track [ CRC | V2 ] Status
01 [a8a01495|b3517a0f] (02+21/23) Accurately ripped
02 [2dcdc4b7|f8614ab6] (00+23/23) Accurately ripped
03 [ec482f87|5534b241] (02+21/23) Accurately ripped
04 [a8dc5d2f|443a87e3] (02+21/23) Accurately ripped
05 [02305b18|a65cbe79] (02+21/23) Accurately ripped
06 [021a5d4c|43f459c2] (00+22/22) Accurately ripped
07 [e37b1147|576707f3] (00+23/23) Accurately ripped
08 [342da3c5|1080a924] (00+23/23) Accurately ripped
09 [7e73bfbb|3c22b4b0] (00+23/23) Accurately ripped
10 [0d63e27d|25770785] (00+22/22) Accurately ripped
11 [ef1b1ad8|5539b7ec] (00+22/22) Accurately ripped
12 [8e424152|94c40523] (00+23/23) Accurately ripped
13 [9d4ed57e|830cecde] (00+22/22) Accurately ripped
14 [d152f7a0|4b3858d3] (00+23/23) Accurately ripped
15 [e7e5dae6|408e1bf7] (00+23/23) Accurately ripped
16 [0a329611|4b07a529] (00+22/22) Accurately ripped
17 [1eec058d|bc1fdf9f] (00+21/21) Accurately ripped

Track Peak [ CRC32 ] [W/O NULL] [ LOG ]
– 98,1 [1A472BEA] [4310DEC5]
01 76,1 [A74A967C] [2AC5C7F9] CRC32
02 79,8 [76718966] [B1BEB529] CRC32
03 87,5 [6FA75A86] [892C80AC] CRC32
04 97,5 [7D1D5C4E] [62426FB0] CRC32
05 78,7 [B0D8C702] [AF136342] CRC32
06 75,3 [2382E33E] [8D344AFB] CRC32
07 88,3 [EEDB958B] [3DA89F04] CRC32
08 83,8 [4D152792] [DDA6B78A] CRC32
09 84,2 [7FADB04F] [1EE87652] CRC32
10 92,2 [0CE505D8] [8B273B14] CRC32
11 90,1 [9EE98F12] [74A9BBDF] CRC32
12 88,8 [098E8A18] [AE8D5FD8] CRC32
13 87,5 [25E44C7D] [3FC7B237] CRC32
14 92,3 [CCDB6F48] [9B15F4CD] CRC32
15 98,1 [B02C4518] [EA318A3B] CRC32
16 92,5 [ECF2F253] [31A0643C] CRC32
17 96,3 [48129C90] [0A816199] CRC32

V.A. - Prog Rocks! Five Discs Celebrating Five Legendary Prog Rock Labels [5CD Box Set] (2013) (Repost)

CD 2 - Charisma
EAC Rip | FLAC (tracks+.cue+log) - 493 MB | MP3 CBR 320 kbps (LAME 3.93) - 181 MB
Genre: Progressive Rock, Psychedelic Rock, Folk Rock | RAR 3% Rec. | Label: EMI (50999 7 25073 2 2)

Tracklist:
01. The Nice - Country Pie
02. Rare Bird - What You Want To Know
03. Audience - Nothing You Do
04. Jackson Heights - Doubting Thomas
05. Lindisfarne - January Song
06. Bell + Arc - High Priest Of Memphis
07. Van Der Graaf Generator – Theme One
08. Keith Emerson, Chuck Rainey, Mitch Mitchell & Buzzy Feiten - Freedom Jazz Dance
09. Alan Hull - United States Of Mind
10. Jack The Lad - Why Can't I Be Satisfied
11. String Driven Thing - Heartfeeder
12. Capability Brown - I Am And So Are You
13. Peter Hammill - Red Shift
14. Robert John Godfrey - Mountains
15. Steve Hackett - Hands Of The Priestress (Part 1)
16. Brand X - Nuclear Burn

Total time: 01:17:01

Exact Audio Copy V1.0 beta 3 from 29. August 2011

EAC extraction logfile from 31. May 2013, 23:40

Prog Rocks! / Charisma

Used drive : Optiarc DVD RW AD-7240S Adapter: 1 ID: 0

Read mode : Secure
Utilize accurate stream : Yes
Defeat audio cache : Yes
Make use of C2 pointers : No

Read offset correction : 48
Overread into Lead-In and Lead-Out : No
Fill up missing offset samples with silence : Yes
Delete leading and trailing silent blocks : No
Null samples used in CRC calculations : Yes
Used interface : Native Win32 interface for Win NT & 2000
Gap handling : Appended to previous track

Used output format : User Defined Encoder
Selected bitrate : 1024 kBit/s
Quality : High
Add ID3 tag : No
Command line compressor : C:\Program Files (x86)\Exact Audio Copy\Flac\flac.exe
Additional command line options : -8 -V -T "ARTIST=%artist%" -T "TITLE=%title%" -T "ALBUM=%albumtitle%" -T "DATE=%year%" -T "TRACKNUMBER=%tracknr%" -T "GENRE=%genre%" -T "PERFORMER=%albuminterpret%" -T "COMPOSER=%composer%" %haslyrics%–tag-from-file=LYRICS="%lyricsfile%"%haslyrics% -T "ALBUMARTIST=%albumartist%" -T "DISCNUMBER=%cdnumber%" -T "TOTALDISCS=%totalcds%" -T "TOTALTRACKS=%numtracks%" -T "COMMENT=%comment%" %source% -o %dest%


TOC of the extracted CD

Track | Start | Length | Start sector | End sector
––––––––––––––––––––––––––––-
1 | 0:00.00 | 5:42.11 | 0 | 25660
2 | 5:42.11 | 5:56.61 | 25661 | 52421
3 | 11:38.72 | 4:38.70 | 52422 | 73341
4 | 16:17.67 | 4:13.32 | 73342 | 92348
5 | 20:31.24 | 4:14.71 | 92349 | 111469
6 | 24:46.20 | 3:29.57 | 111470 | 127201
7 | 28:16.02 | 2:55.12 | 127202 | 140338
8 | 31:11.14 | 3:05.12 | 140339 | 154225
9 | 34:16.26 | 3:06.44 | 154226 | 168219
10 | 37:22.70 | 4:00.51 | 168220 | 186270
11 | 41:23.46 | 6:36.07 | 186271 | 215977
12 | 47:59.53 | 3:58.53 | 215978 | 233880
13 | 51:58.31 | 8:12.07 | 233881 | 270787
14 | 60:10.38 | 6:58.35 | 270788 | 302172
15 | 67:08.73 | 3:29.60 | 302173 | 317907
16 | 70:38.58 | 6:21.51 | 317908 | 346533


Track 1

Filename C:\Users\Vinter\Music\Va - Prog Rocks! 5CD Box Celebrating 5 Legendary Prog Rock Labels (2013)-FLAC\CD2 - The Famous Charisma Label\01 - The Nice - Country Pie.wav

Pre-gap length 0:00:02.00

Peak level 90.6 %
Extraction speed 2.6 X
Track quality 100.0 %
Test CRC 87B6AE59
Copy CRC 87B6AE59
Accurately ripped (confidence 1) [FBE09FAC] (AR v2)
Copy OK

Track 2

Filename C:\Users\Vinter\Music\Va - Prog Rocks! 5CD Box Celebrating 5 Legendary Prog Rock Labels (2013)-FLAC\CD2 - The Famous Charisma Label\02 - Rare Bird - What You Want To Know.wav

Pre-gap length 0:00:01.52

Peak level 99.6 %
Extraction speed 2.9 X
Track quality 100.0 %
Test CRC 4F9DE18D
Copy CRC 4F9DE18D
Accurately ripped (confidence 1) [F8AC461D] (AR v2)
Copy OK

Track 3

Filename C:\Users\Vinter\Music\Va - Prog Rocks! 5CD Box Celebrating 5 Legendary Prog Rock Labels (2013)-FLAC\CD2 - The Famous Charisma Label\03 - Audience - Nothing To Do.wav

Pre-gap length 0:00:01.50

Peak level 95.1 %
Extraction speed 3.2 X
Track quality 100.0 %
Test CRC 6B82B08D
Copy CRC 6B82B08D
Accurately ripped (confidence 1) [48B7EEC3] (AR v2)
Copy OK

Track 4

Filename C:\Users\Vinter\Music\Va - Prog Rocks! 5CD Box Celebrating 5 Legendary Prog Rock Labels (2013)-FLAC\CD2 - The Famous Charisma Label\04 - Jackson Heights - Doubting Thomas.wav

Pre-gap length 0:00:01.52

Peak level 91.0 %
Extraction speed 3.3 X
Track quality 100.0 %
Test CRC C2C5EA55
Copy CRC C2C5EA55
Accurately ripped (confidence 1) [E56F2503] (AR v2)
Copy OK

Track 5

Filename C:\Users\Vinter\Music\Va - Prog Rocks! 5CD Box Celebrating 5 Legendary Prog Rock Labels (2013)-FLAC\CD2 - The Famous Charisma Label\05 - Lindisfarne - January Song.wav

Pre-gap length 0:00:01.52

Peak level 94.0 %
Extraction speed 3.1 X
Track quality 99.9 %
Test CRC 8B62C5FB
Copy CRC 8B62C5FB
Accurately ripped (confidence 1) [F710E125] (AR v2)
Copy OK

Track 6

Filename C:\Users\Vinter\Music\Va - Prog Rocks! 5CD Box Celebrating 5 Legendary Prog Rock Labels (2013)-FLAC\CD2 - The Famous Charisma Label\06 - Bell + Arc - High Priest Of Memphis.wav

Pre-gap length 0:00:01.52

Peak level 90.6 %
Extraction speed 3.6 X
Track quality 100.0 %
Test CRC B86EF307
Copy CRC B86EF307
Accurately ripped (confidence 1) [3C9D596F] (AR v2)
Copy OK

Track 7

Filename C:\Users\Vinter\Music\Va - Prog Rocks! 5CD Box Celebrating 5 Legendary Prog Rock Labels (2013)-FLAC\CD2 - The Famous Charisma Label\07 - Van Der Graaf Generator - Theme One.wav

Pre-gap length 0:00:01.52

Peak level 92.7 %
Extraction speed 3.6 X
Track quality 100.0 %
Test CRC 01FDEE02
Copy CRC 01FDEE02
Accurately ripped (confidence 1) [4CCA0E48] (AR v2)
Copy OK

Track 8

Filename C:\Users\Vinter\Music\Va - Prog Rocks! 5CD Box Celebrating 5 Legendary Prog Rock Labels (2013)-FLAC\CD2 - The Famous Charisma Label\08 - Keith Emerson (with Chuck Rainey,Mitch Mitchell and Buzzy Feiten) - Freedom Jazz Dance.wav

Pre-gap length 0:00:01.52

Peak level 94.7 %
Extraction speed 3.7 X
Track quality 100.0 %
Test CRC A282BF57
Copy CRC A282BF57
Accurately ripped (confidence 1) [55EBC9FF] (AR v2)
Copy OK

Track 9

Filename C:\Users\Vinter\Music\Va - Prog Rocks! 5CD Box Celebrating 5 Legendary Prog Rock Labels (2013)-FLAC\CD2 - The Famous Charisma Label\09 - Alan Hull - United States Of Mind.wav

Pre-gap length 0:00:01.52

Peak level 90.5 %
Extraction speed 3.3 X
Track quality 99.9 %
Test CRC D3EFB4C3
Copy CRC D3EFB4C3
Accurately ripped (confidence 1) [1D031148] (AR v2)
Copy OK

Track 10

Filename C:\Users\Vinter\Music\Va - Prog Rocks! 5CD Box Celebrating 5 Legendary Prog Rock Labels (2013)-FLAC\CD2 - The Famous Charisma Label\10 - Jack The Lad - Why Can't I Be Satisfied.wav

Pre-gap length 0:00:01.52

Peak level 90.6 %
Extraction speed 3.7 X
Track quality 99.9 %
Test CRC A577998D
Copy CRC A577998D
Accurately ripped (confidence 1) [D0B1CBE2] (AR v2)
Copy OK

Track 11

Filename C:\Users\Vinter\Music\Va - Prog Rocks! 5CD Box Celebrating 5 Legendary Prog Rock Labels (2013)-FLAC\CD2 - The Famous Charisma Label\11 - String Driven Thing - Heartfeeder.wav

Pre-gap length 0:00:01.52

Peak level 94.8 %
Extraction speed 4.2 X
Track quality 99.9 %
Test CRC 258A2E97
Copy CRC 258A2E97
Accurately ripped (confidence 1) [47035ACD] (AR v2)
Copy OK

Track 12

Filename C:\Users\Vinter\Music\Va - Prog Rocks! 5CD Box Celebrating 5 Legendary Prog Rock Labels (2013)-FLAC\CD2 - The Famous Charisma Label\12 - Capability Brown - I Am And So Are You.wav

Pre-gap length 0:00:01.49

Peak level 93.0 %
Extraction speed 4.0 X
Track quality 99.9 %
Test CRC E2EBFFE7
Copy CRC E2EBFFE7
Accurately ripped (confidence 1) [88356E86] (AR v2)
Copy OK

Track 13

Filename C:\Users\Vinter\Music\Va - Prog Rocks! 5CD Box Celebrating 5 Legendary Prog Rock Labels (2013)-FLAC\CD2 - The Famous Charisma Label\13 - Peter Hammill - Red Shift.wav

Pre-gap length 0:00:01.52

Peak level 88.1 %
Extraction speed 5.1 X
Track quality 100.0 %
Test CRC 4DFE38FF
Copy CRC 4DFE38FF
Accurately ripped (confidence 1) [5245D955] (AR v2)
Copy OK

Track 14

Filename C:\Users\Vinter\Music\Va - Prog Rocks! 5CD Box Celebrating 5 Legendary Prog Rock Labels (2013)-FLAC\CD2 - The Famous Charisma Label\14 - Robert John Godfrey - Mountains.wav

Pre-gap length 0:00:01.52

Peak level 95.0 %
Extraction speed 5.3 X
Track quality 100.0 %
Test CRC 394D5445
Copy CRC 394D5445
Accurately ripped (confidence 1) [49ADB631] (AR v2)
Copy OK

Track 15

Filename C:\Users\Vinter\Music\Va - Prog Rocks! 5CD Box Celebrating 5 Legendary Prog Rock Labels (2013)-FLAC\CD2 - The Famous Charisma Label\15 - Steve Hackett - Hands Of The Priestess (Part I).wav

Pre-gap length 0:00:01.52

Peak level 92.9 %
Extraction speed 4.3 X
Track quality 99.9 %
Test CRC 9B0D1ADB
Copy CRC 9B0D1ADB
Accurately ripped (confidence 1) [E1DA046F] (AR v2)
Copy OK

Track 16

Filename C:\Users\Vinter\Music\Va - Prog Rocks! 5CD Box Celebrating 5 Legendary Prog Rock Labels (2013)-FLAC\CD2 - The Famous Charisma Label\16 - Brand X - Nuclear Burn.wav

Pre-gap length 0:00:01.52

Peak level 87.9 %
Extraction speed 5.5 X
Track quality 100.0 %
Test CRC 4F360012
Copy CRC 4F360012
Accurately ripped (confidence 1) [140B9AB7] (AR v2)
Copy OK


All tracks accurately ripped

No errors occurred

End of status report

–– CUETools DB Plugin V2.1.3

[CTDB TOCID: BVzmPZ1EYjv.2GfbkggumP_vPOc-] found, Submit result: BVzmPZ1EYjv.2GfbkggumP_vPOc- has been confirmed
[914d92b0] (3/3) Accurately ripped


==== Log checksum 125761C3F37FB9719EAE4242DC8CDF53C0671D46637BD45D913C3FBC23B954E8 ====

[CUETools log; Date: 12.03.2020 17:35:41; Version: 2.1.4]
[CTDB TOCID: BVzmPZ1EYjv.2GfbkggumP_vPOc-] found.
Track | CTDB Status
1 | (35/35) Accurately ripped
2 | (35/35) Accurately ripped
3 | (35/35) Accurately ripped
4 | (35/35) Accurately ripped
5 | (32/35) Accurately ripped, or (3/35) differs in 1 samples @00:00:04
6 | (35/35) Accurately ripped
7 | (35/35) Accurately ripped
8 | (35/35) Accurately ripped
9 | (35/35) Accurately ripped
10 | (35/35) Accurately ripped
11 | (34/35) Accurately ripped
12 | (35/35) Accurately ripped
13 | (35/35) Accurately ripped
14 | (35/35) Accurately ripped
15 | (35/35) Accurately ripped
16 | (33/35) Accurately ripped
[AccurateRip ID: 002b02cc-020231ed-da120c10] found.
Track [ CRC | V2 ] Status
01 [798b095a|fbe09fac] (00+22/22) Accurately ripped
02 [9b15fe37|f8ac461d] (00+22/22) Accurately ripped
03 [b18f35d0|48b7eec3] (00+22/22) Accurately ripped
04 [2e2afdfe|e56f2503] (00+22/22) Accurately ripped
05 [7e04d2a4|f710e125] (00+21/21) Accurately ripped
06 [8fbaa948|3c9d596f] (00+22/22) Accurately ripped
07 [c5bb152c|4cca0e48] (00+22/22) Accurately ripped
08 [a568fedf|55ebc9ff] (00+22/22) Accurately ripped
09 [cea4f537|1d031148] (02+21/23) Accurately ripped
10 [7ad29e68|d0b1cbe2] (00+21/21) Accurately ripped
11 [acc14870|47035acd] (00+22/22) Accurately ripped
12 [fd8e1700|88356e86] (00+23/23) Accurately ripped
13 [1f17fce2|5245d955] (00+21/21) Accurately ripped
14 [4d89f75e|49adb631] (00+20/20) Accurately ripped
15 [002b556e|e1da046f] (00+21/21) Accurately ripped
16 [b1067a68|140b9ab7] (00+18/18) Accurately ripped

Track Peak [ CRC32 ] [W/O NULL] [ LOG ]
– 99,6 [1EEE32BA] [4FC80165]
01 90,6 [87B6AE59] [8CA3EFA6] CRC32
02 99,6 [4F9DE18D] [2DB82E2C] CRC32
03 95,1 [6B82B08D] [0AB6AAA4] CRC32
04 91,0 [C2C5EA55] [303FB708] CRC32
05 94,0 [8B62C5FB] [308C4334] CRC32
06 90,6 [B86EF307] [E0FCD8E6] CRC32
07 92,7 [01FDEE02] [86855ED6] CRC32
08 94,7 [A282BF57] [A3AF4E2D] CRC32
09 90,5 [D3EFB4C3] [0F1F3F1D] CRC32
10 90,6 [A577998D] [C4FE8EDC] CRC32
11 94,8 [258A2E97] [94DB8FDB] CRC32
12 93,0 [E2EBFFE7] [922FFF51] CRC32
13 88,1 [4DFE38FF] [166DFADF] CRC32
14 95,0 [394D5445] [336C40E6] CRC32
15 92,9 [9B0D1ADB] [09D5857E] CRC32
16 87,9 [4F360012] [245491FE] CRC32

V.A. - Prog Rocks! Five Discs Celebrating Five Legendary Prog Rock Labels [5CD Box Set] (2013) (Repost)

CD 3 - Virgin Records
EAC Rip | FLAC (tracks+.cue+log) - 396 MB | MP3 CBR 320 kbps (LAME 3.93) - 155 MB
Genre: Progressive Rock, Psychedelic Rock, Folk Rock | RAR 3% Rec. | Label: EMI (50999 7 25075 2 0)

Tracklist:
01. Gong - The Pothead Pixies
02. Faust - Just A Second (Starts Like That!)
03. Hatfield And The North - Fol De Rol
04. Kevin Coyne - Marlene
05. Henry Cow - Teenbeat
06. Egg - Wring Out The Ground (Loosely Now)
07. Comus - To Keep From Crying
08. Slapp Happy - Dawn
09. Gilgamesh - Lady And Friend
10. Clearlight - Jungle Bubbles
11. Tangerine Dream - Stratosfear (7" Single Edit)
12. Daevid Allen - Good Morning
13. Steve Hillage - Electrick Gypsies
14. David Bedford - The Phaecian Games
15. Peter Baumann - M.A.N. Series Two

Total time: 01:06:08

Exact Audio Copy V1.0 beta 3 from 29. August 2011

EAC extraction logfile from 1. June 2013, 0:24

Prog Rocks! / Virgin Records

Used drive : Optiarc DVD RW AD-7240S Adapter: 1 ID: 0

Read mode : Secure
Utilize accurate stream : Yes
Defeat audio cache : Yes
Make use of C2 pointers : No

Read offset correction : 48
Overread into Lead-In and Lead-Out : No
Fill up missing offset samples with silence : Yes
Delete leading and trailing silent blocks : No
Null samples used in CRC calculations : Yes
Used interface : Native Win32 interface for Win NT & 2000
Gap handling : Appended to previous track

Used output format : User Defined Encoder
Selected bitrate : 1024 kBit/s
Quality : High
Add ID3 tag : No
Command line compressor : C:\Program Files (x86)\Exact Audio Copy\Flac\flac.exe
Additional command line options : -8 -V -T "ARTIST=%artist%" -T "TITLE=%title%" -T "ALBUM=%albumtitle%" -T "DATE=%year%" -T "TRACKNUMBER=%tracknr%" -T "GENRE=%genre%" -T "PERFORMER=%albuminterpret%" -T "COMPOSER=%composer%" %haslyrics%–tag-from-file=LYRICS="%lyricsfile%"%haslyrics% -T "ALBUMARTIST=%albumartist%" -T "DISCNUMBER=%cdnumber%" -T "TOTALDISCS=%totalcds%" -T "TOTALTRACKS=%numtracks%" -T "COMMENT=%comment%" %source% -o %dest%


TOC of the extracted CD

Track | Start | Length | Start sector | End sector
––––––––––––––––––––––––––––-
1 | 0:00.00 | 2:59.23 | 0 | 13447
2 | 2:59.23 | 3:36.13 | 13448 | 29660
3 | 6:35.36 | 3:08.27 | 29661 | 43787
4 | 9:43.63 | 2:42.58 | 43788 | 55995
5 | 12:26.46 | 6:42.32 | 55996 | 86177
6 | 19:09.03 | 8:10.57 | 86178 | 122984
7 | 27:19.60 | 5:42.50 | 122985 | 148684
8 | 33:02.35 | 3:19.29 | 148685 | 163638
9 | 36:21.64 | 3:40.29 | 163639 | 180167
10 | 40:02.18 | 2:42.23 | 180168 | 192340
11 | 42:44.41 | 4:15.17 | 192341 | 211482
12 | 46:59.58 | 5:16.21 | 211483 | 235203
13 | 52:16.04 | 6:15.60 | 235204 | 263388
14 | 58:31.64 | 3:57.33 | 263389 | 281196
15 | 62:29.22 | 3:38.13 | 281197 | 297559


Track 1

Filename C:\Users\Vinter\Music\Va - Prog Rocks! 5CD Box Celebrating 5 Legendary Prog Rock Labels (2013)-FLAC\CD3 - Virgin Records\01 - Gong - The Pothead Pixies.wav

Pre-gap length 0:00:02.00

Peak level 94.7 %
Extraction speed 2.1 X
Track quality 100.0 %
Test CRC 3FF0576D
Copy CRC 3FF0576D
Accurately ripped (confidence 1) [7F46D2FC] (AR v2)
Copy OK

Track 2

Filename C:\Users\Vinter\Music\Va - Prog Rocks! 5CD Box Celebrating 5 Legendary Prog Rock Labels (2013)-FLAC\CD3 - Virgin Records\02 - Faust - Just a Second (Starts Like That!).wav

Pre-gap length 0:00:00.52

Peak level 88.9 %
Extraction speed 2.4 X
Track quality 100.0 %
Test CRC 5FB0014E
Copy CRC 5FB0014E
Accurately ripped (confidence 1) [D3441590] (AR v2)
Copy OK

Track 3

Filename C:\Users\Vinter\Music\Va - Prog Rocks! 5CD Box Celebrating 5 Legendary Prog Rock Labels (2013)-FLAC\CD3 - Virgin Records\03 - Hatfield and the North - Fol de Rol.wav

Pre-gap length 0:00:00.50

Peak level 97.6 %
Extraction speed 2.5 X
Track quality 100.0 %
Test CRC 7DCB1173
Copy CRC 7DCB1173
Accurately ripped (confidence 1) [97BAA714] (AR v2)
Copy OK

Track 4

Filename C:\Users\Vinter\Music\Va - Prog Rocks! 5CD Box Celebrating 5 Legendary Prog Rock Labels (2013)-FLAC\CD3 - Virgin Records\04 - Kevin Coyne - Marlene.wav

Pre-gap length 0:00:00.50

Peak level 93.2 %
Extraction speed 2.6 X
Track quality 100.0 %
Test CRC 0349AF9B
Copy CRC 0349AF9B
Accurately ripped (confidence 1) [1DB54385] (AR v2)
Copy OK

Track 5

Filename C:\Users\Vinter\Music\Va - Prog Rocks! 5CD Box Celebrating 5 Legendary Prog Rock Labels (2013)-FLAC\CD3 - Virgin Records\05 - Henry Cow - Teenbeat.wav

Pre-gap length 0:00:00.38

Peak level 99.5 %
Extraction speed 3.2 X
Track quality 100.0 %
Test CRC 971792EC
Copy CRC 971792EC
Accurately ripped (confidence 1) [3087655E] (AR v2)
Copy OK

Track 6

Filename C:\Users\Vinter\Music\Va - Prog Rocks! 5CD Box Celebrating 5 Legendary Prog Rock Labels (2013)-FLAC\CD3 - Virgin Records\06 - Egg - Wring Out the Ground (Loosely Now).wav

Pre-gap length 0:00:01.18

Peak level 93.4 %
Extraction speed 3.6 X
Track quality 100.0 %
Test CRC 19E3F57B
Copy CRC 19E3F57B
Accurately ripped (confidence 1) [709006D9] (AR v2)
Copy OK

Track 7

Filename C:\Users\Vinter\Music\Va - Prog Rocks! 5CD Box Celebrating 5 Legendary Prog Rock Labels (2013)-FLAC\CD3 - Virgin Records\07 - Comus - To Keep from Crying.wav

Pre-gap length 0:00:00.14

Peak level 90.1 %
Extraction speed 3.8 X
Track quality 100.0 %
Test CRC D8F577A6
Copy CRC D8F577A6
Accurately ripped (confidence 1) [1AA9B239] (AR v2)
Copy OK

Track 8

Filename C:\Users\Vinter\Music\Va - Prog Rocks! 5CD Box Celebrating 5 Legendary Prog Rock Labels (2013)-FLAC\CD3 - Virgin Records\08 - Slapp Happy - Dawn.wav

Pre-gap length 0:00:02.73

Peak level 96.5 %
Extraction speed 3.7 X
Track quality 100.0 %
Test CRC CB70A5CC
Copy CRC CB70A5CC
Accurately ripped (confidence 1) [8FE77288] (AR v2)
Copy OK

Track 9

Filename C:\Users\Vinter\Music\Va - Prog Rocks! 5CD Box Celebrating 5 Legendary Prog Rock Labels (2013)-FLAC\CD3 - Virgin Records\09 - Gilgamesh - Lady and Friend.wav

Pre-gap length 0:00:00.50

Peak level 95.1 %
Extraction speed 3.8 X
Track quality 100.0 %
Test CRC 90AEE562
Copy CRC 90AEE562
Accurately ripped (confidence 1) [7012EFDB] (AR v2)
Copy OK

Track 10

Filename C:\Users\Vinter\Music\Va - Prog Rocks! 5CD Box Celebrating 5 Legendary Prog Rock Labels (2013)-FLAC\CD3 - Virgin Records\10 - Clearlight - Jungle Bubbles.wav

Pre-gap length 0:00:00.50

Peak level 93.2 %
Extraction speed 3.2 X
Track quality 99.9 %
Test CRC 0C976150
Copy CRC 0C976150
Accurately ripped (confidence 1) [25F2549C] (AR v2)
Copy OK

Track 11

Filename C:\Users\Vinter\Music\Va - Prog Rocks! 5CD Box Celebrating 5 Legendary Prog Rock Labels (2013)-FLAC\CD3 - Virgin Records\11 - Tangerine Dream - Stratosfear.wav

Pre-gap length 0:00:00.50

Peak level 95.9 %
Extraction speed 4.1 X
Track quality 100.0 %
Test CRC ED536F49
Copy CRC ED536F49
Accurately ripped (confidence 1) [BD12DFE7] (AR v2)
Copy OK

Track 12

Filename C:\Users\Vinter\Music\Va - Prog Rocks! 5CD Box Celebrating 5 Legendary Prog Rock Labels (2013)-FLAC\CD3 - Virgin Records\12 - Daevid Allen - Good Morning.wav

Pre-gap length 0:00:00.49

Peak level 98.2 %
Extraction speed 4.4 X
Track quality 100.0 %
Test CRC D1B5E665
Copy CRC D1B5E665
Accurately ripped (confidence 1) [72AED7F2] (AR v2)
Copy OK

Track 13

Filename C:\Users\Vinter\Music\Va - Prog Rocks! 5CD Box Celebrating 5 Legendary Prog Rock Labels (2013)-FLAC\CD3 - Virgin Records\13 - Steve Hillage - Electrick Gypsies.wav

Pre-gap length 0:00:00.50

Peak level 83.6 %
Extraction speed 4.3 X
Track quality 99.9 %
Test CRC 9E0D5232
Copy CRC 9E0D5232
Accurately ripped (confidence 1) [35CA5968] (AR v2)
Copy OK

Track 14

Filename C:\Users\Vinter\Music\Va - Prog Rocks! 5CD Box Celebrating 5 Legendary Prog Rock Labels (2013)-FLAC\CD3 - Virgin Records\14 - David Bedford - The Phaecian Games.wav

Pre-gap length 0:00:00.50

Peak level 88.6 %
Extraction speed 4.7 X
Track quality 100.0 %
Test CRC D824D1F1
Copy CRC D824D1F1
Accurately ripped (confidence 1) [74FD1133] (AR v2)
Copy OK

Track 15

Filename C:\Users\Vinter\Music\Va - Prog Rocks! 5CD Box Celebrating 5 Legendary Prog Rock Labels (2013)-FLAC\CD3 - Virgin Records\15 - Peter Baumann - M.A.N. Series Two.wav

Pre-gap length 0:00:00.30

Peak level 95.2 %
Extraction speed 4.7 X
Track quality 100.0 %
Test CRC 5DEEF035
Copy CRC 5DEEF035
Accurately ripped (confidence 1) [0CA807B6] (AR v2)
Copy OK


All tracks accurately ripped

No errors occurred

End of status report

–– CUETools DB Plugin V2.1.3

[CTDB TOCID: _FapOnoyRJcg6u9YbFq52I60qAg-] found, Submit result: _FapOnoyRJcg6u9YbFq52I60qAg- has been confirmed
[290f099b] (1/2) Accurately ripped
[3a0e3669] (1/2) Differs in 7537 samples @09:43:08,09:43:25-09:43:32,33:02:06
You can use CUETools to repair this rip.


==== Log checksum B0FEE6FEE1B4F98C218A26B7BB2D6AA79EEF7AEAF054A5B3E9E7C79BF3E2675D ====

[CUETools log; Date: 12.03.2020 17:36:11; Version: 2.1.4]
[CTDB TOCID: _FapOnoyRJcg6u9YbFq52I60qAg-] found.
Track | CTDB Status
1 | (33/33) Accurately ripped
2 | (33/33) Accurately ripped
3 | (24/33) Accurately ripped
4 | (33/33) Accurately ripped
5 | (33/33) Accurately ripped
6 | (33/33) Accurately ripped
7 | (27/33) Accurately ripped
8 | (33/33) Accurately ripped
9 | (33/33) Accurately ripped
10 | (33/33) Accurately ripped
11 | (33/33) Accurately ripped
12 | (33/33) Accurately ripped
13 | (33/33) Accurately ripped
14 | (33/33) Accurately ripped
15 | (33/33) Accurately ripped
[AccurateRip ID: 00237cda-0198ca2e-d10f7f0f] found.
Track [ CRC | V2 ] Status
01 [14d2835a|7f46d2fc] (00+20/20) Accurately ripped
02 [55189c4c|d3441590] (00+19/19) Accurately ripped
03 [9e1f700c|97baa714] (00+13/13) Accurately ripped
04 [03233cf1|1db54385] (00+21/21) Accurately ripped
05 [58d133a0|3087655e] (00+19/19) Accurately ripped
06 [07297d41|709006d9] (00+19/19) Accurately ripped
07 [6618b9c2|1aa9b239] (00+14/18) Accurately ripped
08 [3802a376|8fe77288] (00+19/19) Accurately ripped
09 [14b8e31a|7012efdb] (00+19/19) Accurately ripped
10 [f0983fb6|25f2549c] (00+20/20) Accurately ripped
11 [58aec9cb|bd12dfe7] (00+21/21) Accurately ripped
12 [fd9021a4|72aed7f2] (00+19/19) Accurately ripped
13 [60afdf11|35ca5968] (00+18/18) Accurately ripped
14 [13cb5f12|74fd1133] (00+17/17) Accurately ripped
15 [42c8e41f|0ca807b6] (00+17/17) Accurately ripped

Track Peak [ CRC32 ] [W/O NULL] [ LOG ]
– 99,5 [8F55B149] [42702219]
01 94,7 [3FF0576D] [CA992FEA] CRC32
02 88,9 [5FB0014E] [A5EDC3C8] CRC32
03 97,6 [7DCB1173] [FEE743C5] CRC32
04 93,2 [0349AF9B] [BAB1E2A0] CRC32
05 99,5 [971792EC] [E8453482] CRC32
06 93,4 [19E3F57B] [428E68A6] CRC32
07 90,1 [D8F577A6] [1F50DDAB] CRC32
08 96,5 [CB70A5CC] [257538E1] CRC32
09 95,1 [90AEE562] [39244E62] CRC32
10 93,2 [0C976150] [EA835E59] CRC32
11 95,9 [ED536F49] [7EB9B09C] CRC32
12 98,2 [D1B5E665] [E8341A2F] CRC32
13 83,6 [9E0D5232] [FF3B4DFF] CRC32
14 88,6 [D824D1F1] [5C521F5A] CRC32
15 95,2 [5DEEF035] [3ACEEEAF] CRC32

V.A. - Prog Rocks! Five Discs Celebrating Five Legendary Prog Rock Labels [5CD Box Set] (2013) (Repost)

CD 4 - Liberty
EAC Rip | FLAC (tracks+.cue+log) - 428 MB | MP3 CBR 320 kbps (LAME 3.93) - 155 MB
Genre: Progressive Rock, Psychedelic Rock, Folk Rock | RAR 3% Rec. | Label: EMI (50999 7 25077 2 8)

Tracklist:
01. The Bonzo Dog Band - Mr. Apollo
02. High Tide - Futilist's Lament
03. Idle Race - Come With Me
04. Sugarloaf - Green-Eyed Lady
05. Hawkwind - Master Of The Universe
06. Groundhogs - Cherry Red
07. Cochise - Lost Hearts
08. Ernie Graham - So Lonely
09. Clive John - Out Of My Tree
10. Brinsley Schwarz - Happy Doing What We're Doing
11. Man - California Silks And Satins
12. Robert Calvert - The Aerospaceage Inferno
13. Flaming Groovies - Shake Some Action
14. Deke Leonard - Hiding In The Darkness

Total time: 01:05:57

Exact Audio Copy V1.0 beta 3 from 29. August 2011

EAC extraction logfile from 1. June 2013, 14:24

Prog Rocks! / Liberty

Used drive : Optiarc DVD RW AD-7240S Adapter: 1 ID: 0

Read mode : Secure
Utilize accurate stream : Yes
Defeat audio cache : Yes
Make use of C2 pointers : No

Read offset correction : 48
Overread into Lead-In and Lead-Out : No
Fill up missing offset samples with silence : Yes
Delete leading and trailing silent blocks : No
Null samples used in CRC calculations : Yes
Used interface : Native Win32 interface for Win NT & 2000
Gap handling : Appended to previous track

Used output format : User Defined Encoder
Selected bitrate : 1024 kBit/s
Quality : High
Add ID3 tag : No
Command line compressor : C:\Program Files (x86)\Exact Audio Copy\Flac\flac.exe
Additional command line options : -8 -V -T "ARTIST=%artist%" -T "TITLE=%title%" -T "ALBUM=%albumtitle%" -T "DATE=%year%" -T "TRACKNUMBER=%tracknr%" -T "GENRE=%genre%" -T "PERFORMER=%albuminterpret%" -T "COMPOSER=%composer%" %haslyrics%–tag-from-file=LYRICS="%lyricsfile%"%haslyrics% -T "ALBUMARTIST=%albumartist%" -T "DISCNUMBER=%cdnumber%" -T "TOTALDISCS=%totalcds%" -T "TOTALTRACKS=%numtracks%" -T "COMMENT=%comment%" %source% -o %dest%


TOC of the extracted CD

Track | Start | Length | Start sector | End sector
––––––––––––––––––––––––––––-
1 | 0:00.00 | 4:20.05 | 0 | 19504
2 | 4:20.05 | 5:17.49 | 19505 | 43328
3 | 9:37.54 | 2:42.36 | 43329 | 55514
4 | 12:20.15 | 6:49.20 | 55515 | 86209
5 | 19:09.35 | 6:17.39 | 86210 | 114523
6 | 25:26.74 | 5:44.07 | 114524 | 140330
7 | 31:11.06 | 3:26.46 | 140331 | 155826
8 | 34:37.52 | 3:28.55 | 155827 | 171481
9 | 38:06.32 | 5:17.74 | 171482 | 195330
10 | 43:24.31 | 4:43.23 | 195331 | 216578
11 | 48:07.54 | 4:38.70 | 216579 | 237498
12 | 52:46.49 | 4:39.05 | 237499 | 258428
13 | 57:25.54 | 4:32.16 | 258429 | 278844
14 | 61:57.70 | 3:59.12 | 278845 | 296781


Track 1

Filename C:\Users\Vinter\Music\Va - Prog Rocks! 5CD Box Celebrating 5 Legendary Prog Rock Labels (2013)-FLAC\CD4 - Liberty\01 - The Bonzo Dog Band - Mr. Apollo.wav

Pre-gap length 0:00:02.00

Peak level 96.3 %
Extraction speed 2.3 X
Track quality 100.0 %
Test CRC 0CE7DBF1
Copy CRC 0CE7DBF1
Accurately ripped (confidence 1) [1F3F4C2F] (AR v2)
Copy OK

Track 2

Filename C:\Users\Vinter\Music\Va - Prog Rocks! 5CD Box Celebrating 5 Legendary Prog Rock Labels (2013)-FLAC\CD4 - Liberty\02 - High Tide - Futilist's Lament.wav

Pre-gap length 0:00:00.52

Peak level 96.5 %
Extraction speed 2.6 X
Track quality 100.0 %
Test CRC 7AC54560
Copy CRC 7AC54560
Accurately ripped (confidence 1) [0DB7F6A6] (AR v2)
Copy OK

Track 3

Filename C:\Users\Vinter\Music\Va - Prog Rocks! 5CD Box Celebrating 5 Legendary Prog Rock Labels (2013)-FLAC\CD4 - Liberty\03 - Idle Race - Come With Me.wav

Pre-gap length 0:00:00.52

Peak level 98.7 %
Extraction speed 2.6 X
Track quality 100.0 %
Test CRC D6F8BEF6
Copy CRC D6F8BEF6
Accurately ripped (confidence 1) [6AF9DB47] (AR v2)
Copy OK

Track 4

Filename C:\Users\Vinter\Music\Va - Prog Rocks! 5CD Box Celebrating 5 Legendary Prog Rock Labels (2013)-FLAC\CD4 - Liberty\04 - Sugarloaf - Green-Eyed Lady.wav

Pre-gap length 0:00:00.50

Peak level 82.6 %
Extraction speed 3.2 X
Track quality 100.0 %
Test CRC 8CFBD975
Copy CRC 8CFBD975
Accurately ripped (confidence 1) [32463D79] (AR v2)
Copy OK

Track 5

Filename C:\Users\Vinter\Music\Va - Prog Rocks! 5CD Box Celebrating 5 Legendary Prog Rock Labels (2013)-FLAC\CD4 - Liberty\05 - Hawkwind - Master of the Universe.wav

Pre-gap length 0:00:00.52

Peak level 96.6 %
Extraction speed 3.4 X
Track quality 100.0 %
Test CRC CA411888
Copy CRC CA411888
Accurately ripped (confidence 1) [D204A964] (AR v2)
Copy OK

Track 6

Filename C:\Users\Vinter\Music\Va - Prog Rocks! 5CD Box Celebrating 5 Legendary Prog Rock Labels (2013)-FLAC\CD4 - Liberty\06 - Groundhogs - Cherry Red.wav

Pre-gap length 0:00:00.52

Peak level 92.9 %
Extraction speed 3.6 X
Track quality 100.0 %
Test CRC E8634243
Copy CRC E8634243
Accurately ripped (confidence 1) [60D10A17] (AR v2)
Copy OK

Track 7

Filename C:\Users\Vinter\Music\Va - Prog Rocks! 5CD Box Celebrating 5 Legendary Prog Rock Labels (2013)-FLAC\CD4 - Liberty\07 - Cochise - Lost Hearts.wav

Pre-gap length 0:00:00.52

Peak level 97.6 %
Extraction speed 3.6 X
Track quality 100.0 %
Test CRC 2FD6B810
Copy CRC 2FD6B810
Accurately ripped (confidence 1) [64932EDA] (AR v2)
Copy OK

Track 8

Filename C:\Users\Vinter\Music\Va - Prog Rocks! 5CD Box Celebrating 5 Legendary Prog Rock Labels (2013)-FLAC\CD4 - Liberty\08 - Ernie Graham - So Lonely.wav

Pre-gap length 0:00:00.50

Peak level 98.7 %
Extraction speed 3.7 X
Track quality 100.0 %
Test CRC 6A1AF920
Copy CRC 6A1AF920
Accurately ripped (confidence 1) [5631A7F9] (AR v2)
Copy OK

Track 9

Filename C:\Users\Vinter\Music\Va - Prog Rocks! 5CD Box Celebrating 5 Legendary Prog Rock Labels (2013)-FLAC\CD4 - Liberty\09 - Clive John - Out of My Tree.wav

Pre-gap length 0:00:00.52

Peak level 88.2 %
Extraction speed 4.1 X
Track quality 100.0 %
Test CRC E0C3328F
Copy CRC E0C3328F
Accurately ripped (confidence 1) [65B4A0FC] (AR v2)
Copy OK

Track 10

Filename C:\Users\Vinter\Music\Va - Prog Rocks! 5CD Box Celebrating 5 Legendary Prog Rock Labels (2013)-FLAC\CD4 - Liberty\10 - Brinsley Schwarz - Happy Doing What We're Doing.wav

Pre-gap length 0:00:00.52

Peak level 90.8 %
Extraction speed 4.3 X
Track quality 100.0 %
Test CRC 4B7C1932
Copy CRC 4B7C1932
Accurately ripped (confidence 1) [589CB4D0] (AR v2)
Copy OK

Track 11

Filename C:\Users\Vinter\Music\Va - Prog Rocks! 5CD Box Celebrating 5 Legendary Prog Rock Labels (2013)-FLAC\CD4 - Liberty\11 - Man - California Silks and Satins.wav

Pre-gap length 0:00:00.50

Peak level 93.0 %
Extraction speed 4.5 X
Track quality 100.0 %
Test CRC BFF6344B
Copy CRC BFF6344B
Accurately ripped (confidence 1) [A08F16CF] (AR v2)
Copy OK

Track 12

Filename C:\Users\Vinter\Music\Va - Prog Rocks! 5CD Box Celebrating 5 Legendary Prog Rock Labels (2013)-FLAC\CD4 - Liberty\12 - Robert Calvert - The Aerospaceage Inferno.wav

Pre-gap length 0:00:00.50

Peak level 99.3 %
Extraction speed 4.6 X
Track quality 100.0 %
Test CRC 48BC4A18
Copy CRC 48BC4A18
Accurately ripped (confidence 1) [97FB449A] (AR v2)
Copy OK

Track 13

Filename C:\Users\Vinter\Music\Va - Prog Rocks! 5CD Box Celebrating 5 Legendary Prog Rock Labels (2013)-FLAC\CD4 - Liberty\13 - Flaming Groovies - Skake Some Action.wav

Pre-gap length 0:00:00.49

Peak level 92.2 %
Extraction speed 4.2 X
Track quality 99.9 %
Test CRC F5239B27
Copy CRC F5239B27
Accurately ripped (confidence 1) [5C985C68] (AR v2)
Copy OK

Track 14

Filename C:\Users\Vinter\Music\Va - Prog Rocks! 5CD Box Celebrating 5 Legendary Prog Rock Labels (2013)-FLAC\CD4 - Liberty\14 - Deke Leonard - Hiding In the Darkness.wav

Pre-gap length 0:00:00.50

Peak level 99.3 %
Extraction speed 4.7 X
Track quality 100.0 %
Test CRC AAEB14EA
Copy CRC AAEB14EA
Accurately ripped (confidence 1) [79648741] (AR v2)
Copy OK


All tracks accurately ripped

No errors occurred

End of status report

–– CUETools DB Plugin V2.1.3

[CTDB TOCID: lj6hC13e4zS6QI4XYoRHlqgoOXI-] found, Submit result: lj6hC13e4zS6QI4XYoRHlqgoOXI- has been confirmed
[4c6b2306] (2/2) Accurately ripped


==== Log checksum 249A87B61885A34FBE39CFDCA9290FB69F33833BFBC033FFFCA7086CBECD2D5A ====

[CUETools log; Date: 12.03.2020 17:36:48; Version: 2.1.4]
[CTDB TOCID: lj6hC13e4zS6QI4XYoRHlqgoOXI-] found.
Track | CTDB Status
1 | (31/31) Accurately ripped
2 | (31/31) Accurately ripped
3 | (31/31) Accurately ripped
4 | (31/31) Accurately ripped
5 | (31/31) Accurately ripped
6 | (31/31) Accurately ripped
7 | (31/31) Accurately ripped
8 | (31/31) Accurately ripped
9 | (31/31) Accurately ripped
10 | (31/31) Accurately ripped
11 | (31/31) Accurately ripped
12 | (31/31) Accurately ripped
13 | (31/31) Accurately ripped
14 | (31/31) Accurately ripped
[AccurateRip ID: 0022a3ec-0170fe37-e00f750e] found.
Track [ CRC | V2 ] Status
01 [8b95d50c|1f3f4c2f] (00+21/21) Accurately ripped
02 [a5d24c7a|0db7f6a6] (00+21/21) Accurately ripped
03 [0b6fad2b|6af9db47] (00+21/21) Accurately ripped
04 [7b9b6347|32463d79] (00+21/21) Accurately ripped
05 [5c673434|d204a964] (00+21/21) Accurately ripped
06 [3e5b350e|60d10a17] (00+21/21) Accurately ripped
07 [07a69e82|64932eda] (00+21/21) Accurately ripped
08 [4e3dbbd0|5631a7f9] (00+21/21) Accurately ripped
09 [33417330|65b4a0fc] (00+21/21) Accurately ripped
10 [b3f866aa|589cb4d0] (00+21/21) Accurately ripped
11 [ddaee269|a08f16cf] (00+22/22) Accurately ripped
12 [003ee465|97fb449a] (00+21/21) Accurately ripped
13 [b093086d|5c985c68] (00+21/21) Accurately ripped
14 [be4c73ff|79648741] (00+23/23) Accurately ripped

Track Peak [ CRC32 ] [W/O NULL] [ LOG ]
– 99,3 [1E6AAB67] [B4D1E565]
01 96,3 [0CE7DBF1] [7746D69F] CRC32
02 96,5 [7AC54560] [02F1CCA4] CRC32
03 98,7 [D6F8BEF6] [8FD6C4B5] CRC32
04 82,5 [8CFBD975] [0F8CFCBA] CRC32
05 96,6 [CA411888] [4A79A662] CRC32
06 92,9 [E8634243] [9720B550] CRC32
07 97,6 [2FD6B810] [175421D3] CRC32
08 98,7 [6A1AF920] [DE3B6BF1] CRC32
09 88,2 [E0C3328F] [8E387C29] CRC32
10 90,8 [4B7C1932] [4818853E] CRC32
11 93,0 [BFF6344B] [B8937E93] CRC32
12 99,3 [48BC4A18] [EC4FC198] CRC32
13 92,2 [F5239B27] [0B99AB0C] CRC32
14 99,3 [AAEB14EA] [07F5D21F] CRC32

V.A. - Prog Rocks! Five Discs Celebrating Five Legendary Prog Rock Labels [5CD Box Set] (2013) (Repost)

CD 5 - Inside Out Music
EAC Rip | FLAC (tracks+.cue+log) - 508 MB | MP3 CBR 320 kbps (LAME 3.93) - 182 MB
Genre: Progressive Rock | RAR 3% Rec. | Label: EMI (50999 7 25079 2 6)

Tracklist:
01. Enchant - Nighttime Sky
02. Pain Of Salvation - Undertow
03. Spock's Beard - On A Perfect Day
04. Riverside - Conceiving You
05. Beardfish - Sunrise
06. The Flower Kings - Life In Motion
07. Demians - The Perfect Symmetry
08. Steve Hackett - A Place Called Freedom
09. It Bites - The Last Escape
10. Arjen Anthony Lucassen - Lost In The New Real

Total time: 01:17:27

Exact Audio Copy V1.0 beta 3 from 29. August 2011

EAC extraction logfile from 1. June 2013, 15:14

Prog Rocks! / Inside Out Music

Used drive : Optiarc DVD RW AD-7240S Adapter: 1 ID: 0

Read mode : Secure
Utilize accurate stream : Yes
Defeat audio cache : Yes
Make use of C2 pointers : No

Read offset correction : 48
Overread into Lead-In and Lead-Out : No
Fill up missing offset samples with silence : Yes
Delete leading and trailing silent blocks : No
Null samples used in CRC calculations : Yes
Used interface : Native Win32 interface for Win NT & 2000
Gap handling : Appended to previous track

Used output format : User Defined Encoder
Selected bitrate : 1024 kBit/s
Quality : High
Add ID3 tag : No
Command line compressor : C:\Program Files (x86)\Exact Audio Copy\Flac\flac.exe
Additional command line options : -8 -V -T "ARTIST=%artist%" -T "TITLE=%title%" -T "ALBUM=%albumtitle%" -T "DATE=%year%" -T "TRACKNUMBER=%tracknr%" -T "GENRE=%genre%" -T "PERFORMER=%albuminterpret%" -T "COMPOSER=%composer%" %haslyrics%–tag-from-file=LYRICS="%lyricsfile%"%haslyrics% -T "ALBUMARTIST=%albumartist%" -T "DISCNUMBER=%cdnumber%" -T "TOTALDISCS=%totalcds%" -T "TOTALTRACKS=%numtracks%" -T "COMMENT=%comment%" %source% -o %dest%


TOC of the extracted CD

Track | Start | Length | Start sector | End sector
––––––––––––––––––––––––––––-
1 | 0:00.00 | 8:58.47 | 0 | 40396
2 | 8:58.47 | 4:48.61 | 40397 | 62057
3 | 13:47.33 | 7:43.59 | 62058 | 96841
4 | 21:31.17 | 3:41.58 | 96842 | 113474
5 | 25:13.00 | 7:56.33 | 113475 | 149207
6 | 33:09.33 | 12:34.29 | 149208 | 205786
7 | 45:43.62 | 9:20.33 | 205787 | 247819
8 | 55:04.20 | 5:57.30 | 247820 | 274624
9 | 61:01.50 | 6:08.02 | 274625 | 302226
10 | 67:09.52 | 10:17.49 | 302227 | 348550


Track 1

Filename C:\Users\Vinter\Music\Va - Prog Rocks! 5CD Box Celebrating 5 Legendary Prog Rock Labels (2013)-FLAC\CD5 - Inside Out Music\01 - Enchant - Nighttime Sky.wav

Pre-gap length 0:00:02.00

Peak level 89.9 %
Extraction speed 2.8 X
Track quality 100.0 %
Test CRC 45A29CAD
Copy CRC 45A29CAD
Accurately ripped (confidence 1) [DD578AE8] (AR v2)
Copy OK

Track 2

Filename C:\Users\Vinter\Music\Va - Prog Rocks! 5CD Box Celebrating 5 Legendary Prog Rock Labels (2013)-FLAC\CD5 - Inside Out Music\02 - Pain of Salvation - Undertow.wav

Pre-gap length 0:00:01.06

Peak level 87.0 %
Extraction speed 2.7 X
Track quality 99.9 %
Test CRC F1630C75
Copy CRC F1630C75
Accurately ripped (confidence 1) [95BD8AD6] (AR v2)
Copy OK

Track 3

Filename C:\Users\Vinter\Music\Va - Prog Rocks! 5CD Box Celebrating 5 Legendary Prog Rock Labels (2013)-FLAC\CD5 - Inside Out Music\03 - Spock's Beard - On a Perfect Day.wav

Pre-gap length 0:00:01.20

Peak level 100.0 %
Extraction speed 3.3 X
Track quality 99.9 %
Test CRC 42FC816F
Copy CRC 42FC816F
Accurately ripped (confidence 1) [4469FF81] (AR v2)
Copy OK

Track 4

Filename C:\Users\Vinter\Music\Va - Prog Rocks! 5CD Box Celebrating 5 Legendary Prog Rock Labels (2013)-FLAC\CD5 - Inside Out Music\04 - Riverside - Conceiving You.wav

Pre-gap length 0:00:00.85

Peak level 98.8 %
Extraction speed 3.0 X
Track quality 99.9 %
Test CRC 01A163DB
Copy CRC 01A163DB
Accurately ripped (confidence 1) [5B4ACDBE] (AR v2)
Copy OK

Track 5

Filename C:\Users\Vinter\Music\Va - Prog Rocks! 5CD Box Celebrating 5 Legendary Prog Rock Labels (2013)-FLAC\CD5 - Inside Out Music\05 - Beardfish - Sunrise.wav

Pre-gap length 0:00:00.58

Peak level 99.9 %
Extraction speed 3.8 X
Track quality 99.9 %
Test CRC 2CFBB77A
Copy CRC 2CFBB77A
Accurately ripped (confidence 1) [3E02F7AC] (AR v2)
Copy OK

Track 6

Filename C:\Users\Vinter\Music\Va - Prog Rocks! 5CD Box Celebrating 5 Legendary Prog Rock Labels (2013)-FLAC\CD5 - Inside Out Music\06 - The Flower Kings - Life in Motion.wav

Pre-gap length 0:00:01.60

Peak level 100.0 %
Extraction speed 4.6 X
Track quality 100.0 %
Test CRC F4907ADB
Copy CRC F4907ADB
Accurately ripped (confidence 1) [E3DC4516] (AR v2)
Copy OK

Track 7

Filename C:\Users\Vinter\Music\Va - Prog Rocks! 5CD Box Celebrating 5 Legendary Prog Rock Labels (2013)-FLAC\CD5 - Inside Out Music\07 - Demians - The Perfect Symmetry.wav

Pre-gap length 0:00:00.73

Peak level 88.5 %
Extraction speed 5.0 X
Track quality 100.0 %
Test CRC 2AB26F07
Copy CRC 2AB26F07
Accurately ripped (confidence 1) [4F48F4D8] (AR v2)
Copy OK

Track 8

Filename C:\Users\Vinter\Music\Va - Prog Rocks! 5CD Box Celebrating 5 Legendary Prog Rock Labels (2013)-FLAC\CD5 - Inside Out Music\08 - Steve Hackett - A Place Called Freedom.wav

Pre-gap length 0:00:01.16

Peak level 94.9 %
Extraction speed 5.1 X
Track quality 100.0 %
Test CRC B92F4B52
Copy CRC B92F4B52
Accurately ripped (confidence 1) [66128092] (AR v2)
Copy OK

Track 9

Filename C:\Users\Vinter\Music\Va - Prog Rocks! 5CD Box Celebrating 5 Legendary Prog Rock Labels (2013)-FLAC\CD5 - Inside Out Music\09 - It Bites - The Last Escape.wav

Pre-gap length 0:00:00.30

Peak level 97.7 %
Extraction speed 5.3 X
Track quality 100.0 %
Test CRC 6E396E31
Copy CRC 6E396E31
Accurately ripped (confidence 1) [09986109] (AR v2)
Copy OK

Track 10

Filename C:\Users\Vinter\Music\Va - Prog Rocks! 5CD Box Celebrating 5 Legendary Prog Rock Labels (2013)-FLAC\CD5 - Inside Out Music\10 - Arjen Anthony Lucassen - Lost in the New Real.wav

Pre-gap length 0:00:01.24

Peak level 98.4 %
Extraction speed 5.7 X
Track quality 100.0 %
Test CRC 79C54661
Copy CRC 79C54661
Accurately ripped (confidence 1) [9A5D10EE] (AR v2)
Copy OK


All tracks accurately ripped

No errors occurred

End of status report

–– CUETools DB Plugin V2.1.3

[CTDB TOCID: U2Eg7_ZQ5_fJKDvyPrd5gCZedfk-] found, Submit result: U2Eg7_ZQ5_fJKDvyPrd5gCZedfk- has been confirmed
[487d9fbb] (2/2) Accurately ripped


==== Log checksum 6DC456723CF7DA4AE918DBF2605FEEABC607B5F7AF904B1F72836E0BF1347E29 ====

[CUETools log; Date: 12.03.2020 17:37:16; Version: 2.1.4]
[CTDB TOCID: U2Eg7_ZQ5_fJKDvyPrd5gCZedfk-] found.
Track | CTDB Status
1 | (32/32) Accurately ripped
2 | (32/32) Accurately ripped
3 | (32/32) Accurately ripped
4 | (32/32) Accurately ripped
5 | (32/32) Accurately ripped
6 | (32/32) Accurately ripped
7 | (32/32) Accurately ripped
8 | (32/32) Accurately ripped
9 | (32/32) Accurately ripped
10 | (32/32) Accurately ripped
[AccurateRip ID: 001c175e-00e2de11-8512270a] found.
Track [ CRC | V2 ] Status
01 [bb469c1a|dd578ae8] (00+21/21) Accurately ripped
02 [f0d08dec|95bd8ad6] (00+22/22) Accurately ripped
03 [5a61207b|4469ff81] (00+22/22) Accurately ripped
04 [7b093c5e|5b4acdbe] (00+22/22) Accurately ripped
05 [e72f2279|3e02f7ac] (00+21/21) Accurately ripped
06 [b4c553e7|e3dc4516] (00+20/20) Accurately ripped
07 [515bb49a|4f48f4d8] (00+21/21) Accurately ripped
08 [eb0d22ec|66128092] (00+21/21) Accurately ripped
09 [d46c127e|09986109] (00+20/20) Accurately ripped
10 [05717f48|9a5d10ee] (00+20/20) Accurately ripped

Track Peak [ CRC32 ] [W/O NULL] [ LOG ]
– 100,0 [5A92C786] [AE876BF4]
01 89,9 [45A29CAD] [02758725] CRC32
02 87,0 [F1630C75] [05C467E2] CRC32
03 100,0 [42FC816F] [CA7F4B27] CRC32
04 98,8 [01A163DB] [90087FEF] CRC32
05 99,9 [2CFBB77A] [CD33AD54] CRC32
06 100,0 [F4907ADB] [B14C3F72] CRC32
07 88,5 [2AB26F07] [1F0C8F61] CRC32
08 94,9 [B92F4B52] [9DC78E87] CRC32
09 97,7 [6E396E31] [DE30FA91] CRC32
10 98,4 [79C54661] [C14FB79E] CRC32

Thanks to Goggelicious