Tags
Language
Tags

VA - The Glory Of Love: A 1990 Super Popgala (1990)

Posted By: JET 1
VA - The Glory Of Love: A 1990 Super Popgala (1990)

VA - The Glory Of Love: A 1990 Super Popgala (1990)
EAC Rip | FLAC (Tracks) +CUE, LOG | 425 MB | Scans
Genre: Pop, Rock, Ballad, Jazz | Label: Magnum / Polydor Records | Catalog Number: 840 8072

17 Track dutch compilation featuring Phil Collins, Carly Simon, Van Morrison, Simply Red & More.

Exact Audio Copy V1.3 from 2. September 2016

EAC extraction logfile from 4. December 2019, 17:03

Various Artists / The Glory Of Love - A 1990 Super Popgala

Used drive : HL-DT-STDVDRAM GT60N Adapter: 1 ID: 0

Read mode : Secure
Utilize accurate stream : Yes
Defeat audio cache : Yes
Make use of C2 pointers : No

Read offset correction : 103
Overread into Lead-In and Lead-Out : No
Fill up missing offset samples with silence : Yes
Delete leading and trailing silent blocks : No
Null samples used in CRC calculations : Yes
Used interface : Native Win32 interface for Win NT & 2000
Gap handling : Appended to previous track

Used output format : User Defined Encoder
Selected bitrate : 1024 kBit/s
Quality : High
Add ID3 tag : No
Command line compressor : C:\Program Files (x86)\Exact Audio Copy\Flac\flac.exe
Additional command line options : -8 -V -T "ARTIST=%artist%" -T "TITLE=%title%" -T "ALBUM=%albumtitle%" -T "DATE=%year%" -T "TRACKNUMBER=%tracknr%" -T "GENRE=%genre%" -T "PERFORMER=%albuminterpret%" -T "COMPOSER=%composer%" %haslyrics%–tag-from-file=LYRICS="%lyricsfile%"%haslyrics% -T "ALBUMARTIST=%albumartist%" -T "DISCNUMBER=%cdnumber%" -T "TOTALDISCS=%totalcds%" -T "TOTALTRACKS=%numtracks%" -T "COMMENT=%comment%" %source% -o %dest%


TOC of the extracted CD

Track | Start | Length | Start sector | End sector
––––––––––––––––––––––––––––-
1 | 0:00.33 | 3:36.00 | 33 | 16232
2 | 3:36.33 | 3:32.00 | 16233 | 32132
3 | 7:08.33 | 3:35.00 | 32133 | 48257
4 | 10:43.33 | 4:22.00 | 48258 | 67907
5 | 15:05.33 | 4:58.50 | 67908 | 90307
6 | 20:04.08 | 5:09.25 | 90308 | 113507
7 | 25:13.33 | 2:55.00 | 113508 | 126632
8 | 28:08.33 | 5:06.00 | 126633 | 149582
9 | 33:14.33 | 4:03.00 | 149583 | 167807
10 | 37:17.33 | 4:00.00 | 167808 | 185807
11 | 41:17.33 | 3:28.00 | 185808 | 201407
12 | 44:45.33 | 4:09.00 | 201408 | 220082
13 | 48:54.33 | 5:45.00 | 220083 | 245957
14 | 54:39.33 | 4:17.00 | 245958 | 265232
15 | 58:56.33 | 7:07.00 | 265233 | 297257
16 | 66:03.33 | 3:31.00 | 297258 | 313082
17 | 69:34.33 | 4:20.00 | 313083 | 332582


Track 1

Filename D:\Temp\EAC Rips\01 - Linda Ronstadt feat. Aaron Neville - Don’t Know Much.wav

Pre-gap length 0:00:02.44

Peak level 88.9 %
Extraction speed 1.2 X
Track quality 100.0 %
Test CRC 91DECEEF
Copy CRC 91DECEEF
Accurately ripped (confidence 21) [67C4C6F7] (AR v2)
Copy OK

Track 2

Filename D:\Temp\EAC Rips\02 - Phil Collins - Groovy Kind of Love.wav

Pre-gap length 0:00:02.17

Peak level 83.3 %
Extraction speed 1.3 X
Track quality 100.0 %
Test CRC B434CB3E
Copy CRC B434CB3E
Accurately ripped (confidence 22) [9A1C9D78] (AR v2)
Copy OK

Track 3

Filename D:\Temp\EAC Rips\03 - Carly Simon - It’s Hard to Be Tender.wav

Pre-gap length 0:00:03.00

Peak level 86.2 %
Extraction speed 1.4 X
Track quality 100.0 %
Test CRC DC7734CD
Copy CRC DC7734CD
Accurately ripped (confidence 22) [B84DC6C4] (AR v2)
Copy OK

Track 4

Filename D:\Temp\EAC Rips\04 - Van Morrison - Have I Told You Lately That I Love You.wav

Pre-gap length 0:00:03.33

Peak level 88.8 %
Extraction speed 1.6 X
Track quality 100.0 %
Test CRC 148293F3
Copy CRC 148293F3
Accurately ripped (confidence 22) [98158258] (AR v2)
Copy OK

Track 5

Filename D:\Temp\EAC Rips\05 - Randy Crawford - Knockin’ on Heaven’s Door.wav

Pre-gap length 0:00:02.84

Peak level 96.3 %
Extraction speed 1.7 X
Track quality 100.0 %
Test CRC ECDEACF7
Copy CRC ECDEACF7
Accurately ripped (confidence 22) [0B9FF0EE] (AR v2)
Copy OK

Track 6

Filename D:\Temp\EAC Rips\06 - Chris Rea - On the Beach.wav

Pre-gap length 0:00:01.66

Peak level 94.3 %
Extraction speed 1.8 X
Track quality 100.0 %
Test CRC F9713D30
Copy CRC F9713D30
Accurately ripped (confidence 22) [55DF81CF] (AR v2)
Copy OK

Track 7

Filename D:\Temp\EAC Rips\07 - Tanita Tikaram - Cathedral Song.wav

Pre-gap length 0:00:02.50

Peak level 72.0 %
Extraction speed 1.8 X
Track quality 100.0 %
Test CRC E6F5D056
Copy CRC E6F5D056
Accurately ripped (confidence 22) [6A4E8B0F] (AR v2)
Copy OK

Track 8

Filename D:\Temp\EAC Rips\08 - Ray Charles & Dee Dee Bridgewater - Precious Thing (Till the Next… Somewhere).wav

Pre-gap length 0:00:02.50

Peak level 95.5 %
Extraction speed 2.0 X
Track quality 100.0 %
Test CRC 3A1DC1F1
Copy CRC 3A1DC1F1
Accurately ripped (confidence 21) [7EB9DF2B] (AR v2)
Copy OK

Track 9

Filename D:\Temp\EAC Rips\09 - George Benson - Nothing’s Gonna Change My Love for You.wav

Pre-gap length 0:00:02.84

Peak level 90.9 %
Extraction speed 1.8 X
Track quality 99.9 %
Test CRC EE68D51E
Copy CRC EE68D51E
Accurately ripped (confidence 22) [B2053BE6] (AR v2)
Copy OK

Track 10

Filename D:\Temp\EAC Rips\10 - Gloria Estefan - Can’t Stay Away From You.wav

Pre-gap length 0:00:01.84

Peak level 96.2 %
Extraction speed 1.8 X
Track quality 99.9 %
Test CRC FA4BA12C
Copy CRC FA4BA12C
Accurately ripped (confidence 21) [1574BF95] (AR v2)
Copy OK

Track 11

Filename D:\Temp\EAC Rips\11 - Simply Red - If You Don’t Know Me by Now.wav

Pre-gap length 0:00:03.33

Peak level 69.7 %
Extraction speed 2.1 X
Track quality 100.0 %
Test CRC EC38381F
Copy CRC EC38381F
Accurately ripped (confidence 21) [30252FD4] (AR v2)
Copy OK

Track 12

Filename D:\Temp\EAC Rips\12 - Marilyn Martin - Move Closer.wav

Pre-gap length 0:00:03.66

Peak level 73.6 %
Extraction speed 2.0 X
Track quality 99.9 %
Test CRC E31C91A0
Copy CRC E31C91A0
Accurately ripped (confidence 21) [0EA4CE66] (AR v2)
Copy OK

Track 13

Filename D:\Temp\EAC Rips\13 - Elton John - Nikita.wav

Pre-gap length 0:00:01.50

Peak level 72.7 %
Extraction speed 2.4 X
Track quality 100.0 %
Test CRC A5E0CED8
Copy CRC A5E0CED8
Accurately ripped (confidence 22) [DC736F0A] (AR v2)
Copy OK

Track 14

Filename D:\Temp\EAC Rips\14 - Chris de Burgh - Lady in Red.wav

Pre-gap length 0:00:02.50

Peak level 87.3 %
Extraction speed 2.4 X
Track quality 100.0 %
Test CRC F3738257
Copy CRC F3738257
Accurately ripped (confidence 19) [47525CB1] (AR v2)
Copy OK

Track 15

Filename D:\Temp\EAC Rips\15 - Barry White - Just the Way You Are.wav

Pre-gap length 0:00:01.17

Peak level 93.9 %
Extraction speed 2.6 X
Track quality 100.0 %
Test CRC AD6E76A3
Copy CRC AD6E76A3
Accurately ripped (confidence 19) [624A7F88] (AR v2)
Copy OK

Track 16

Filename D:\Temp\EAC Rips\16 - Viktor Lazlo - You Are My Man.wav

Pre-gap length 0:00:02.66

Peak level 76.5 %
Extraction speed 2.5 X
Track quality 100.0 %
Test CRC 7CF4F2D0
Copy CRC 7CF4F2D0
Accurately ripped (confidence 19) [7B59F627] (AR v2)
Copy OK

Track 17

Filename D:\Temp\EAC Rips\17 - Peter Cetera - Glory of Love.wav

Pre-gap length 0:00:02.17

Peak level 89.3 %
Extraction speed 2.6 X
Track quality 100.0 %
Test CRC 47ECBD9F
Copy CRC 47ECBD9F
Accurately ripped (confidence 20) [CEFCF24B] (AR v2)
Copy OK


All tracks accurately ripped

No errors occurred

End of status report

–– CUETools DB Plugin V2.1.6

[CTDB TOCID: xdDl0KX3i1UXQkvg6F91sT0vT6g-] found
Submit result: already submitted
Track | CTDB Status
1 | (39/40) Accurately ripped
2 | (39/40) Accurately ripped
3 | (39/40) Accurately ripped
4 | (39/40) Accurately ripped
5 | (38/40) Accurately ripped
6 | (37/40) Accurately ripped
7 | (39/40) Accurately ripped
8 | (38/40) Accurately ripped
9 | (37/40) Accurately ripped
10 | (39/40) Accurately ripped
11 | (39/40) Accurately ripped
12 | (39/40) Accurately ripped
13 | (38/40) Accurately ripped
14 | (38/40) Accurately ripped
15 | (38/40) Accurately ripped
16 | (37/40) Accurately ripped
17 | (38/40) Accurately ripped


==== Log checksum 6C24F4DA8C7939330F70EB8958E807F7AA021B238BE4A54A5AD7F91D19435061 ====

Tracklist :::
01. Linda Ronstadt feat. Aaron Neville - Don’t Know Much (3:36)
02. Phil Collins - Groovy Kind of Love (3:32)
03. Carly Simon - It’s Hard to Be Tender (3:35)
04. Van Morrison - Have I Told You Lately That I Love You (4:22)
05. Randy Crawford - Knockin’ on Heaven’s Door (4:59)
06. Chris Rea - On the Beach (5:09)
07. Tanita Tikaram - Cathedral Song (2:55)
08. Ray Charles & Dee Dee Bridgewater - Precious Thing (Till the Next… Somewhere) (5:06)
09. George Benson - Nothing’s Gonna Change My Love for You (4:03)
10. Gloria Estefan - Can’t Stay Away From You (4:00)
11. Simply Red - If You Don’t Know Me by Now (3:28)
12. Marilyn Martin - Move Closer (4:09)
13. Elton John - Nikita (5:45)
14. Chris de Burgh - Lady in Red (4:17)
15. Barry White - Just the Way You Are (7:07)
16. Viktor Lazlo - You Are My Man (3:31)
17. Peter Cetera - Glory of Love (4:20)