Subcategories

V.A. - The Story Of Vocal Jazz 1911-1940 [10CD Box Set] (2004)

Posted By: gribovar
V.A. - The Story Of Vocal Jazz 1911-1940 [10CD Box Set] (2004)

V.A. - The Story Of Vocal Jazz 1911-1940 [10CD Box Set] (2004)
EAC Rip | FLAC (image+.cue+log) - 2,95 GB | MP3 CBR 320 kbps (LAME 3.93) - 1,78 GB | Covers - 39 MB
Genre: Vocal Jazz, Swing, Blues | RAR 3% Rec. | Label: Le Chant Du Monde (574 1301.10)

A chronological history of jazz vocal presented by André Francis and Jean Schwarz. 10 CDs with more than 12 hours of music.
The resulting 2 boxed sets of 10 CDs in each, unlike any other available today, groups together the main vocalists in the story of jazz from the first half of the 20th century. Each of these 20 CDs offers in more or less the same proportion, the purest of African-American song with gospel and blues singers, from truculent Ma Rainey to majestic Bessie Smith, sophisticated Sarah Vaughan to popular Louis Prima, the folk-related tones of Charlie Patton to the honeyed voice of Frank Sinatra.

V.A. - The Story Of Vocal Jazz 1911-1940 [10CD Box Set] (2004)

CD 1
EAC Rip | FLAC (image+.cue+log) - 288 MB | MP3 CBR 320 kbps (LAME 3.93) - 183 MB | Covers included
Genre: Vocal Jazz, Swing, Blues | RAR 3% Rec. | Label: Le Chant Du Monde (574 1301)

Tracklist:
01. Sophie Tucker - Some of These Days [1911] (4:13)
02. Fisk University Jubilee Quartet - Roll Jordan Roll [1913] (2:41)
03. Marion Harris - After You've Gone [1918] (3:17)
04. Mamie Smith - Crazy Blues [1920] (3:28)
05. Bessie Smith - Down Hearted Blues [1923] (3:27)
06. Ida Cox - I've Got the Blues for Rampart Street [1923] (2:48)
07. Bessie Smith - Graveyard Dream Blues [1923] (2:46)
08. Esther Bijeou - West Indies Blues [1923] (2:47)
09. Ida Cox - Blues Ain't Nothin' Else But! [1924] (3:13)
10. Bessie Smith - Boweavil Blues [1924] (2:53)
11. Bessie Smith - Weeping Willow Blues [1924] (3:11)
12. Alberta Hunter - Nobody Knows the Way I Feel Dis Mornin' [1924] (2:50)
13. Blind Lemon Jefferson - Black Snake Moan [1925] (2:55)
14. Eva Taylor - Cake Walking Babies from Home [1925] (3:02)
15. Ethel Waters - Sweet Georgia Brown [1925] (3:10)
16. Bessie Smith - Soft Pedal Blues [1925] (3:21)
17. Bessie Smith - Careless Love [1925] (3:28)
18. Ethel Waters - Shake That Thing [1925] (3:12)
19. Blind Blake - Too Tight Blues [1926] (2:56)
20. Paul Robeson - Sometimes I Feel like a Motherless Child [1926] (3:02)
21. Fred & Adele Astaire - Fascinating Rhythm [1926] (2:24)
22. Reverend J.M. Gates - Death's Black Train Is Comin' [1926] (3:03)
23. Bessie Smith & Her Blue Boys - Young Woman Blues [1926] (3:10)
24. Bertha 'Chippie' Hill - Pratt City Blues [1926] (2:55)
25. Lonnie Johnson - Mean Old Bedbug Blues [1927] (2:54)

Total time: 01:17:19

Exact Audio Copy V0.99 prebeta 4 from 23. January 2008

Отчёт EAC об извлечении, выполненном 21. августа 2009, 10:31

Various / The Story of Vocal Jazz: 1911-1940 [disc 1]

Дисковод: Optiarc DVD RW AD-7170A Adapter: 0 ID: 0

Режим чтения : Достоверность
Использование точного потока : Да
Отключение кэша аудио : Да
Использование указателей C2 : Нет

Коррекция смещения при чтении : 48
Способность читать области Lead-in и Lead-out : Нет
Заполнение пропущенных сэмплов тишиной : Да
Удаление блоков с тишиной в начале и конце : Нет
При вычислениях CRC использовались нулевые сэмплы : Да
Интерфейс : Встроенный Win32-интерфейс для Win NT/2000

Выходной формат : Пользовательский кодировщик
Выбранный битрейт : 768 kBit/s
Качество : Высокий
Добавление ID3-тэга : Да
Утилита сжатия : C:\Program Files\Exact Audio Copy\Flac\flac.exe
Дополнительные параметры : -6 -V -T "ARTIST=%a" -T "TITLE=%t" -T "ALBUM=%g" -T "DATE=%y" -T "TRACKNUMBER=%n" -T "GENRE=%m" -T "COMMENT=%e" %s -o %d


TOC извлечённого CD

Трек | Старт | Длительность | Начальный сектор | Конечный сектор
––––––––––––––––––––––––––––––––––-
1 | 0:00.00 | 4:13.33 | 0 | 19007
2 | 4:13.33 | 2:41.18 | 19008 | 31100
3 | 6:54.51 | 3:17.72 | 31101 | 45947
4 | 10:12.48 | 3:28.15 | 45948 | 61562
5 | 13:40.63 | 3:27.74 | 61563 | 77161
6 | 17:08.62 | 2:48.69 | 77162 | 89830
7 | 19:57.56 | 2:46.19 | 89831 | 102299
8 | 22:44.00 | 2:47.00 | 102300 | 114824
9 | 25:31.00 | 3:13.16 | 114825 | 129315
10 | 28:44.16 | 2:53.61 | 129316 | 142351
11 | 31:38.02 | 3:11.74 | 142352 | 156750
12 | 34:50.01 | 2:50.03 | 156751 | 169503
13 | 37:40.04 | 2:55.10 | 169504 | 182638
14 | 40:35.14 | 3:02.61 | 182639 | 196349
15 | 43:38.00 | 3:10.19 | 196350 | 210618
16 | 46:48.19 | 3:21.32 | 210619 | 225725
17 | 50:09.51 | 3:28.05 | 225726 | 241330
18 | 53:37.56 | 3:12.61 | 241331 | 255791
19 | 56:50.42 | 2:56.51 | 255792 | 269042
20 | 59:47.18 | 3:02.39 | 269043 | 282731
21 | 62:49.57 | 2:24.32 | 282732 | 293563
22 | 65:14.14 | 3:03.45 | 293564 | 307333
23 | 68:17.59 | 3:10.29 | 307334 | 321612
24 | 71:28.13 | 2:55.61 | 321613 | 334798
25 | 74:23.74 | 2:54.50 | 334799 | 347898


Характеристики диапазона извлечения и сообщения об ошибках

Выбранный диапазон

Имя файла C:\Downloads\The Story Of Vocal Jazz 1911-1940 (10 CD)\CD 1\Various - The Story of Vocal Jazz 1911-1940 [disc 1].wav

Пиковый уровень 100.0 %
Качество диапазона 100.0 %
CRC теста B0AAA6CC
CRC копии B0AAA6CC
Копирование… OK

Ошибок не произошло


AccurateRip: сводка

Трек 1 точное извлечение (доверие 1) [257C2A67]
Трек 2 точное извлечение (доверие 1) [186CEC80]
Трек 3 точное извлечение (доверие 1) [4E46996A]
Трек 4 точное извлечение (доверие 1) [7C22958D]
Трек 5 точное извлечение (доверие 1) [977AC38D]
Трек 6 точное извлечение (доверие 1) [79D263A5]
Трек 7 точное извлечение (доверие 1) [325B1978]
Трек 8 точное извлечение (доверие 1) [FB18A31E]
Трек 9 точное извлечение (доверие 1) [01ECC113]
Трек 10 точное извлечение (доверие 1) [94528D3B]
Трек 11 точное извлечение (доверие 1) [74E83311]
Трек 12 точное извлечение (доверие 1) [158D80FC]
Трек 13 точное извлечение (доверие 1) [D83BAADD]
Трек 14 точное извлечение (доверие 1) [E4E6B0FB]
Трек 15 точное извлечение (доверие 1) [C45AA2FE]
Трек 16 точное извлечение (доверие 1) [D7D089A7]
Трек 17 точное извлечение (доверие 1) [59239C42]
Трек 18 точное извлечение (доверие 1) [D6A93D21]
Трек 19 точное извлечение (доверие 1) [FA6BA425]
Трек 20 точное извлечение (доверие 1) [C8558D6D]
Трек 21 точное извлечение (доверие 1) [41E5344E]
Трек 22 точное извлечение (доверие 1) [EC2ACB92]
Трек 23 точное извлечение (доверие 1) [7F4ABDF6]
Трек 24 точное извлечение (доверие 1) [A4E7D942]
Трек 25 точное извлечение (доверие 1) [00471D26]

Все треки извлечены точно

Конец отчёта

[CUETools log; Date: 25.03.2020 19:51:50; Version: 2.1.4]
[CTDB TOCID: 4S2yZUi4aTBzDc3mc90j9Vto2dc-] found.
Track | CTDB Status
1 | (10/10) Accurately ripped
2 | (10/10) Accurately ripped
3 | (10/10) Accurately ripped
4 | (10/10) Accurately ripped
5 | (10/10) Accurately ripped
6 | (10/10) Accurately ripped
7 | (10/10) Accurately ripped
8 | (10/10) Accurately ripped
9 | (10/10) Accurately ripped
10 | (10/10) Accurately ripped
11 | (10/10) Accurately ripped
12 | (10/10) Accurately ripped
13 | (10/10) Accurately ripped
14 | (10/10) Accurately ripped
15 | (10/10) Accurately ripped
16 | (10/10) Accurately ripped
17 | (10/10) Accurately ripped
18 | (10/10) Accurately ripped
19 | (10/10) Accurately ripped
20 | (10/10) Accurately ripped
21 | (10/10) Accurately ripped
22 | (10/10) Accurately ripped
23 | (10/10) Accurately ripped
24 | ( 9/10) Accurately ripped
25 | ( 9/10) Accurately ripped
[AccurateRip ID: 0046544e-04e95e98-51121e19] found.
Track [ CRC | V2 ] Status
01 [257c2a67|15a24d72] (05+04/09) Accurately ripped
02 [186cec80|5c3fa759] (05+04/09) Accurately ripped
03 [4e46996a|f13eed17] (05+04/09) Accurately ripped
04 [7c22958d|3589a90c] (05+04/09) Accurately ripped
05 [977ac38d|d66a51f5] (04+04/08) Accurately ripped
06 [79d263a5|971a8872] (05+04/09) Accurately ripped
07 [325b1978|61f8506d] (05+04/09) Accurately ripped
08 [fb18a31e|ef1faf4d] (05+04/09) Accurately ripped
09 [01ecc113|4c4fe194] (05+04/09) Accurately ripped
10 [94528d3b|17519664] (05+04/09) Accurately ripped
11 [74e83311|dcd016a9] (05+04/09) Accurately ripped
12 [158d80fc|43a48729] (04+04/08) Accurately ripped
13 [d83baadd|49af0ff2] (05+04/09) Accurately ripped
14 [e4e6b0fb|4983989a] (05+04/09) Accurately ripped
15 [c45aa2fe|e8f40967] (05+05/10) Accurately ripped
16 [d7d089a7|c8c8d9de] (05+05/10) Accurately ripped
17 [59239c42|118bede7] (05+05/10) Accurately ripped
18 [d6a93d21|fdd30af6] (05+05/10) Accurately ripped
19 [fa6ba425|dfff0b2a] (04+05/09) Accurately ripped
20 [c8558d6d|9d2c56e6] (05+05/10) Accurately ripped
21 [41e5344e|a3d7ff14] (04+05/09) Accurately ripped
22 [ec2acb92|5a75434a] (04+05/09) Accurately ripped
23 [7f4abdf6|1e904ce9] (05+05/10) Accurately ripped
24 [a4e7d942|2ecbc2ce] (04+05/09) Accurately ripped
25 [00471d26|24fd9f78] (05+05/10) Accurately ripped

Track Peak [ CRC32 ] [W/O NULL] [ LOG ]
– 100,0 [B0AAA6CC] [63685D20] CRC32
01 95,9 [9C1C7CC9] [598AB403]
02 76,5 [7EF74866] [4DF4AC8D]
03 87,0 [879659BC] [4C5A41F1]
04 77,0 [55971CE2] [B428843C]
05 100,0 [EB5E0E5C] [91824E7F]
06 80,7 [6E02452C] [CF38559E]
07 83,2 [FC5E5CD7] [BC089E91]
08 79,1 [251A6A81] [9EC06E29]
09 86,9 [E8A8017E] [89886ADA]
10 81,7 [011AE885] [08352194]
11 76,5 [DB36B32A] [8DFE6629]
12 91,8 [9B027BCF] [7255EBA8]
13 78,0 [B62E0487] [3D444861]
14 82,6 [91E94C69] [3C51133A]
15 75,6 [EBBBA447] [31E6DFF4]
16 88,9 [87704F1F] [40E8792A]
17 77,8 [EBEA61BC] [972E35C2]
18 83,3 [5B6A6C9C] [19E2BB2E]
19 80,1 [5DC28258] [9D076942]
20 76,9 [52844D5B] [8381DA08]
21 82,0 [96534E0D] [58B95E64]
22 81,7 [7992A357] [79D679EF]
23 78,4 [0737E187] [2D6164F2]
24 82,5 [F36CA526] [14F39010]
25 77,5 [5F082F2E] [8D1344D4]

V.A. - The Story Of Vocal Jazz 1911-1940 [10CD Box Set] (2004)

CD 2
EAC Rip | FLAC (image+.cue+log) - 296 MB | MP3 CBR 320 kbps (LAME 3.93) - 183 MB | Covers included
Genre: Vocal Jazz, Swing, Blues | RAR 3% Rec. | Label: Le Chant Du Monde (574 1302)

Tracklist:
01. Blind Willie Johnson - It's Nobody's Fault but Mine [1927] (3:11)
02. Bessie Smith - Back Water Blues [1927] (3:20)
03. Bessie Smith - Alexander's Ragtime Band [1927] (3:01)
04. Blind Lemon Jefferson - Match Box Blues [1927] (3:02)
05. Sippie Wallace - Dead Drunk Blues [1927] (3:01)
06. Adelaide Hall with Duke Ellington & HO - The Blues I Love to Sing [1927] (3:12)
07. Bessie Smith - Dyin' by the Hour [1927] (3:00)
08. Bessie Smith - Foolish Man Blues [1927] (2:56)
09. Victoria Spivey - Dope Head Blues [1927] (3:16)
10. Helen Humes - Cross Eyed Blues [1927] (3:09)
11. Marion Harris - The Man I Love [1927] (3:23)
12. Louis Armstrong - Hotter than That [1927] (3:05)
13. Hattie McDaniels - I Thought I'd Do It [1927] (2:58)
14. Jimmie Rodgers - Waiting for a Train [1928] (2:46)
15. Mississippi John Hurt - Ain't No Tellin' [1928] (2:57)
16. Rev. Johnny Blakey - Warming by the Devil's Fire [1928] (3:27)
17. Blind Willie Davis - When the Saints Go Marching In [1928] (1:57)
18. Memphis Jug Band - Peaches in the Springtime [1928] (3:15)
19. Bessie Smith - Empty Bed Blues, Part 2 [1928] (3:22)
20. Rube Lacy - Mississippi Jail House Blues [1928] (3:23)
21. Henry Williams & Eddie Anthony - Georgia Crawl [1928] (3:22)
22. Ma Rainey - Prove It on Me Blues [1928] (2:42)
23. Arizona Dranes - God's Got a Crown [1928] (2:59)
24. Ivy Smith with Cow Cow Davenport - State Street Jive [1928] (3:04)
25. Ethel Waters - Guess Who's in Town [1928] (2:50)

Total time: 01:16:53

Exact Audio Copy V0.99 prebeta 4 from 23. January 2008

Отчёт EAC об извлечении, выполненном 21. августа 2009, 11:03

Various / The Story of Vocal Jazz: 1911-1940 [disc 2]

Дисковод: Optiarc DVD RW AD-7170A Adapter: 0 ID: 0

Режим чтения : Достоверность
Использование точного потока : Да
Отключение кэша аудио : Да
Использование указателей C2 : Нет

Коррекция смещения при чтении : 48
Способность читать области Lead-in и Lead-out : Нет
Заполнение пропущенных сэмплов тишиной : Да
Удаление блоков с тишиной в начале и конце : Нет
При вычислениях CRC использовались нулевые сэмплы : Да
Интерфейс : Встроенный Win32-интерфейс для Win NT/2000

Выходной формат : Пользовательский кодировщик
Выбранный битрейт : 768 kBit/s
Качество : Высокий
Добавление ID3-тэга : Да
Утилита сжатия : C:\Program Files\Exact Audio Copy\Flac\flac.exe
Дополнительные параметры : -6 -V -T "ARTIST=%a" -T "TITLE=%t" -T "ALBUM=%g" -T "DATE=%y" -T "TRACKNUMBER=%n" -T "GENRE=%m" -T "COMMENT=%e" %s -o %d


TOC извлечённого CD

Трек | Старт | Длительность | Начальный сектор | Конечный сектор
––––––––––––––––––––––––––––––––––-
1 | 0:00.00 | 3:11.46 | 0 | 14370
2 | 3:11.46 | 3:20.31 | 14371 | 29401
3 | 6:32.02 | 3:01.60 | 29402 | 43036
4 | 9:33.62 | 3:02.32 | 43037 | 56718
5 | 12:36.19 | 3:01.36 | 56719 | 70329
6 | 15:37.55 | 3:12.52 | 70330 | 84781
7 | 18:50.32 | 3:00.51 | 84782 | 98332
8 | 21:51.08 | 2:56.52 | 98333 | 111584
9 | 24:47.60 | 3:16.70 | 111585 | 126354
10 | 28:04.55 | 3:09.52 | 126355 | 140581
11 | 31:14.32 | 3:23.47 | 140582 | 155853
12 | 34:38.04 | 3:05.18 | 155854 | 169746
13 | 37:43.22 | 2:58.36 | 169747 | 183132
14 | 40:41.58 | 2:46.71 | 183133 | 195653
15 | 43:28.54 | 2:57.40 | 195654 | 208968
16 | 46:26.19 | 3:27.63 | 208969 | 224556
17 | 49:54.07 | 1:57.28 | 224557 | 233359
18 | 51:51.35 | 3:15.01 | 233360 | 247985
19 | 55:06.36 | 3:22.57 | 247986 | 263192
20 | 58:29.18 | 3:23.55 | 263193 | 278472
21 | 61:52.73 | 3:22.66 | 278473 | 293688
22 | 65:15.64 | 2:42.60 | 293689 | 305898
23 | 67:58.49 | 2:59.52 | 305899 | 319375
24 | 70:58.26 | 3:04.25 | 319376 | 333200
25 | 74:02.51 | 2:50.17 | 333201 | 345967


Характеристики диапазона извлечения и сообщения об ошибках

Выбранный диапазон

Имя файла C:\Downloads\The Story Of Vocal Jazz 1911-1940 (10 CD)\CD 2\Various - The Story of Vocal Jazz 1911-1940 [disc 2].wav

Пиковый уровень 94.8 %
Качество диапазона 100.0 %
CRC теста 542D6281
CRC копии 542D6281
Копирование… OK

Ошибок не произошло


AccurateRip: сводка

Трек 1 точное извлечение (доверие 1) [6D482026]
Трек 2 точное извлечение (доверие 1) [B3EFC568]
Трек 3 точное извлечение (доверие 1) [6BE4D80F]
Трек 4 точное извлечение (доверие 1) [74B82E9C]
Трек 5 точное извлечение (доверие 1) [B4FE7D11]
Трек 6 точное извлечение (доверие 1) [A659AD6A]
Трек 7 точное извлечение (доверие 1) [6E461057]
Трек 8 точное извлечение (доверие 1) [CE7E5D30]
Трек 9 точное извлечение (доверие 1) [95C915C1]
Трек 10 точное извлечение (доверие 1) [7958F053]
Трек 11 точное извлечение (доверие 1) [0A9254E0]
Трек 12 точное извлечение (доверие 1) [2432535D]
Трек 13 точное извлечение (доверие 1) [0B738ED5]
Трек 14 точное извлечение (доверие 1) [32A2DD71]
Трек 15 точное извлечение (доверие 1) [FD68A30F]
Трек 16 точное извлечение (доверие 1) [11102C66]
Трек 17 точное извлечение (доверие 1) [3C14D27D]
Трек 18 точное извлечение (доверие 1) [60A919FD]
Трек 19 точное извлечение (доверие 1) [55258FED]
Трек 20 точное извлечение (доверие 1) [6643B0D1]
Трек 21 точное извлечение (доверие 1) [CF061013]
Трек 22 точное извлечение (доверие 1) [1B0E8C84]
Трек 23 точное извлечение (доверие 1) [FAF817CE]
Трек 24 точное извлечение (доверие 1) [43AC8A40]
Трек 25 точность не определена (достоверность 1) [29DD051D], AccurateRip вернул [9C3979A4]

24 трек(и) скопированы точно
1 трек(и) не удалось проверить на точность

Некоторые треки не прошли проверку на точность

Конец отчёта

[CUETools log; Date: 25.03.2020 19:53:02; Version: 2.1.4]
[CTDB TOCID: aND1y2QlR7w.bcdSFY5pr3o1f0E-] found.
Track | CTDB Status
1 | (10/10) Accurately ripped
2 | (10/10) Accurately ripped
3 | (10/10) Accurately ripped
4 | (10/10) Accurately ripped
5 | (10/10) Accurately ripped
6 | (10/10) Accurately ripped
7 | (10/10) Accurately ripped
8 | (10/10) Accurately ripped
9 | (10/10) Accurately ripped
10 | (10/10) Accurately ripped
11 | (10/10) Accurately ripped
12 | (10/10) Accurately ripped
13 | (10/10) Accurately ripped
14 | (10/10) Accurately ripped
15 | (10/10) Accurately ripped
16 | (10/10) Accurately ripped
17 | (10/10) Accurately ripped
18 | (10/10) Accurately ripped
19 | (10/10) Accurately ripped
20 | (10/10) Accurately ripped
21 | (10/10) Accurately ripped
22 | (10/10) Accurately ripped
23 | (10/10) Accurately ripped
24 | (10/10) Accurately ripped
25 | (10/10) Accurately ripped
[AccurateRip ID: 0045311b-04daa012-77120419] found.
Track [ CRC | V2 ] Status
01 [6d482026|b5fccad1] (4+5/9) Accurately ripped
02 [b3efc568|d7a21657] (4+5/9) Accurately ripped
03 [6be4d80f|e8a36dc2] (4+5/9) Accurately ripped
04 [74b82e9c|2d18126f] (4+5/9) Accurately ripped
05 [b4fe7d11|26ec16e8] (4+5/9) Accurately ripped
06 [a659ad6a|8028c64b] (4+5/9) Accurately ripped
07 [6e461057|2e97b1c1] (4+5/9) Accurately ripped
08 [ce7e5d30|d50196b4] (4+5/9) Accurately ripped
09 [95c915c1|4a9da634] (4+5/9) Accurately ripped
10 [7958f053|885074fb] (4+5/9) Accurately ripped
11 [0a9254e0|c7222cf0] (4+5/9) Accurately ripped
12 [2432535d|6f7412e1] (4+5/9) Accurately ripped
13 [0b738ed5|b4f1cd16] (4+5/9) Accurately ripped
14 [32a2dd71|41305541] (4+5/9) Accurately ripped
15 [fd68a30f|455e670b] (4+5/9) Accurately ripped
16 [11102c66|fc1f4777] (4+5/9) Accurately ripped
17 [3c14d27d|5557b751] (4+5/9) Accurately ripped
18 [60a919fd|62c60866] (4+5/9) Accurately ripped
19 [55258fed|0a445d85] (4+5/9) Accurately ripped
20 [6643b0d1|ff6bbb87] (4+5/9) Accurately ripped
21 [cf061013|3e4f0fa6] (4+5/9) Accurately ripped
22 [1b0e8c84|dfa3c774] (4+5/9) Accurately ripped
23 [faf817ce|b2c81771] (4+5/9) Accurately ripped
24 [43ac8a40|fb6c83aa] (4+5/9) Accurately ripped
25 [29dd051d|31a04b31] (3+5/8) Accurately ripped

Track Peak [ CRC32 ] [W/O NULL] [ LOG ]
– 94,8 [542D6281] [1956EBD3] CRC32
01 87,5 [0749BDD1] [D6656662]
02 82,0 [93B08D44] [4C8004B4]
03 80,5 [FA9512DC] [A97E2133]
04 84,6 [BE0CC726] [95304228]
05 80,7 [1CBF709F] [F9ECE0DB]
06 82,7 [BD2CCBBC] [9314C24C]
07 82,4 [09063FA7] [E943F59B]
08 83,6 [E92D9C43] [683185C8]
09 80,2 [4C696DC6] [7954AE10]
10 75,4 [42B1F82A] [1E48E077]
11 82,4 [50ACADD6] [956C7A61]
12 88,9 [7DF45ED9] [026689E7]
13 81,0 [6D6F39D2] [E99E2CC4]
14 84,3 [50D12060] [853B4D94]
15 81,9 [FE4BC71A] [6F28AF8C]
16 83,7 [6BD4709E] [8CE339ED]
17 80,2 [BF3F625F] [B9655BDE]
18 78,8 [5CCAF26B] [761583AF]
19 81,5 [124AB1CA] [B03A2667]
20 93,3 [9D2937A3] [56CBED7F]
21 80,5 [3BD215C0] [EE708D36]
22 82,1 [1ABE7632] [8FD3C92A]
23 94,8 [80195F16] [C8E94782]
24 88,7 [E4BF85E4] [00F81D18]
25 82,5 [A15F0D42] [8F60CAA3]

V.A. - The Story Of Vocal Jazz 1911-1940 [10CD Box Set] (2004)

CD 3
EAC Rip | FLAC (image+.cue+log) - 285 MB | MP3 CBR 320 kbps (LAME 3.93) - 182 MB | Covers included
Genre: Vocal Jazz, Swing, Blues | RAR 3% Rec. | Label: Le Chant Du Monde (574 1303)

Tracklist:
01. Walter 'Furry' Lewis - Kassie Jones [1928-08-28] (3:07)
02. Bertha 'Chippie' Hill - Some Cold Rainy Day [1928-10-13] (3:15)
03. Noah Lewis - Viola Lee Blues [1928] (3:09)
04. Texas Alexander - No More Woman Blues [1928] (3:03)
05. Ozie Ware & Irving Mills - Diga Diga Doo [1928-11-15] (2:55)
06. Louis Armstrong - Basin Street Blues [1928-12-04] (3:20)
07. Charley Patton - Screamin' and Hollerin' the Blues [1929] (3:04)
08. Memphis Minnie - Bumble Bee [1929] (2:48)
09. Blind Blake - Georgia Bound [1929] (3:23)
10. Sonny Greer - Sloppy Joe [1929-03-07] (3:16)
11. Jabbo Smith - Decatur Street Tutti [1929-04-04] (2:46)
12. McKinney's Cotton Pickers - Beadle-Um-Bum [1929-04-09] (3:21)
13. Blind Lemon Jefferson - Mosquito Man [1929] (3:01)
14. Bessie Smith - Nobody Knows When You're Down and Out [1929-05-15] (2:59)
15. Louis Armstrong - Black and Blue [1929-07-22] (3:10)
16. T-Bone Walker - Wichita Falls Blues [1929] (3:12)
17. Noble Sissle - Camp Meeting Day [1929-09-10] (3:01)
18. Edith Johnson - Nickel's Worth of Liver Blues [1929-09-27] (2:49)
19. Bessie Smith - Blue Spirit Blues [1929-10-11] (2:56)
20. Georgia Tom Dorsey - Come On Mama [1929] (2:50)
21. Bing Crosby - After You've Gone [1929-10-18] (3:04)
22. Blind Willie McTell - Travelin' Blues [1929-10-30] (3:21)
23. Louis Armstrong - St. Louis Blues [1929-12-13] (3:03)
24. Sleepy John Estes - Milk Cow Blues [1930] (3:03)
25. DunHam Jubilee Singers - I Dreamed of the Judgment Morning [1930] (2:41)

Total time: 01:16:52

Exact Audio Copy V0.99 prebeta 4 from 23. January 2008

Отчёт EAC об извлечении, выполненном 21. августа 2009, 11:36

Various / The Story of Vocal Jazz: 1911-1940 [disc 3]

Дисковод: Optiarc DVD RW AD-7170A Adapter: 0 ID: 0

Режим чтения : Достоверность
Использование точного потока : Да
Отключение кэша аудио : Да
Использование указателей C2 : Нет

Коррекция смещения при чтении : 48
Способность читать области Lead-in и Lead-out : Нет
Заполнение пропущенных сэмплов тишиной : Да
Удаление блоков с тишиной в начале и конце : Нет
При вычислениях CRC использовались нулевые сэмплы : Да
Интерфейс : Встроенный Win32-интерфейс для Win NT/2000

Выходной формат : Пользовательский кодировщик
Выбранный битрейт : 768 kBit/s
Качество : Высокий
Добавление ID3-тэга : Да
Утилита сжатия : C:\Program Files\Exact Audio Copy\Flac\flac.exe
Дополнительные параметры : -6 -V -T "ARTIST=%a" -T "TITLE=%t" -T "ALBUM=%g" -T "DATE=%y" -T "TRACKNUMBER=%n" -T "GENRE=%m" -T "COMMENT=%e" %s -o %d


TOC извлечённого CD

Трек | Старт | Длительность | Начальный сектор | Конечный сектор
––––––––––––––––––––––––––––––––––-
1 | 0:00.00 | 3:07.53 | 0 | 14077
2 | 3:07.53 | 3:15.19 | 14078 | 28721
3 | 6:22.72 | 3:09.11 | 28722 | 42907
4 | 9:32.08 | 3:03.26 | 42908 | 56658
5 | 12:35.34 | 2:55.54 | 56659 | 69837
6 | 15:31.13 | 3:20.40 | 69838 | 84877
7 | 18:51.53 | 3:04.74 | 84878 | 98751
8 | 21:56.52 | 2:48.74 | 98752 | 111425
9 | 24:45.51 | 3:23.28 | 111426 | 126678
10 | 28:09.04 | 3:16.61 | 126679 | 141439
11 | 31:25.65 | 2:46.24 | 141440 | 153913
12 | 34:12.14 | 3:21.47 | 153914 | 169035
13 | 37:33.61 | 3:01.64 | 169036 | 182674
14 | 40:35.50 | 2:59.54 | 182675 | 196153
15 | 43:35.29 | 3:10.41 | 196154 | 210444
16 | 46:45.70 | 3:12.08 | 210445 | 224852
17 | 49:58.03 | 3:01.27 | 224853 | 238454
18 | 52:59.30 | 2:49.37 | 238455 | 251166
19 | 55:48.67 | 2:56.27 | 251167 | 264393
20 | 58:45.19 | 2:50.59 | 264394 | 277202
21 | 61:36.03 | 3:04.28 | 277203 | 291030
22 | 64:40.31 | 3:21.40 | 291031 | 306145
23 | 68:01.71 | 3:03.73 | 306146 | 319943
24 | 71:05.69 | 3:03.68 | 319944 | 333736
25 | 74:09.62 | 2:41.73 | 333737 | 345884


Характеристики диапазона извлечения и сообщения об ошибках

Выбранный диапазон

Имя файла C:\Downloads\The Story Of Vocal Jazz 1911-1940 (10 CD)\CD 3\Various - The Story of Vocal Jazz 1911-1940 [disc 3].wav

Пиковый уровень 87.9 %
Качество диапазона 100.0 %
CRC теста 317EBC65
CRC копии 317EBC65
Копирование… OK

Ошибок не произошло


AccurateRip: сводка

Трек 1 точное извлечение (доверие 1) [5933683B]
Трек 2 точное извлечение (доверие 1) [F088469E]
Трек 3 точное извлечение (доверие 1) [868C4C43]
Трек 4 точное извлечение (доверие 1) [B148E113]
Трек 5 точное извлечение (доверие 1) [2D433939]
Трек 6 точное извлечение (доверие 1) [D7C4840B]
Трек 7 точное извлечение (доверие 1) [053C2F2D]
Трек 8 точное извлечение (доверие 1) [6585A2F7]
Трек 9 точное извлечение (доверие 1) [61E032EE]
Трек 10 точное извлечение (доверие 1) [C1D04152]
Трек 11 точное извлечение (доверие 1) [1688FE26]
Трек 12 точное извлечение (доверие 1) [F8D8CC16]
Трек 13 точное извлечение (доверие 1) [DAD92CEA]
Трек 14 точное извлечение (доверие 1) [94126C6B]
Трек 15 точное извлечение (доверие 1) [85671728]
Трек 16 точное извлечение (доверие 1) [484D8D35]
Трек 17 точное извлечение (доверие 1) [8B8AD760]
Трек 18 точное извлечение (доверие 1) [5E171F65]
Трек 19 точное извлечение (доверие 1) [69C3214A]
Трек 20 точное извлечение (доверие 1) [0816A816]
Трек 21 точное извлечение (доверие 1) [1063569F]
Трек 22 точное извлечение (доверие 1) [8E805FAD]
Трек 23 точное извлечение (доверие 1) [7F14FE41]
Трек 24 точное извлечение (доверие 1) [CEFC77BB]
Трек 25 точное извлечение (доверие 1) [D5C9F4F8]

Все треки извлечены точно

Конец отчёта

[CUETools log; Date: 25.03.2020 20:01:56; Version: 2.1.4]
[CTDB TOCID: q7w7E1iaGHTZDME9wdxOFAK_zAY-] found.
Track | CTDB Status
1 | (11/11) Accurately ripped
2 | (11/11) Accurately ripped
3 | (11/11) Accurately ripped
4 | (11/11) Accurately ripped
5 | (11/11) Accurately ripped
6 | (11/11) Accurately ripped
7 | (11/11) Accurately ripped
8 | (11/11) Accurately ripped
9 | (11/11) Accurately ripped
10 | (11/11) Accurately ripped
11 | (11/11) Accurately ripped
12 | (11/11) Accurately ripped
13 | (11/11) Accurately ripped
14 | (11/11) Accurately ripped
15 | (11/11) Accurately ripped
16 | (11/11) Accurately ripped
17 | (11/11) Accurately ripped
18 | (11/11) Accurately ripped
19 | (11/11) Accurately ripped
20 | (11/11) Accurately ripped
21 | (11/11) Accurately ripped
22 | (11/11) Accurately ripped
23 | (11/11) Accurately ripped
24 | (11/11) Accurately ripped
25 | (11/11) Accurately ripped
[AccurateRip ID: 00454803-04dc92c6-7d120319] found.
Track [ CRC | V2 ] Status
01 [5933683b|a03903f4] (4+5/9) Accurately ripped
02 [f088469e|5b7af179] (4+5/9) Accurately ripped
03 [868c4c43|9c44c041] (4+5/9) Accurately ripped
04 [b148e113|190d7ae4] (4+5/9) Accurately ripped
05 [2d433939|85363254] (4+5/9) Accurately ripped
06 [d7c4840b|c7b83a09] (4+5/9) Accurately ripped
07 [053c2f2d|5a1871d5] (4+5/9) Accurately ripped
08 [6585a2f7|237b79f4] (4+5/9) Accurately ripped
09 [61e032ee|af5a9743] (4+5/9) Accurately ripped
10 [c1d04152|4f730867] (4+5/9) Accurately ripped
11 [1688fe26|667d0e2f] (4+5/9) Accurately ripped
12 [f8d8cc16|6af54593] (4+5/9) Accurately ripped
13 [dad92cea|35a59444] (4+5/9) Accurately ripped
14 [94126c6b|3ab3c6ed] (4+5/9) Accurately ripped
15 [85671728|d029542c] (4+5/9) Accurately ripped
16 [484d8d35|47b0f3fb] (4+5/9) Accurately ripped
17 [8b8ad760|2056474e] (4+5/9) Accurately ripped
18 [5e171f65|8bfae129] (4+5/9) Accurately ripped
19 [69c3214a|e3ab0789] (4+5/9) Accurately ripped
20 [0816a816|66beee36] (4+5/9) Accurately ripped
21 [1063569f|8235ec8e] (4+5/9) Accurately ripped
22 [8e805fad|369bc087] (4+5/9) Accurately ripped
23 [7f14fe41|0180f9e0] (4+5/9) Accurately ripped
24 [cefc77bb|f82d1dd9] (4+5/9) Accurately ripped
25 [d5c9f4f8|6d787871] (4+5/9) Accurately ripped

Track Peak [ CRC32 ] [W/O NULL] [ LOG ]
– 87,9 [317EBC65] [8E8A323B] CRC32
01 82,3 [AAA77BB5] [0343AD76]
02 85,2 [73A9C75F] [62A21861]
03 76,6 [B8CC9CCB] [9C91CE5B]
04 82,7 [F11E584B] [8851CAC7]
05 82,7 [E64FE421] [D7B41729]
06 87,9 [ED31C6D8] [56FDC5CE]
07 79,8 [160A0A3E] [883F5CF0]
08 83,8 [B10381CA] [259DEAE7]
09 83,9 [02B05321] [950E0F8E]
10 78,2 [9FFC760B] [F1A4CF7C]
11 77,8 [9B821A52] [38E36208]
12 78,5 [6B96F877] [0C4D0180]
13 82,5 [A634920A] [C4F9EFFD]
14 81,6 [1B535DCB] [6DC7E050]
15 79,5 [1F5973D8] [069EA37C]
16 75,3 [8C4ED6C2] [4D11A449]
17 79,4 [02FFF33E] [F5444E3C]
18 76,0 [9F97C86A] [0B229AAF]
19 82,8 [6045D2CE] [A2B173DC]
20 62,1 [F812C323] [2178E407]
21 79,8 [93C24098] [776FBA86]
22 80,3 [E357ACF4] [8225545B]
23 83,9 [1F8247F8] [58F965B1]
24 85,7 [05E21E64] [571BCD74]
25 81,7 [2911E9F0] [B6761B96]

V.A. - The Story Of Vocal Jazz 1911-1940 [10CD Box Set] (2004)

CD 4
EAC Rip | FLAC (image+.cue+log) - 287 MB | MP3 CBR 320 kbps (LAME 3.93) - 181 MB | Covers included
Genre: Vocal Jazz, Swing, Blues | RAR 3% Rec. | Label: Le Chant Du Monde (574 1304)

Tracklist:
01. Fred Astaire - Puttin' On The Ritz (1930-03-26) (2:34)
02. Bessie Smith - On Revival Day (1930-06-09) (2:58)
03. George Thomas With McKinney's Cotton Pickers - Baby Won't You Please Come Home (1930-07-28) (3:14)
04. Hall Johnson - Good News (1930-08-08) (1:17)
05. Ethel Waters - I Got Rhythm (1930-11-18) (3:09)
06. Bumble Bee Slim - No Woman No Nickel (1931) (3:31)
07. Louis Armstrong And His Sebastian New Cotton Orchestra - Shine (1931-03-09) (3:26)
08. Bessie Smith - Shipwreck Blues (1931-06-11) (3:24)
09. George Morton And Mill's Blue Rhythm Band - Heebie Jeebies (1931-06-26) (3:12)
10. The Boswell Sisters - It's The Girl (1931-07-08) (3:12)
11. Rosa Henderson - Can't Be Bothered With No Sheik (1931-08-19) (3:20)
12. Louis Armstrong - Stardust (1931-11-04) (3:36)
13. Bessie Smith - Need A Little Sugar In My Bowl (1931-11-20) (2:49)
14. Mildred Bailey - Georgia On My Mind (1931-11-24) (3:30)
15. Big Bill Broonzy - Too-Too Train (1932) (2:54)
16. Leroy Carr - How Long Has That Evening Train Been Gone (1932) (2:54)
17. Ivie Anderson - It Don't Mean A Thing If It Ain't Git That Swing (1932-02-02) (3:11)
18. Harlan Lattimore - I Wanna Count Sheep (1932-03-10) (3:04)
19. Bing Crosby - Some Of These Days (1932-05-26) (2:36)
20. Josh White - Little Brother Blues (1932) (3:02)
21. Mildred Bailey And The Matty Malneck Orchestra - Rockin' Chair (1932-08-18) (3:02)
22. Irene Taylor - Willow Weep For Me (1932-09-26) (3:27)
23. Bing Crosby And The Mill Brothers - My Honey's Lovin' Arms (1933-01-26) (3:00)
24. Lee Wiley And The Dorsey's Brother Orchestra - I Gotta Right To Sing The Blues (1933-03-07) (2:46)
25. Ethel Waters And The Dorsey's Brother Orchestra - Stormy Weather (1933-05-03) (3:05)

Total time: 01:16:24

Exact Audio Copy V0.99 prebeta 4 from 23. January 2008

Отчёт EAC об извлечении, выполненном 21. августа 2009, 12:18

Various / L'Histoire Du Jazz Vocal - The Story Of Vocal Jazz - Part 1 (1911 - 1940) CD4

Дисковод: Optiarc DVD RW AD-7170A Adapter: 0 ID: 0

Режим чтения : Достоверность
Использование точного потока : Да
Отключение кэша аудио : Да
Использование указателей C2 : Нет

Коррекция смещения при чтении : 48
Способность читать области Lead-in и Lead-out : Нет
Заполнение пропущенных сэмплов тишиной : Да
Удаление блоков с тишиной в начале и конце : Нет
При вычислениях CRC использовались нулевые сэмплы : Да
Интерфейс : Встроенный Win32-интерфейс для Win NT/2000

Выходной формат : Пользовательский кодировщик
Выбранный битрейт : 768 kBit/s
Качество : Высокий
Добавление ID3-тэга : Да
Утилита сжатия : C:\Program Files\Exact Audio Copy\Flac\flac.exe
Дополнительные параметры : -6 -V -T "ARTIST=%a" -T "TITLE=%t" -T "ALBUM=%g" -T "DATE=%y" -T "TRACKNUMBER=%n" -T "GENRE=%m" -T "COMMENT=%e" %s -o %d


TOC извлечённого CD

Трек | Старт | Длительность | Начальный сектор | Конечный сектор
––––––––––––––––––––––––––––––––––-
1 | 0:00.00 | 2:34.31 | 0 | 11580
2 | 2:34.31 | 2:58.01 | 11581 | 24931
3 | 5:32.32 | 3:14.23 | 24932 | 39504
4 | 8:46.55 | 1:17.33 | 39505 | 45312
5 | 10:04.13 | 3:09.14 | 45313 | 59501
6 | 13:13.27 | 3:31.02 | 59502 | 75328
7 | 16:44.29 | 3:26.53 | 75329 | 90831
8 | 20:11.07 | 3:24.04 | 90832 | 106135
9 | 23:35.11 | 3:12.61 | 106136 | 120596
10 | 26:47.72 | 3:12.43 | 120597 | 135039
11 | 30:00.40 | 3:20.26 | 135040 | 150065
12 | 33:20.66 | 3:36.49 | 150066 | 166314
13 | 36:57.40 | 2:49.63 | 166315 | 179052
14 | 39:47.28 | 3:30.22 | 179053 | 194824
15 | 43:17.50 | 2:54.18 | 194825 | 207892
16 | 46:11.68 | 2:54.12 | 207893 | 220954
17 | 49:06.05 | 3:11.66 | 220955 | 235345
18 | 52:17.71 | 3:04.18 | 235346 | 249163
19 | 55:22.14 | 2:36.33 | 249164 | 260896
20 | 57:58.47 | 3:02.41 | 260897 | 274587
21 | 61:01.13 | 3:02.60 | 274588 | 288297
22 | 64:03.73 | 3:27.68 | 288298 | 303890
23 | 67:31.66 | 3:00.54 | 303891 | 317444
24 | 70:32.45 | 2:46.02 | 317445 | 329896
25 | 73:18.47 | 3:05.32 | 329897 | 343803


Характеристики диапазона извлечения и сообщения об ошибках

Выбранный диапазон

Имя файла C:\Downloads\The Story Of Vocal Jazz 1911-1940 (10 CD)\CD 4\Various - L'Histoire Du Jazz Vocal - The Story Of Vocal Jazz - Part 1 (1911 - 1940) CD4.wav

Пиковый уровень 90.2 %
Качество диапазона 100.0 %
CRC теста 3545B108
CRC копии 3545B108
Копирование… OK

Ошибок не произошло


AccurateRip: сводка

Трек 1 нет в базе данных
Трек 2 нет в базе данных
Трек 3 нет в базе данных
Трек 4 нет в базе данных
Трек 5 нет в базе данных
Трек 6 нет в базе данных
Трек 7 нет в базе данных
Трек 8 нет в базе данных
Трек 9 нет в базе данных
Трек 10 нет в базе данных
Трек 11 нет в базе данных
Трек 12 нет в базе данных
Трек 13 нет в базе данных
Трек 14 нет в базе данных
Трек 15 нет в базе данных
Трек 16 нет в базе данных
Трек 17 нет в базе данных
Трек 18 нет в базе данных
Трек 19 нет в базе данных
Трек 20 нет в базе данных
Трек 21 нет в базе данных
Трек 22 нет в базе данных
Трек 23 нет в базе данных
Трек 24 нет в базе данных
Трек 25 нет в базе данных

Ни одного трека нет в базе AccurateRip

Конец отчёта

[CUETools log; Date: 25.03.2020 20:02:38; Version: 2.1.4]
[CTDB TOCID: L_22SWK2M8_CNR1YGmFdIWdCaww-] found.
Track | CTDB Status
1 | (10/10) Accurately ripped
2 | (10/10) Accurately ripped
3 | (10/10) Accurately ripped
4 | (10/10) Accurately ripped
5 | (10/10) Accurately ripped
6 | (10/10) Accurately ripped
7 | (10/10) Accurately ripped
8 | (10/10) Accurately ripped
9 | (10/10) Accurately ripped
10 | (10/10) Accurately ripped
11 | (10/10) Accurately ripped
12 | (10/10) Accurately ripped
13 | (10/10) Accurately ripped
14 | (10/10) Accurately ripped
15 | (10/10) Accurately ripped
16 | (10/10) Accurately ripped
17 | (10/10) Accurately ripped
18 | (10/10) Accurately ripped
19 | (10/10) Accurately ripped
20 | (10/10) Accurately ripped
21 | (10/10) Accurately ripped
22 | (10/10) Accurately ripped
23 | (10/10) Accurately ripped
24 | (10/10) Accurately ripped
25 | (10/10) Accurately ripped
[AccurateRip ID: 00439d64-04c960be-5c11e819] found.
Track [ CRC | V2 ] Status
01 [567fa9a7|61dab178] (3+5/8) Accurately ripped
02 [294ec743|ff6f44a0] (3+5/8) Accurately ripped
03 [9fd48d41|9bbe1dfa] (3+5/8) Accurately ripped
04 [f2f776ef|ac4398e0] (3+5/8) Accurately ripped
05 [e36a19b2|815d9c01] (3+5/8) Accurately ripped
06 [e5581892|d7a7f511] (3+5/8) Accurately ripped
07 [a5b863c4|26e85f4a] (3+5/8) Accurately ripped
08 [71aaf87b|9bc2effd] (3+5/8) Accurately ripped
09 [6957c3ab|7d9f72b3] (3+5/8) Accurately ripped
10 [fd618d9a|1803735a] (3+5/8) Accurately ripped
11 [e838cacc|6aae8938] (3+5/8) Accurately ripped
12 [34e98c98|7edbd0d4] (3+5/8) Accurately ripped
13 [fce08d8f|c7ee8039] (3+5/8) Accurately ripped
14 [6a456935|a1bae62e] (3+5/8) Accurately ripped
15 [9669e9bb|e44173b5] (3+5/8) Accurately ripped
16 [f4d311b7|7d722b5e] (3+5/8) Accurately ripped
17 [0ea8d680|414d7e29] (3+5/8) Accurately ripped
18 [8db9a70b|324ba077] (3+5/8) Accurately ripped
19 [bd84915a|9cb6d8a6] (2+5/7) Accurately ripped
20 [af69d315|62e187aa] (3+5/8) Accurately ripped
21 [e1c33dd3|d81f2502] (3+5/8) Accurately ripped
22 [6a92b646|e253a420] (3+5/8) Accurately ripped
23 [ee0760b9|faecbad0] (3+5/8) Accurately ripped
24 [e04f3234|47b3ee4b] (3+5/8) Accurately ripped
25 [be2c0d5a|a139710e] (3+5/8) Accurately ripped

Track Peak [ CRC32 ] [W/O NULL] [ LOG ]
– 90,2 [3545B108] [CF414FEF] CRC32
01 82,5 [8A384AF8] [5421424B]
02 86,3 [D95AB629] [99277F37]
03 75,9 [8F37FE12] [5BD35E9D]
04 82,4 [790B797A] [9D037E52]
05 83,8 [713567EA] [DF0805AD]
06 75,5 [E63376A5] [DACB40C5]
07 78,6 [32E7CC23] [09F59953]
08 76,9 [83D3CCFE] [C87524E7]
09 75,0 [DE3B6F75] [8BD9F8CF]
10 79,6 [19D7D3AD] [31649A3D]
11 83,9 [9DADBCBF] [8F6476BF]
12 83,8 [F0E252F1] [527D22AE]
13 80,8 [9E437AC1] [DBAEBB70]
14 76,9 [A687C0E9] [A336B87F]
15 82,6 [ADE46595] [1B859190]
16 87,4 [D070E189] [F5DEAF9E]
17 74,4 [82EFB50E] [F48D0249]
18 75,5 [5948A6A4] [0102A7A2]
19 77,4 [4B17B6E5] [A9B4ED8A]
20 80,8 [DF7A88AD] [2778BB24]
21 80,2 [CDC228C6] [FAE2AFDD]
22 87,2 [CB63D157] [8DBCE2C0]
23 81,1 [2E246CA0] [FE8AFA66]
24 77,5 [12546011] [64CB3B64]
25 90,2 [D0A60B06] [104D4FAF]

V.A. - The Story Of Vocal Jazz 1911-1940 [10CD Box Set] (2004)

CD 5
EAC Rip | FLAC (image+.cue+log) - 268 MB | MP3 CBR 320 kbps (LAME 3.93) - 163 MB | Covers included
Genre: Vocal Jazz, Swing, Blues | RAR 3% Rec. | Label: Le Chant Du Monde (574 1305)

Tracklist:
01. Connie Boswell And The Dorsey's Brothers Orchestra - The River's Taking Care (1933-06-15) (3:00)
02. Henri 'Red' Allen - Nagasaki (1933-09-22) (3:29)
03. Louis Bacon - Rude Interlude (1933-09-26) (3:12)
04. Jack Teagarden - I Gotta Right To Sing The Blues (1933-10-18) (3:08)
05. Cab Calloway - Zah Zuh Zah (1933-11-02) (3:27)
06. Jack Teagarden - Love Me (1933-11-11) (3:04)
07. The Spirits Of Rhythm - Rhythm (1933-11-20) (2:30)
08. Bessie Smith - Take Me For A Buggy Ride (1933-11-24) (2:38)
09. Tampa Red - King Fish Blues (1934) (3:11)
10. Kokomo Arnold - Old Original Kokomo Blues (1934) (2:55)
11. Charley Patton - Stone Pony Blues (1934-01-30) (2:48)
12. Mitchell's Christian Singers - Them Bones (1934) (3:02)
13. Ivie Anderson - Troubled Waters (1934-03-09) (3:32)
14. Red McKenzie With The Spirits Of Rhythm - As Long As I Live (1934-09-11) (3:13)
15. The Spirits Of Rhythm - Dr. Wattson And Mr. Holmes (1934-09-14) (2:44)
16. Leroy Carr - Blues Before Sunrise (1934) (3:34)
17. Charlie McCoy - Baltimore Blues (1934-09-16) (2:50)
18. Billie Holiday - Symphony In Black (1934-10) (1:57)
19. The Carter Family - Wildwood Flower (1935) (3:18)
20. Memphis Minnie - Dirty Mother For You (1935) (2:49)
21. Leadbelly - Midnight Special (1935) (2:09)
22. Leadbelly - See See Rider (1935) (2:58)
23. Heavenly Gospel Singers - Lead Me To The Rock (1935) (2:50)

Total time: 01:08:29

Exact Audio Copy V0.99 prebeta 4 from 23. January 2008

Отчёт EAC об извлечении, выполненном 21. августа 2009, 13:10

Various / L'Histoire Du Jazz Vocal - The Story Of Vocal Jazz - Part 1 (1911 - 1940) CD5

Дисковод: Optiarc DVD RW AD-7170A Adapter: 0 ID: 0

Режим чтения : Достоверность
Использование точного потока : Да
Отключение кэша аудио : Да
Использование указателей C2 : Нет

Коррекция смещения при чтении : 48
Способность читать области Lead-in и Lead-out : Нет
Заполнение пропущенных сэмплов тишиной : Да
Удаление блоков с тишиной в начале и конце : Нет
При вычислениях CRC использовались нулевые сэмплы : Да
Интерфейс : Встроенный Win32-интерфейс для Win NT/2000

Выходной формат : Пользовательский кодировщик
Выбранный битрейт : 768 kBit/s
Качество : Высокий
Добавление ID3-тэга : Да
Утилита сжатия : C:\Program Files\Exact Audio Copy\Flac\flac.exe
Дополнительные параметры : -6 -V -T "ARTIST=%a" -T "TITLE=%t" -T "ALBUM=%g" -T "DATE=%y" -T "TRACKNUMBER=%n" -T "GENRE=%m" -T "COMMENT=%e" %s -o %d


TOC извлечённого CD

Трек | Старт | Длительность | Начальный сектор | Конечный сектор
––––––––––––––––––––––––––––––––––-
1 | 0:00.00 | 3:00.58 | 0 | 13557
2 | 3:00.58 | 3:29.11 | 13558 | 29243
3 | 6:29.69 | 3:12.58 | 29244 | 43701
4 | 9:42.52 | 3:08.13 | 43702 | 57814
5 | 12:50.65 | 3:27.07 | 57815 | 73346
6 | 16:17.72 | 3:04.49 | 73347 | 87195
7 | 19:22.46 | 2:30.57 | 87196 | 98502
8 | 21:53.28 | 2:38.34 | 98503 | 110386
9 | 24:31.62 | 3:11.64 | 110387 | 124775
10 | 27:43.51 | 2:55.04 | 124776 | 137904
11 | 30:38.55 | 2:48.68 | 137905 | 150572
12 | 33:27.48 | 3:02.22 | 150573 | 164244
13 | 36:29.70 | 3:32.17 | 164245 | 180161
14 | 40:02.12 | 3:13.52 | 180162 | 194688
15 | 43:15.64 | 2:44.62 | 194689 | 207050
16 | 46:00.51 | 3:34.36 | 207051 | 223136
17 | 49:35.12 | 2:50.70 | 223137 | 235956
18 | 52:26.07 | 1:57.05 | 235957 | 244736
19 | 54:23.12 | 3:18.33 | 244737 | 259619
20 | 57:41.45 | 2:49.29 | 259620 | 272323
21 | 60:30.74 | 2:09.03 | 272324 | 282001
22 | 62:40.02 | 2:58.23 | 282002 | 295374
23 | 65:38.25 | 2:50.49 | 295375 | 308173


Характеристики диапазона извлечения и сообщения об ошибках

Выбранный диапазон

Имя файла C:\Downloads\The Story Of Vocal Jazz 1911-1940 (10 CD)\CD 5\Various - L'Histoire Du Jazz Vocal - The Story Of Vocal Jazz - Part 1 (1911 - 1940) CD5.wav

Пиковый уровень 98.0 %
Качество диапазона 100.0 %
CRC теста 63AEC061
CRC копии 63AEC061
Копирование… OK

Ошибок не произошло


AccurateRip: сводка

Трек 1 нет в базе данных
Трек 2 нет в базе данных
Трек 3 нет в базе данных
Трек 4 нет в базе данных
Трек 5 нет в базе данных
Трек 6 нет в базе данных
Трек 7 нет в базе данных
Трек 8 нет в базе данных
Трек 9 нет в базе данных
Трек 10 нет в базе данных
Трек 11 нет в базе данных
Трек 12 нет в базе данных
Трек 13 нет в базе данных
Трек 14 нет в базе данных
Трек 15 нет в базе данных
Трек 16 нет в базе данных
Трек 17 нет в базе данных
Трек 18 нет в базе данных
Трек 19 нет в базе данных
Трек 20 нет в базе данных
Трек 21 нет в базе данных
Трек 22 нет в базе данных
Трек 23 нет в базе данных

Ни одного трека нет в базе AccurateRip

Конец отчёта

[CUETools log; Date: 25.03.2020 20:03:37; Version: 2.1.4]
[CTDB TOCID: EaBhLD.zfPK5L23GTEhuYame9AM-] found.
Track | CTDB Status
1 | (10/10) Accurately ripped
2 | (10/10) Accurately ripped
3 | (10/10) Accurately ripped
4 | (10/10) Accurately ripped
5 | (10/10) Accurately ripped
6 | (10/10) Accurately ripped
7 | (10/10) Accurately ripped
8 | (10/10) Accurately ripped
9 | (10/10) Accurately ripped
10 | (10/10) Accurately ripped
11 | (10/10) Accurately ripped
12 | (10/10) Accurately ripped
13 | (10/10) Accurately ripped
14 | (10/10) Accurately ripped
15 | (10/10) Accurately ripped
16 | (10/10) Accurately ripped
17 | (10/10) Accurately ripped
18 | (10/10) Accurately ripped
19 | (10/10) Accurately ripped
20 | (10/10) Accurately ripped
21 | (10/10) Accurately ripped
22 | (10/10) Accurately ripped
23 | (10/10) Accurately ripped
[AccurateRip ID: 0039e62f-03bf4c0f-5c100c17] found.
Track [ CRC | V2 ] Status
01 [4068604f|e31c5bc9] (3+5/8) Accurately ripped
02 [2b963cce|340c3878] (3+5/8) Accurately ripped
03 [7c955d35|a38be4e4] (3+5/8) Accurately ripped
04 [6cdd6302|1c91fa77] (3+5/8) Accurately ripped
05 [4dcecf99|b2ed2be1] (3+5/8) Accurately ripped
06 [151dd282|54d9feff] (3+5/8) Accurately ripped
07 [f06a912b|44fe2aea] (3+5/8) Accurately ripped
08 [c02ba131|82e370bf] (3+5/8) Accurately ripped
09 [58b724a2|3577f92f] (3+5/8) Accurately ripped
10 [40c0ff09|ca5e9a49] (3+5/8) Accurately ripped
11 [cd3c75f2|af6f7b76] (3+5/8) Accurately ripped
12 [9002c1ed|c2cdd121] (3+5/8) Accurately ripped
13 [3856b471|5e0e39da] (3+5/8) Accurately ripped
14 [786e2784|4de56082] (3+5/8) Accurately ripped
15 [41f78e8e|98f8d1d7] (3+5/8) Accurately ripped
16 [533f90e8|68279d3e] (3+5/8) Accurately ripped
17 [6ff045ce|453feb7f] (3+5/8) Accurately ripped
18 [f27d8284|25bcdd69] (3+5/8) Accurately ripped
19 [9af031ec|ed212e37] (3+5/8) Accurately ripped
20 [0f7d841a|5f2bc3c2] (3+5/8) Accurately ripped
21 [3c5c7d87|03867c0b] (3+5/8) Accurately ripped
22 [fda661bc|0003f585] (2+5/7) Accurately ripped
23 [f52d3e33|bb85c203] (3+5/8) Accurately ripped

Track Peak [ CRC32 ] [W/O NULL] [ LOG ]
– 98,0 [63AEC061] [52A51B15] CRC32
01 89,2 [00A66E8C] [3CB72DB4]
02 81,2 [7F71D2EE] [110982DE]
03 84,8 [1B7F54F7] [BCA28047]
04 80,3 [0E722DF8] [CC0480A9]
05 84,0 [62D972C5] [99B87E84]
06 86,3 [BEDAF8F4] [774E34D9]
07 82,3 [D117A481] [9C169AF2]
08 80,2 [9D252E45] [00D5C4D8]
09 76,2 [9A95A502] [3F896639]
10 98,0 [F0F9A440] [AC059BC1]
11 76,8 [BD242820] [665D5997]
12 84,9 [718BA584] [998EA03B]
13 90,8 [6F07DFC4] [5F8F4E7C]
14 83,0 [5EE2D6A8] [3B045301]
15 96,4 [DC0DD3BB] [104D0E43]
16 76,4 [D465254C] [795D12CC]
17 81,2 [663DF04D] [DEA56AFE]
18 73,2 [55616F94] [C58AA24B]
19 72,4 [F6717DE1] [EB2422D6]
20 82,1 [340F8640] [C3069A20]
21 82,2 [18ACAA35] [A0213475]
22 81,7 [F6CE373C] [58721023]
23 80,3 [8431E99C] [F4806E99]

V.A. - The Story Of Vocal Jazz 1911-1940 [10CD Box Set] (2004)

CD 6
EAC Rip | FLAC (image+.cue+log) - 294 MB | MP3 CBR 320 kbps (LAME 3.93) - 177 MB | Covers included
Genre: Vocal Jazz, Swing, Blues | RAR 3% Rec. | Label: Le Chant Du Monde (574 1306)

Tracklist:
01. Dixie Rhythm - The Four Blackbirds (1935) (2:35)
02. Valaida Snow - I Can't Dance, I've Got Ants In My Pants (1935-01-19) (2:44)
03. Cab Calloway - I Ain't Got Nobody (1935-07-02) (3:04)
04. Sleepy John Estes - Down South Blues (1935) (3:09)
05. Georgia White - Honey Dripper Blues (1935-07-15) (3:09)
06. Billie Holiday - I'm Painting The Town Red (1935-07-31) (3:00)
07. Frances Langford And The Mahlon Merrick Orchestra - I Feel A Song Comin' On (1935-07-31) (3:02)
08. Walter Davis - Ashes In My Whisky (1935) (2:35)
09. Fats Waller - Truckin' (1935-08-07) (3:21)
10. Blind Boy Fuller - My Brown Skin Sugar Plum (1935) (3:02)
11. Louis Armstrong - I'm In The Mood For Love (1935-10-03) (3:11)
12. Robert Johnson - Cross Road Blues (1936) (2:41)
13. Robert Johnson - Ramblin' On My Mind (1936) (2:53)
14. Memphis Minnie - Hoodoo Lady (1936) (3:05)
15. Lil Johnson - That Bonus That Done Gone Thru (1936-02-12) (3:03)
16. Bill Casey - W.P.A. Blues (1936-02-12) (3:17)
17. Ella Fitzgerald - All My Life (1936-03-17) (3:15)
18. Kid Prince Moore - South Bound Blues (1936) (3:03)
19. Billie Holiday - These Foolish Things (1936-06-30) (3:20)
20. Billie Holiday And Her Orchestra - Billie's Blues (1936-07-10) (2:41)
21. Ella Fitzgerald - Mr Paganini You'll Have To Swing It (1936-10-29) (2:56)
22. Midge Williams - Where The Lazy River Goes By (1936-12-16) (2:52)
23. Lonnie Johnson - Flood Water (1937) (2:44)
24. Washboard Sam - The Big Boat (1937) (3:04)
25. Golden Gate Quartet - Golden Gate Gospel Train (1937) (2:36)

Total time: 01:14:34

Exact Audio Copy V0.99 prebeta 4 from 23. January 2008

Отчёт EAC об извлечении, выполненном 21. августа 2009, 13:49

Various / The Story Of Vocal Jazz - Cd 6

Дисковод: Optiarc DVD RW AD-7170A Adapter: 0 ID: 0

Режим чтения : Достоверность
Использование точного потока : Да
Отключение кэша аудио : Да
Использование указателей C2 : Нет

Коррекция смещения при чтении : 48
Способность читать области Lead-in и Lead-out : Нет
Заполнение пропущенных сэмплов тишиной : Да
Удаление блоков с тишиной в начале и конце : Нет
При вычислениях CRC использовались нулевые сэмплы : Да
Интерфейс : Встроенный Win32-интерфейс для Win NT/2000

Выходной формат : Пользовательский кодировщик
Выбранный битрейт : 768 kBit/s
Качество : Высокий
Добавление ID3-тэга : Да
Утилита сжатия : C:\Program Files\Exact Audio Copy\Flac\flac.exe
Дополнительные параметры : -6 -V -T "ARTIST=%a" -T "TITLE=%t" -T "ALBUM=%g" -T "DATE=%y" -T "TRACKNUMBER=%n" -T "GENRE=%m" -T "COMMENT=%e" %s -o %d


TOC извлечённого CD

Трек | Старт | Длительность | Начальный сектор | Конечный сектор
––––––––––––––––––––––––––––––––––-
1 | 0:00.00 | 2:35.49 | 0 | 11673
2 | 2:35.49 | 2:44.31 | 11674 | 24004
3 | 5:20.05 | 3:04.13 | 24005 | 37817
4 | 8:24.18 | 3:09.43 | 37818 | 52035
5 | 11:33.61 | 3:09.19 | 52036 | 66229
6 | 14:43.05 | 3:00.12 | 66230 | 79741
7 | 17:43.17 | 3:02.74 | 79742 | 93465
8 | 20:46.16 | 2:35.69 | 93466 | 105159
9 | 23:22.10 | 3:21.39 | 105160 | 120273
10 | 26:43.49 | 3:02.37 | 120274 | 133960
11 | 29:46.11 | 3:11.26 | 133961 | 148311
12 | 32:57.37 | 2:41.33 | 148312 | 160419
13 | 35:38.70 | 2:53.30 | 160420 | 173424
14 | 38:32.25 | 3:05.63 | 173425 | 187362
15 | 41:38.13 | 3:03.33 | 187363 | 201120
16 | 44:41.46 | 3:17.67 | 201121 | 215962
17 | 47:59.38 | 3:15.07 | 215963 | 230594
18 | 51:14.45 | 3:03.64 | 230595 | 244383
19 | 54:18.34 | 3:20.19 | 244384 | 259402
20 | 57:38.53 | 2:41.08 | 259403 | 271485
21 | 60:19.61 | 2:56.07 | 271486 | 284692
22 | 63:15.68 | 2:52.62 | 284693 | 297654
23 | 66:08.55 | 2:44.65 | 297655 | 310019
24 | 68:53.45 | 3:04.12 | 310020 | 323831
25 | 71:57.57 | 2:36.28 | 323832 | 335559


Характеристики диапазона извлечения и сообщения об ошибках

Выбранный диапазон

Имя файла C:\Downloads\The Story Of Vocal Jazz 1911-1940 (10 CD)\CD 6\Various - The Story Of Vocal Jazz - Cd 6.wav

Пиковый уровень 100.0 %
Качество диапазона 100.0 %
CRC теста DBB6834C
CRC копии DBB6834C
Копирование… OK

Ошибок не произошло


AccurateRip: сводка

Трек 1 нет в базе данных
Трек 2 нет в базе данных
Трек 3 нет в базе данных
Трек 4 нет в базе данных
Трек 5 нет в базе данных
Трек 6 нет в базе данных
Трек 7 нет в базе данных
Трек 8 нет в базе данных
Трек 9 нет в базе данных
Трек 10 нет в базе данных
Трек 11 нет в базе данных
Трек 12 нет в базе данных
Трек 13 нет в базе данных
Трек 14 нет в базе данных
Трек 15 нет в базе данных
Трек 16 нет в базе данных
Трек 17 нет в базе данных
Трек 18 нет в базе данных
Трек 19 нет в базе данных
Трек 20 нет в базе данных
Трек 21 нет в базе данных
Трек 22 нет в базе данных
Трек 23 нет в базе данных
Трек 24 нет в базе данных
Трек 25 нет в базе данных

Ни одного трека нет в базе AccurateRip

Конец отчёта

[CUETools log; Date: 25.03.2020 20:04:47; Version: 2.1.4]
[CTDB TOCID: IzbjQ0G_dzD6ZPstRWglbUyCgpk-] found.
Track | CTDB Status
1 | (10/10) Accurately ripped
2 | (10/10) Accurately ripped
3 | (10/10) Accurately ripped
4 | (10/10) Accurately ripped
5 | (10/10) Accurately ripped
6 | (10/10) Accurately ripped
7 | (10/10) Accurately ripped
8 | (10/10) Accurately ripped
9 | (10/10) Accurately ripped
10 | (10/10) Accurately ripped
11 | (10/10) Accurately ripped
12 | (10/10) Accurately ripped
13 | (10/10) Accurately ripped
14 | (10/10) Accurately ripped
15 | (10/10) Accurately ripped
16 | (10/10) Accurately ripped
17 | (10/10) Accurately ripped
18 | (10/10) Accurately ripped
19 | (10/10) Accurately ripped
20 | (10/10) Accurately ripped
21 | (10/10) Accurately ripped
22 | (10/10) Accurately ripped
23 | (10/10) Accurately ripped
24 | (10/10) Accurately ripped
25 | (10/10) Accurately ripped
[AccurateRip ID: 0042a8d6-04b399de-6a117a19] found.
Track [ CRC | V2 ] Status
01 [3e96450d|5858e406] (3+5/8) Accurately ripped
02 [511e5fcd|5ce9d249] (3+5/8) Accurately ripped
03 [e94b4692|0697eef6] (3+5/8) Accurately ripped
04 [28dac48c|854e1aff] (3+5/8) Accurately ripped
05 [5a26af12|ba408e61] (3+5/8) Accurately ripped
06 [8de37d9c|8c8e54de] (3+5/8) Accurately ripped
07 [a7db9000|7e47beea] (3+5/8) Accurately ripped
08 [30a54df8|af9ca265] (3+5/8) Accurately ripped
09 [e9176433|f00e1ceb] (3+5/8) Accurately ripped
10 [99b371b9|4564d710] (3+5/8) Accurately ripped
11 [841a6df3|f3cd044f] (3+5/8) Accurately ripped
12 [283c5707|c7317045] (3+5/8) Accurately ripped
13 [fb42eac5|9242d669] (3+5/8) Accurately ripped
14 [b0a571c6|41ade405] (3+5/8) Accurately ripped
15 [e34b2f7c|a229cd32] (3+5/8) Accurately ripped
16 [527e64e4|5e63f402] (3+5/8) Accurately ripped
17 [ae9dc540|9c20f621] (3+5/8) Accurately ripped
18 [9d25a47d|87df82d8] (3+5/8) Accurately ripped
19 [f98c4463|1289896f] (3+5/8) Accurately ripped
20 [b89c273e|0a791de7] (3+5/8) Accurately ripped
21 [eb75b706|820c85eb] (3+5/8) Accurately ripped
22 [98cc8a04|4c4bcdb7] (3+5/8) Accurately ripped
23 [2eaa76a2|f67f0ef6] (3+5/8) Accurately ripped
24 [58ba52b2|13837ad8] (3+5/8) Accurately ripped
25 [a0f89a06|0b65e0d5] (2+5/7) Accurately ripped

Track Peak [ CRC32 ] [W/O NULL] [ LOG ]
– 100,0 [DBB6834C] [87DCCCBE] CRC32
01 79,5 [269F2779] [366AE9A4]
02 100,0 [8AC9B71B] [FF8E9A21]
03 80,8 [8C56E5EA] [5228C87F]
04 84,1 [DD3F9D3D] [5F0109EB]
05 77,0 [E614914A] [99602192]
06 76,1 [FB07B9D1] [B34C16D6]
07 69,5 [7EEDFEF6] [0C072151]
08 80,1 [12C160F0] [86D3EAB7]
09 80,5 [74DCBEBF] [51560F6F]
10 80,5 [10B05D56] [589CAA65]
11 85,2 [3FABCA10] [A648594B]
12 81,8 [64151295] [22A04BB2]
13 77,9 [5888702A] [19C7D808]
14 80,3 [ACCD9780] [1F8AD72E]
15 89,0 [902FC439] [0C59B0DF]
16 78,8 [68B965F9] [A181794D]
17 81,9 [7C60EFB5] [FBF504BB]
18 76,5 [D7772B81] [572D5F22]
19 84,9 [018B302B] [27CD1C27]
20 83,3 [DB98A429] [047D2258]
21 86,9 [19624B5B] [8BCC2959]
22 92,6 [EA761CC6] [1E7B7AF2]
23 78,7 [789465A9] [1A639784]
24 80,7 [F7575AED] [27F90C65]
25 100,0 [7272CFE2] [2DB38E57]

V.A. - The Story Of Vocal Jazz 1911-1940 [10CD Box Set] (2004)

CD 7
EAC Rip | FLAC (image+.cue+log) - 307 MB | MP3 CBR 320 kbps (LAME 3.93) - 179 MB | Covers included
Genre: Vocal Jazz, Swing, Blues | RAR 3% Rec. | Label: Le Chant Du Monde (574 1307)

Tracklist:
01. Norfolk Jubilee Quartet - Didn't It Rain (1937) (3:17)
02. Mildred Bailey - Smoke Dreams (1937-01-08) (3:07)
03. Gladys Palmer - Where The Lazy River Goes By (1937-01-28) (2:35)
04. Duke Ellington - I've Got To Be A Rug Cutter (1937-03) (2:02)
05. Ivie Anderson & Rex Stewart - I've Got To Be A Rug Cutter (1937-03-05) (2:35)
06. Blind Boy Fuller - Pistol Slapper Blues (1937) (2:42)
07. Ella Fitzgerald - You Showed Me The Way (1937-03-24) (3:22)
08. The Mills Brothers & Louis Armstrong - Darling Nelly Gray (1937-04-07) (2:45)
09. Merline Johnson - Make Me A Pallet On The Floor (1937-05-04) (2:53)
10. Billie Holiday - Mean To Me (1937-05-11) (3:08)
11. Bukka White - Shake'em On Down (1937) (2:59)
12. Mahalia Jackson - Keep Me Every Day (1937-05-21) (2:47)
13. Jimmy Rushing - Good Morning Blues (1937-08-09) (3:07)
14. Edythe Wright & Tommy Dorsey And His Clambake Seven - Nice Work If You Can Get It (1937-10-14) (2:23)
15. Maxine Sullivan - The Folks Who Live On The Hill (1937-10-22) (3:04)
16. Billie Holiday - My Man (1937-11-01) (3:04)
17. Ella Fitzgerald - I Want To Be Happy (1937-11-02) (4:32)
18. The Andrew Sisters - Bei Mir Biste Schon (1937-11-24) (3:09)
19. The Mills Brothers - Tiger Rag (1938) (1:50)
20. Peetie Wheatstraw - What More Can A Man Do? (1938) (3:05)
21. Golden State Quartet - Sweet Adeline (1938) (2:24)
22. Billie Holiday - Now They Call It Swing (1938-01-12) (3:07)
23. Jimmy Rushing - Sent For You Yesterday (1938-02-16) (2:59)
24. Jazz Gillum - Mule Blues (1938) (3:16)
25. Slim & Slam - Chinatown My Chinatown (1938-02-17) (2:42)
26. Rosetta Howard - How Long Baby Will You Keep Me This Way (1938-04-21) (2:23)

Total time: 01:15:30

Exact Audio Copy V0.99 prebeta 4 from 23. January 2008

Отчёт EAC об извлечении, выполненном 21. августа 2009, 14:23

Various / L'Histoire Du Jazz Vocal - The Story Of Vocal Jazz - Part 1 (1911 - 1940) CD7

Дисковод: Optiarc DVD RW AD-7170A Adapter: 0 ID: 0

Режим чтения : Достоверность
Использование точного потока : Да
Отключение кэша аудио : Да
Использование указателей C2 : Нет

Коррекция смещения при чтении : 48
Способность читать области Lead-in и Lead-out : Нет
Заполнение пропущенных сэмплов тишиной : Да
Удаление блоков с тишиной в начале и конце : Нет
При вычислениях CRC использовались нулевые сэмплы : Да
Интерфейс : Встроенный Win32-интерфейс для Win NT/2000

Выходной формат : Пользовательский кодировщик
Выбранный битрейт : 768 kBit/s
Качество : Высокий
Добавление ID3-тэга : Да
Утилита сжатия : C:\Program Files\Exact Audio Copy\Flac\flac.exe
Дополнительные параметры : -6 -V -T "ARTIST=%a" -T "TITLE=%t" -T "ALBUM=%g" -T "DATE=%y" -T "TRACKNUMBER=%n" -T "GENRE=%m" -T "COMMENT=%e" %s -o %d


TOC извлечённого CD

Трек | Старт | Длительность | Начальный сектор | Конечный сектор
––––––––––––––––––––––––––––––––––-
1 | 0:00.00 | 3:17.29 | 0 | 14803
2 | 3:17.29 | 3:07.48 | 14804 | 28876
3 | 6:25.02 | 2:35.17 | 28877 | 40518
4 | 9:00.19 | 2:02.01 | 40519 | 49669
5 | 11:02.20 | 2:35.73 | 49670 | 61367
6 | 13:38.18 | 2:42.59 | 61368 | 73576
7 | 16:21.02 | 3:22.11 | 73577 | 88737
8 | 19:43.13 | 2:45.16 | 88738 | 101128
9 | 22:28.29 | 2:53.59 | 101129 | 114162
10 | 25:22.13 | 3:08.60 | 114163 | 128322
11 | 28:30.73 | 2:59.64 | 128323 | 141811
12 | 31:30.62 | 2:47.19 | 141812 | 154355
13 | 34:18.06 | 3:07.42 | 154356 | 168422
14 | 37:25.48 | 2:23.47 | 168423 | 179194
15 | 39:49.20 | 3:04.53 | 179195 | 193047
16 | 42:53.73 | 3:04.37 | 193048 | 206884
17 | 45:58.35 | 4:32.25 | 206885 | 227309
18 | 50:30.60 | 3:09.56 | 227310 | 241540
19 | 53:40.41 | 1:50.21 | 241541 | 249811
20 | 55:30.62 | 3:05.38 | 249812 | 263724
21 | 58:36.25 | 2:24.54 | 263725 | 274578
22 | 61:01.04 | 3:07.47 | 274579 | 288650
23 | 64:08.51 | 2:59.09 | 288651 | 302084
24 | 67:07.60 | 3:16.46 | 302085 | 316830
25 | 70:24.31 | 2:42.30 | 316831 | 329010
26 | 73:06.61 | 2:23.27 | 329011 | 339762


Характеристики диапазона извлечения и сообщения об ошибках

Выбранный диапазон

Имя файла C:\Downloads\The Story Of Vocal Jazz 1911-1940 (10 CD)\CD 7\Various - L'Histoire Du Jazz Vocal - The Story Of Vocal Jazz - Part 1 (1911 - 1940) CD7.wav

Пиковый уровень 98.5 %
Качество диапазона 100.0 %
CRC теста B747302E
CRC копии B747302E
Копирование… OK

Ошибок не произошло


AccurateRip: сводка

Трек 1 нет в базе данных
Трек 2 нет в базе данных
Трек 3 нет в базе данных
Трек 4 нет в базе данных
Трек 5 нет в базе данных
Трек 6 нет в базе данных
Трек 7 нет в базе данных
Трек 8 нет в базе данных
Трек 9 нет в базе данных
Трек 10 нет в базе данных
Трек 11 нет в базе данных
Трек 12 нет в базе данных
Трек 13 нет в базе данных
Трек 14 нет в базе данных
Трек 15 нет в базе данных
Трек 16 нет в базе данных
Трек 17 нет в базе данных
Трек 18 нет в базе данных
Трек 19 нет в базе данных
Трек 20 нет в базе данных
Трек 21 нет в базе данных
Трек 22 нет в базе данных
Трек 23 нет в базе данных
Трек 24 нет в базе данных
Трек 25 нет в базе данных
Трек 26 нет в базе данных

Ни одного трека нет в базе AccurateRip

Конец отчёта

[CUETools log; Date: 25.03.2020 20:05:35; Version: 2.1.4]
[CTDB TOCID: kR0S3Y_YKMv5333sSNoB3lBSKuo-] found.
Track | CTDB Status
1 | (9/9) Accurately ripped
2 | (9/9) Accurately ripped
3 | (9/9) Accurately ripped
4 | (9/9) Accurately ripped
5 | (9/9) Accurately ripped
6 | (9/9) Accurately ripped
7 | (9/9) Accurately ripped
8 | (9/9) Accurately ripped
9 | (9/9) Accurately ripped
10 | (9/9) Accurately ripped
11 | (9/9) Accurately ripped
12 | (9/9) Accurately ripped
13 | (9/9) Accurately ripped
14 | (9/9) Accurately ripped
15 | (9/9) Accurately ripped
16 | (9/9) Accurately ripped
17 | (9/9) Accurately ripped
18 | (9/9) Accurately ripped
19 | (9/9) Accurately ripped
20 | (9/9) Accurately ripped
21 | (9/9) Accurately ripped
22 | (9/9) Accurately ripped
23 | (9/9) Accurately ripped
24 | (9/9) Accurately ripped
25 | (9/9) Accurately ripped
26 | (9/9) Accurately ripped
[AccurateRip ID: 0045db93-051c3de2-6f11b21a] found.
Track [ CRC | V2 ] Status
01 [c70205c9|71e2c47c] (3+5/8) Accurately ripped
02 [2eea1f53|d629309c] (3+5/8) Accurately ripped
03 [850bdba1|64cbcd4f] (3+5/8) Accurately ripped
04 [0128a41b|1ed3fec7] (3+5/8) Accurately ripped
05 [c316a588|1482a721] (3+5/8) Accurately ripped
06 [8290e7a3|4cdb7661] (3+5/8) Accurately ripped
07 [4b46875c|18b65ce1] (3+5/8) Accurately ripped
08 [c887f286|8a78a4fc] (3+5/8) Accurately ripped
09 [1259bbe1|0ff4fc47] (3+5/8) Accurately ripped
10 [4cd48a76|4d6aa6cd] (3+5/8) Accurately ripped
11 [c13b13b2|61372bbc] (3+5/8) Accurately ripped
12 [457fd3ee|b57a257d] (3+5/8) Accurately ripped
13 [15888b50|52215d2a] (3+5/8) Accurately ripped
14 [8207fbd1|8e7db7d9] (3+5/8) Accurately ripped
15 [087b855e|f83bdf04] (3+5/8) Accurately ripped
16 [3710abaf|d3d7207d] (3+5/8) Accurately ripped
17 [ef4087eb|0f20ee99] (3+5/8) Accurately ripped
18 [cebf4ec1|e5ffc899] (3+5/8) Accurately ripped
19 [09605e02|6f81612d] (3+5/8) Accurately ripped
20 [a527f038|eb86f520] (3+5/8) Accurately ripped
21 [6dd3194e|4eed9367] (3+5/8) Accurately ripped
22 [0570c379|8f628f23] (3+5/8) Accurately ripped
23 [dfcc6045|5e8d8650] (3+5/8) Accurately ripped
24 [737a74c7|5403c2f4] (3+5/8) Accurately ripped
25 [9aeeebc2|412c5a7e] (3+5/8) Accurately ripped
26 [18944c94|e66ad5f7] (3+5/8) Accurately ripped

Track Peak [ CRC32 ] [W/O NULL] [ LOG ]
– 98,5 [B747302E] [B3B39D53] CRC32
01 76,5 [E9B5E2E3] [166F772D]
02 81,3 [F2876D9F] [19790757]
03 78,5 [FB5E3D98] [B0C0B833]
04 80,5 [BFC9FF3B] [80406992]
05 79,7 [2D2DC509] [D0EA0386]
06 82,5 [85D6D395] [EE7B5F85]
07 82,0 [B912840B] [1EA8CB5E]
08 98,5 [0A60DFE6] [FAB42C1F]
09 84,4 [E439F412] [EEF6F182]
10 78,1 [ACB63F39] [BE4EDBB5]
11 88,8 [B08D8A5D] [2D5A613E]
12 84,2 [43D3B41C] [24EE8FF3]
13 82,4 [0732172C] [AB8A7E26]
14 83,3 [E5B2D8E5] [756C0FF8]
15 78,2 [E375EF8C] [E17D7E19]
16 82,0 [5A1879FC] [05442E34]
17 79,1 [DEC56FC8] [5D79C841]
18 85,6 [C9A79AF6] [1E3A3232]
19 78,0 [B242AA92] [5907D916]
20 86,3 [85C3A4C4] [7424BFD2]
21 75,5 [24E076E3] [917A3295]
22 66,4 [5DF12828] [F389DD3D]
23 84,1 [18AD5FCA] [A68FA4B4]
24 77,4 [11E5ACF8] [4CBE4EA8]
25 87,9 [45AF658A] [CE0BEC9B]
26 76,2 [2D232B9C] [8E8573CC]

V.A. - The Story Of Vocal Jazz 1911-1940 [10CD Box Set] (2004)

CD 8
EAC Rip | FLAC (image+.cue+log) - 323 MB | MP3 CBR 320 kbps (LAME 3.93) - 179 MB | Covers included
Genre: Vocal Jazz, Swing, Blues | RAR 3% Rec. | Label: Le Chant Du Monde (574 1308)

Tracklist:
01. Billie Holiday - You Go to My Head [1938-05-11] (2:52)
02. Sonny Boy Williamson I - Goodbye Red [1938] (3:12)
03. Louis Armstrong - Shadrack [1938-06-14] (2:33)
04. Louis Armstrong - Nobody Knows the Trouble I've Seen [1938-06-14] (3:10)
05. Tiny Mayberry - Mailman Blues [1938-07-20] (3:06)
06. Nan Wynn with Teddy Wilson - Laugh and Call It Love [1938-07-29] (2:57)
07. Yank Rachell - When You Feel Down [1938] (3:17)
08. Bea Wain with Larry Carlton - At Long Last Love [1938-08-01] (2:54)
09. Fats Waller - Two Sleepy People [1938-10-13] (3:06)
10. Georgia White - The Blues Ain't Nothin' But… [1938-10-21] (2:41)
11. Marian Anderson - Deep River [1938-11] (3:13)
12. Marian Anderson - Sometimes I Feel like a Motherless Child [1938-11] (3:21)
13. Big Joe Turner - Roll 'Em Pete [1938-12-30] (2:52)
14. Leadbelly - Bourgeois Blues [1939] (5:36)
15. Selah Jubilee Singers - I Want Jesus to Walk Around My Bedside [1939] (3:21)
16. Trummy Young with Jimmie Lunceford - 'Tain't What You Do [1939-01-03] (3:06)
17. Helen Humes with Count Basie - My Heart Belongs to Daddy [1939-01-05] (2:58)
18. Louis Armstrong - Jeepers Creepers [1939-01-18] (2:38)
19. Billie Holiday with Teddy Wilson - More than You Know [1939-01-30] (3:09)
20. Jimmy Rushing with Count Basie - Goin' to Chicago Blues [1939-02-13] (3:22)
21. Ella Fitzgerald with Chick Webb - Undecided [1939-02-17] (3:18)
22. Jean Eldridge with Johnny Hodges - Mississippi Dream Boat [1939-02-27] (2:39)
23. Cootie Williams & His Rug Cutters - She's Gone [1939-02-28] (3:04)
24. Helen Ward with Gene Krupa - Mutiny in the Parlor [1939-02-29] (3:01)

Total time: 01:15:39

Exact Audio Copy V0.99 prebeta 4 from 23. January 2008

Отчёт EAC об извлечении, выполненном 21. августа 2009, 14:56

Various / The Story of Vocal Jazz: 1911-1940 [disc 8]

Дисковод: Optiarc DVD RW AD-7170A Adapter: 0 ID: 0

Режим чтения : Достоверность
Использование точного потока : Да
Отключение кэша аудио : Да
Использование указателей C2 : Нет

Коррекция смещения при чтении : 48
Способность читать области Lead-in и Lead-out : Нет
Заполнение пропущенных сэмплов тишиной : Да
Удаление блоков с тишиной в начале и конце : Нет
При вычислениях CRC использовались нулевые сэмплы : Да
Интерфейс : Встроенный Win32-интерфейс для Win NT/2000

Выходной формат : Пользовательский кодировщик
Выбранный битрейт : 768 kBit/s
Качество : Высокий
Добавление ID3-тэга : Да
Утилита сжатия : C:\Program Files\Exact Audio Copy\Flac\flac.exe
Дополнительные параметры : -6 -V -T "ARTIST=%a" -T "TITLE=%t" -T "ALBUM=%g" -T "DATE=%y" -T "TRACKNUMBER=%n" -T "GENRE=%m" -T "COMMENT=%e" %s -o %d


TOC извлечённого CD

Трек | Старт | Длительность | Начальный сектор | Конечный сектор
––––––––––––––––––––––––––––––––––-
1 | 0:00.00 | 2:52.59 | 0 | 12958
2 | 2:52.59 | 3:12.64 | 12959 | 27422
3 | 6:05.48 | 2:33.70 | 27423 | 38967
4 | 8:39.43 | 3:10.11 | 38968 | 53228
5 | 11:49.54 | 3:06.59 | 53229 | 67237
6 | 14:56.38 | 2:57.44 | 67238 | 80556
7 | 17:54.07 | 3:17.53 | 80557 | 95384
8 | 21:11.60 | 2:54.66 | 95385 | 108500
9 | 24:06.51 | 3:06.73 | 108501 | 122523
10 | 27:13.49 | 2:41.60 | 122524 | 134658
11 | 29:55.34 | 3:13.56 | 134659 | 149189
12 | 33:09.15 | 3:21.05 | 149190 | 164269
13 | 36:30.20 | 2:52.16 | 164270 | 177185
14 | 39:22.36 | 5:36.09 | 177186 | 202394
15 | 44:58.45 | 3:21.38 | 202395 | 217507
16 | 48:20.08 | 3:06.16 | 217508 | 231473
17 | 51:26.24 | 2:58.27 | 231474 | 244850
18 | 54:24.51 | 2:38.01 | 244851 | 256701
19 | 57:02.52 | 3:09.45 | 256702 | 270921
20 | 60:12.22 | 3:22.12 | 270922 | 286083
21 | 63:34.34 | 3:18.50 | 286084 | 300983
22 | 66:53.09 | 2:39.72 | 300984 | 312980
23 | 69:33.06 | 3:04.15 | 312981 | 326795
24 | 72:37.21 | 3:01.47 | 326796 | 340417


Характеристики диапазона извлечения и сообщения об ошибках

Выбранный диапазон

Имя файла C:\Downloads\The Story Of Vocal Jazz 1911-1940 (10 CD)\CD 8\Various - The Story of Vocal Jazz 1911-1940 [disc 8].wav

Пиковый уровень 90.9 %
Качество диапазона 100.0 %
CRC теста 5D4DB1C2
CRC копии 5D4DB1C2
Копирование… OK

Ошибок не произошло


AccurateRip: сводка

Трек 1 точное извлечение (доверие 1) [9EC63AE8]
Трек 2 точное извлечение (доверие 1) [5B5C681F]
Трек 3 точное извлечение (доверие 1) [ECFED4BA]
Трек 4 точное извлечение (доверие 1) [B5E02880]
Трек 5 точное извлечение (доверие 1) [C7049198]
Трек 6 точное извлечение (доверие 1) [E38BBAC0]
Трек 7 точное извлечение (доверие 1) [236B2F98]
Трек 8 точное извлечение (доверие 1) [D0AEFFD6]
Трек 9 точное извлечение (доверие 1) [1B003FC3]
Трек 10 точное извлечение (доверие 1) [B5059AD9]
Трек 11 точное извлечение (доверие 1) [D3B2D873]
Трек 12 точное извлечение (доверие 1) [14BB28BC]
Трек 13 точное извлечение (доверие 1) [FADC8E6B]
Трек 14 точное извлечение (доверие 1) [65ED9E70]
Трек 15 точное извлечение (доверие 1) [8E3D9AE4]
Трек 16 точное извлечение (доверие 1) [EFC59EF7]
Трек 17 точное извлечение (доверие 1) [B786E3AB]
Трек 18 точное извлечение (доверие 1) [1B0DB883]
Трек 19 точное извлечение (доверие 1) [D8703F19]
Трек 20 точное извлечение (доверие 1) [0A6F26DD]
Трек 21 точное извлечение (доверие 1) [D3FE775D]
Трек 22 точное извлечение (доверие 1) [4E08E010]
Трек 23 точное извлечение (доверие 1) [18A91733]
Трек 24 точное извлечение (доверие 1) [2F0BC357]

Все треки извлечены точно

Конец отчёта

[CUETools log; Date: 25.03.2020 20:06:17; Version: 2.1.4]
[CTDB TOCID: qzf.7vLYnMfb_K_.ple50FPAg.k-] found.
Track | CTDB Status
1 | (11/11) Accurately ripped
2 | (11/11) Accurately ripped
3 | (11/11) Accurately ripped
4 | (11/11) Accurately ripped
5 | (11/11) Accurately ripped
6 | (11/11) Accurately ripped
7 | (11/11) Accurately ripped
8 | (11/11) Accurately ripped
9 | (11/11) Accurately ripped
10 | (11/11) Accurately ripped
11 | (11/11) Accurately ripped
12 | (11/11) Accurately ripped
13 | (11/11) Accurately ripped
14 | (11/11) Accurately ripped
15 | (11/11) Accurately ripped
16 | (11/11) Accurately ripped
17 | (11/11) Accurately ripped
18 | (10/11) Accurately ripped
19 | (11/11) Accurately ripped
20 | (11/11) Accurately ripped
21 | (11/11) Accurately ripped
22 | (11/11) Accurately ripped
23 | (11/11) Accurately ripped
24 | (11/11) Accurately ripped
[AccurateRip ID: 004070e4-04645aec-6411ba18] found.
Track [ CRC | V2 ] Status
01 [9ec63ae8|0efbd793] (4+5/9) Accurately ripped
02 [5b5c681f|5717c70e] (4+5/9) Accurately ripped
03 [ecfed4ba|9695a1a4] (4+5/9) Accurately ripped
04 [b5e02880|4baac4a8] (3+5/8) Accurately ripped
05 [c7049198|6405a5d8] (4+5/9) Accurately ripped
06 [e38bbac0|1158c396] (4+5/9) Accurately ripped
07 [236b2f98|3380ee88] (4+5/9) Accurately ripped
08 [d0aeffd6|aadd916f] (4+5/9) Accurately ripped
09 [1b003fc3|6ed96ca1] (4+5/9) Accurately ripped
10 [b5059ad9|416da482] (4+5/9) Accurately ripped
11 [d3b2d873|74a2bdea] (4+5/9) Accurately ripped
12 [14bb28bc|74799710] (4+5/9) Accurately ripped
13 [fadc8e6b|9e3eb41e] (4+5/9) Accurately ripped
14 [65ed9e70|e5f4ca87] (4+5/9) Accurately ripped
15 [8e3d9ae4|a1062f20] (4+5/9) Accurately ripped
16 [efc59ef7|b54b29a5] (4+5/9) Accurately ripped
17 [b786e3ab|7ebb5feb] (4+5/9) Accurately ripped
18 [1b0db883|29218894] (4+5/9) Accurately ripped
19 [d8703f19|934056b1] (4+5/9) Accurately ripped
20 [0a6f26dd|ae31272b] (4+5/9) Accurately ripped
21 [d3fe775d|abf72c29] (4+5/9) Accurately ripped
22 [4e08e010|3050ff2f] (4+5/9) Accurately ripped
23 [18a91733|e656d4a0] (4+5/9) Accurately ripped
24 [2f0bc357|5c43a841] (4+5/9) Accurately ripped

Track Peak [ CRC32 ] [W/O NULL] [ LOG ]
– 90,9 [5D4DB1C2] [4BF4FEB9] CRC32
01 80,9 [ECD82EA0] [8F0BB38E]
02 83,4 [A77B64BE] [EF3CDAE7]
03 78,4 [C49E5112] [D7252B16]
04 78,0 [18CC4EF7] [FBA67965]
05 76,2 [C87FFDE8] [F00E29AA]
06 90,0 [1ABA5C8C] [45B3C87B]
07 77,2 [D8ACF5F5] [FE540321]
08 65,2 [12347639] [CFA8421A]
09 77,5 [5E90830D] [57ED373F]
10 82,9 [FD04D643] [C21CDA36]
11 80,4 [3B3ABD21] [58933542]
12 81,7 [971218E0] [DE4F830D]
13 78,0 [D7F8ACA7] [FBBDCB8D]
14 78,5 [82BB51EF] [B14D8112]
15 82,7 [FAF9831E] [D0D1097D]
16 88,9 [69F2CFEE] [4B8BAACC]
17 89,5 [560E690A] [1CBF8897]
18 83,5 [A7A976FF] [775AA596]
19 80,9 [BB158C56] [9AB6F731]
20 77,3 [8BAF6CD8] [FC836F86]
21 81,5 [D81CB3D3] [C4919B6F]
22 90,9 [6EC1DD8F] [F577840B]
23 75,9 [64006D37] [EE7F4D99]
24 80,1 [CE956419] [C29EAD77]

V.A. - The Story Of Vocal Jazz 1911-1940 [10CD Box Set] (2004)

CD 9
EAC Rip | FLAC (image+.cue+log) - 289 MB | MP3 CBR 320 kbps (LAME 3.93) - 178 MB | Covers included
Genre: Vocal Jazz, Swing, Blues | RAR 3% Rec. | Label: Le Chant Du Monde (574 1309)

Tracklist:
01. Pha Terrell - You Set Me On Fire (1939-03-16) (2:56)
02. Helen Humes - If I Could Be With You (1939-03-19) (3:00)
03. Billie Holiday - Long Gone Blues (1939-03-21) (3:09)
04. Ivie Anderson - Something To Live For (1939-03-21) (2:49)
05. Billie Holiday - Fine And Mellow (1939-04-20) (3:19)
06. Ella Fitzgerald - Have Mercy (1939-03-21) (3:10)
07. Big Bill Broonzy - Too Many Drivers (1939-05-11) (2:38)
08. Jimmy Rushing - Nobody Knows (1939-05-19) (2:49)
09. The Quintones & Barney Bigard - Utt-Da-Zay (1939-06-08) (2:51)
10. Ivie Anderson - I'm Checkin' Out Go'om Bye (1939-0612) (2:30)
11. Fats Waller - Honeysuckle Rose (1939-08-02) (3:20)
12. Helen Forrest - Day In, Day Out (1939-08-27) (3:37)
13. Frank Sinatra - All Or Nothing At All (1939-08-31) (3:00)
14. Trummy Young - Think Of Me Little Lady (1939-09-14) (2:46)
15. Martha Raye - Body And Soul (1939-09-17) (2:58)
16. Ethel Waters - Baby What Else Can I Do (1939-09-22) (3:01)
17. Ida Cox - Death Letter Blues (1939-10-31) (3:10)
18. Fats Waller - Your Feet's Too Big (1939-11-03) (3:08)
19. Hazel Scott - Mighty Like The Blues (1939-12-01) (2:55)
20. Billie Holiday - The Man I Love (1939-12-13) (3:07)
21. Ida Cox - 'Fore Day Creep (1939-12-24) (3:26)
22. Bukka White - Parchman Farm (1940) (2:38)
23. Leadbelly - Good Morning Blues (1940) (2:54)
24. Blind Gary Davis - Cross And Evil Blues (1940) (3:04)
25. Charioteers - Wade In The Water (1940) (2:43)

Total time: 01:15:11

Exact Audio Copy V0.99 prebeta 4 from 23. January 2008

Отчёт EAC об извлечении, выполненном 21. августа 2009, 15:26

Various / L'Histoire Du Jazz Vocal - The Story Of Vocal Jazz - Part 1 (1911 - 1940) CD9

Дисковод: Optiarc DVD RW AD-7170A Adapter: 0 ID: 0

Режим чтения : Достоверность
Использование точного потока : Да
Отключение кэша аудио : Да
Использование указателей C2 : Нет

Коррекция смещения при чтении : 48
Способность читать области Lead-in и Lead-out : Нет
Заполнение пропущенных сэмплов тишиной : Да
Удаление блоков с тишиной в начале и конце : Нет
При вычислениях CRC использовались нулевые сэмплы : Да
Интерфейс : Встроенный Win32-интерфейс для Win NT/2000

Выходной формат : Пользовательский кодировщик
Выбранный битрейт : 768 kBit/s
Качество : Высокий
Добавление ID3-тэга : Да
Утилита сжатия : C:\Program Files\Exact Audio Copy\Flac\flac.exe
Дополнительные параметры : -6 -V -T "ARTIST=%a" -T "TITLE=%t" -T "ALBUM=%g" -T "DATE=%y" -T "TRACKNUMBER=%n" -T "GENRE=%m" -T "COMMENT=%e" %s -o %d


TOC извлечённого CD

Трек | Старт | Длительность | Начальный сектор | Конечный сектор
––––––––––––––––––––––––––––––––––-
1 | 0:00.00 | 2:56.19 | 0 | 13218
2 | 2:56.19 | 3:00.50 | 13219 | 26768
3 | 5:56.69 | 3:09.12 | 26769 | 40955
4 | 9:06.06 | 2:49.32 | 40956 | 53662
5 | 11:55.38 | 3:19.69 | 53663 | 68656
6 | 15:15.32 | 3:10.14 | 68657 | 82920
7 | 18:25.46 | 2:38.21 | 82921 | 94791
8 | 21:03.67 | 2:49.37 | 94792 | 107503
9 | 23:53.29 | 2:51.32 | 107504 | 120360
10 | 26:44.61 | 2:30.11 | 120361 | 131621
11 | 29:14.72 | 3:20.39 | 131622 | 146660
12 | 32:35.36 | 3:37.57 | 146661 | 162992
13 | 36:13.18 | 3:00.63 | 162993 | 176555
14 | 39:14.06 | 2:46.65 | 176556 | 189070
15 | 42:00.71 | 2:58.41 | 189071 | 202461
16 | 44:59.37 | 3:01.09 | 202462 | 216045
17 | 48:00.46 | 3:10.51 | 216046 | 230346
18 | 51:11.22 | 3:08.67 | 230347 | 244513
19 | 54:20.14 | 2:55.07 | 244514 | 257645
20 | 57:15.21 | 3:07.58 | 257646 | 271728
21 | 60:23.04 | 3:26.30 | 271729 | 287208
22 | 63:49.34 | 2:38.14 | 287209 | 299072
23 | 66:27.48 | 2:54.52 | 299073 | 312174
24 | 69:22.25 | 3:04.69 | 312175 | 326043
25 | 72:27.19 | 2:43.42 | 326044 | 338310


Характеристики диапазона извлечения и сообщения об ошибках

Выбранный диапазон

Имя файла C:\Downloads\The Story Of Vocal Jazz 1911-1940 (10 CD)\CD 9\Various - L'Histoire Du Jazz Vocal - The Story Of Vocal Jazz - Part 1 (1911 - 1940) CD9.wav

Пиковый уровень 87.9 %
Качество диапазона 100.0 %
CRC теста 4670A3C0
CRC копии 4670A3C0
Копирование… OK

Ошибок не произошло


AccurateRip: сводка

Трек 1 нет в базе данных
Трек 2 нет в базе данных
Трек 3 нет в базе данных
Трек 4 нет в базе данных
Трек 5 нет в базе данных
Трек 6 нет в базе данных
Трек 7 нет в базе данных
Трек 8 нет в базе данных
Трек 9 нет в базе данных
Трек 10 нет в базе данных
Трек 11 нет в базе данных
Трек 12 нет в базе данных
Трек 13 нет в базе данных
Трек 14 нет в базе данных
Трек 15 нет в базе данных
Трек 16 нет в базе данных
Трек 17 нет в базе данных
Трек 18 нет в базе данных
Трек 19 нет в базе данных
Трек 20 нет в базе данных
Трек 21 нет в базе данных
Трек 22 нет в базе данных
Трек 23 нет в базе данных
Трек 24 нет в базе данных
Трек 25 нет в базе данных

Ни одного трека нет в базе AccurateRip

Конец отчёта

[CUETools log; Date: 25.03.2020 20:06:59; Version: 2.1.4]
[CTDB TOCID: T2G.l.B9pOUy.ZoKpt8XClZToqo-] found.
Track | CTDB Status
1 | (11/11) Accurately ripped
2 | (11/11) Accurately ripped
3 | (11/11) Accurately ripped
4 | (11/11) Accurately ripped
5 | (11/11) Accurately ripped
6 | (11/11) Accurately ripped
7 | (11/11) Accurately ripped
8 | (11/11) Accurately ripped
9 | (11/11) Accurately ripped
10 | (11/11) Accurately ripped
11 | (11/11) Accurately ripped
12 | (11/11) Accurately ripped
13 | (11/11) Accurately ripped
14 | (11/11) Accurately ripped
15 | (11/11) Accurately ripped
16 | (11/11) Accurately ripped
17 | (11/11) Accurately ripped
18 | (11/11) Accurately ripped
19 | (11/11) Accurately ripped
20 | (11/11) Accurately ripped
21 | (11/11) Accurately ripped
22 | (11/11) Accurately ripped
23 | (11/11) Accurately ripped
24 | (10/11) Accurately ripped
25 | (11/11) Accurately ripped
[AccurateRip ID: 00432895-04b9f386-80119e19] found.
Track [ CRC | V2 ] Status
01 [6352e379|b07938e7] (3+5/8) Accurately ripped
02 [f9161338|db1fe3e7] (3+5/8) Accurately ripped
03 [8739fd0b|cc06904b] (3+5/8) Accurately ripped
04 [3c95358c|9554bf0e] (3+5/8) Accurately ripped
05 [acb68db4|11ff855f] (3+5/8) Accurately ripped
06 [05fcff69|2afccecc] (3+5/8) Accurately ripped
07 [5014398e|a1d8c3db] (3+5/8) Accurately ripped
08 [84ca0250|56129fd2] (3+5/8) Accurately ripped
09 [5c5eb2eb|e6d6275b] (3+5/8) Accurately ripped
10 [8598d425|e350eb46] (3+5/8) Accurately ripped
11 [e936339d|4c8bb588] (3+5/8) Accurately ripped
12 [02b51249|c01c8386] (3+5/8) Accurately ripped
13 [26b24875|cb06e545] (3+5/8) Accurately ripped
14 [05c66193|e197c3cd] (3+5/8) Accurately ripped
15 [7ceb831a|a1711f11] (3+5/8) Accurately ripped
16 [59a8d9fe|187b782e] (3+5/8) Accurately ripped
17 [7c6b0b91|ababf2fa] (3+5/8) Accurately ripped
18 [aa0cb7c6|bc21be5e] (3+5/8) Accurately ripped
19 [cd206f1f|7fa77f4b] (3+5/8) Accurately ripped
20 [87491e58|9e0c93f4] (3+5/8) Accurately ripped
21 [2cf7556a|d8e4a0d3] (3+5/8) Accurately ripped
22 [f70ab751|ebc8d230] (2+5/7) Accurately ripped
23 [2823bc68|c267b98d] (3+5/8) Accurately ripped
24 [0d4235d2|28e1ff86] (2+5/7) Accurately ripped
25 [5a34e69e|63e40a55] (2+5/7) Accurately ripped

Track Peak [ CRC32 ] [W/O NULL] [ LOG ]
– 87,9 [4670A3C0] [17C987D8] CRC32
01 82,9 [B38FF232] [A2401C74]
02 82,8 [2342DC64] [A0501B3A]
03 80,9 [2488795C] [59DBAF29]
04 74,9 [21368476] [4BE4133F]
05 79,6 [0092CF3E] [88A8B583]
06 78,5 [9BB882A5] [DA2F2247]
07 84,8 [7EC4FFA7] [395B3655]
08 77,7 [79AF4203] [4E1ED601]
09 77,5 [322BFD21] [918CCA46]
10 83,6 [37180893] [5B5ED0D0]
11 77,7 [C306534E] [C2D21F66]
12 81,5 [A86D8A41] [374864F3]
13 77,5 [6F9937A5] [5D62E910]
14 81,0 [777CF946] [C71AED5C]
15 81,7 [CF684EAC] [F9071CF5]
16 79,8 [36EFF1E1] [D91C1295]
17 78,3 [450731C6] [D16A53A7]
18 87,9 [1EFDCAD7] [3A35A9FC]
19 79,7 [44C46D12] [AF07E443]
20 86,8 [43083409] [84BEE1C5]
21 82,8 [37B4050F] [67C34BC7]
22 82,9 [E3525CC6] [BB280453]
23 83,3 [F8750D27] [7B9A78F4]
24 77,0 [1BFA0AFC] [159A00C8]
25 82,0 [50E7EFA0] [770D7B56]

V.A. - The Story Of Vocal Jazz 1911-1940 [10CD Box Set] (2004)

CD 10
EAC Rip | FLAC (image+.cue+log) - 314 MB | MP3 CBR 320 kbps (LAME 3.93) - 180 MB | Covers included
Genre: Vocal Jazz, Swing, Blues | RAR 3% Rec. | Label: Le Chant Du Monde (574 1310)

Tracklist:
01. Charioteers - Ezechiel Saw The Wheel (1940) (2:44)
02. Lee Wiley - A Ship WIthout A Sail (1940-02) (3:26)
03. Faber Smith - East St. Louis Blues (1940-02-23) (2:51)
04. Viola Jefferson - I Got Rhythm (1940-02-27) (2:32)
05. Billie Holiday - Body And Soul (1940-02-29) (2:58)
06. Champion Jack Dupree - New Long Down Dog (1940) (3:00)
07. Shirley Ross - It Never Entered My Mind (1940-03-02) (3:12)
08. Maxine Sullivan - The Hour Of Parting (1940-05-01) (2:50)
09. T-Bone Walker - T-Bone Blues (1940-06) (3:18)
10. Alberta Hunter - My Castle's Rockin' (1940-06-03) (2:34)
11. Josh White - Trouble (1940) (3:21)
12. Billie Holiday - Laughing At Life (1940-06-07) (2:58)
13. Valaida Snow - You're Driving Me Crazy (1940-07-26) (2:22)
14. Jimmy Rushing - I Want A Little Girl (1940-08-08) (2:40)
15. Sammy Price - The Dirty Dozens (1940-09-26) (2:36)
16. Big Joe Turner - Piney Brown Blues (1940-11-11) (2:57)
17. Frank Sinatra - Stardust (1940-11-11) (3:15)
18. Sonny Boy Williamson 1 - War Time Blues (1940) (2:58)
19. Helen Forrest - The Man I Love (1940-11-13) (3:52)
20. Jazz Gillum - Key To The Highway (1940) (2:42)
21. Nat King Cole - Sweet Lorraine (1940-12-06) (2:57)
22. Helen Ward - Embraceable You (1940-12-09) (3:18)
23. Golden Gate Quartet - Blind Barnabus (1941) (2:10)
24. Son House - Delta Blues (1941) (2:27)
25. Memphis Minnie - Me And My Chauffeur (1941) (2:48)
26. Golden Gate Quartet - Jezebel (1941) (2:47)

Total time: 01:15:47

Exact Audio Copy V0.99 prebeta 4 from 23. January 2008

Отчёт EAC об извлечении, выполненном 21. августа 2009, 16:00

Various / L'Histoire Du Jazz Vocal - The Story Of Vocal Jazz - Part 1 (1911 - 1940) CD 10

Дисковод: Optiarc DVD RW AD-7170A Adapter: 0 ID: 0

Режим чтения : Достоверность
Использование точного потока : Да
Отключение кэша аудио : Да
Использование указателей C2 : Нет

Коррекция смещения при чтении : 48
Способность читать области Lead-in и Lead-out : Нет
Заполнение пропущенных сэмплов тишиной : Да
Удаление блоков с тишиной в начале и конце : Нет
При вычислениях CRC использовались нулевые сэмплы : Да
Интерфейс : Встроенный Win32-интерфейс для Win NT/2000

Выходной формат : Пользовательский кодировщик
Выбранный битрейт : 768 kBit/s
Качество : Высокий
Добавление ID3-тэга : Да
Утилита сжатия : C:\Program Files\Exact Audio Copy\Flac\flac.exe
Дополнительные параметры : -6 -V -T "ARTIST=%a" -T "TITLE=%t" -T "ALBUM=%g" -T "DATE=%y" -T "TRACKNUMBER=%n" -T "GENRE=%m" -T "COMMENT=%e" %s -o %d


TOC извлечённого CD

Трек | Старт | Длительность | Начальный сектор | Конечный сектор
––––––––––––––––––––––––––––––––––-
1 | 0:00.00 | 2:44.08 | 0 | 12307
2 | 2:44.08 | 3:26.36 | 12308 | 27793
3 | 6:10.44 | 2:51.21 | 27794 | 40639
4 | 9:01.65 | 2:32.73 | 40640 | 52112
5 | 11:34.63 | 2:58.41 | 52113 | 65503
6 | 14:33.29 | 3:00.74 | 65504 | 79077
7 | 17:34.28 | 3:12.45 | 79078 | 93522
8 | 20:46.73 | 2:50.04 | 93523 | 106276
9 | 23:37.02 | 3:18.00 | 106277 | 121126
10 | 26:55.02 | 2:34.30 | 121127 | 132706
11 | 29:29.32 | 3:21.36 | 132707 | 147817
12 | 32:50.68 | 2:58.55 | 147818 | 161222
13 | 35:49.48 | 2:22.09 | 161223 | 171881
14 | 38:11.57 | 2:40.61 | 171882 | 183942
15 | 40:52.43 | 2:36.55 | 183943 | 195697
16 | 43:29.23 | 2:57.59 | 195698 | 209031
17 | 46:27.07 | 3:15.15 | 209032 | 223671
18 | 49:42.22 | 2:58.36 | 223672 | 237057
19 | 52:40.58 | 3:52.65 | 237058 | 254522
20 | 56:33.48 | 2:42.42 | 254523 | 266714
21 | 59:16.15 | 2:57.16 | 266715 | 280005
22 | 62:13.31 | 3:18.26 | 280006 | 294881
23 | 65:31.57 | 2:10.38 | 294882 | 304669
24 | 67:42.20 | 2:27.64 | 304670 | 315758
25 | 70:10.09 | 2:48.46 | 315759 | 328404
26 | 72:58.55 | 2:47.66 | 328405 | 340995


Характеристики диапазона извлечения и сообщения об ошибках

Выбранный диапазон

Имя файла C:\Downloads\The Story Of Vocal Jazz 1911-1940 (10 CD)\CD 10\Various - L'Histoire Du Jazz Vocal - The Story Of Vocal Jazz - Part 1 (1911 - 1940) CD 10.wav

Пиковый уровень 94.4 %
Качество диапазона 99.9 %
CRC теста 597C6690
CRC копии 597C6690
Копирование… OK

Ошибок не произошло


AccurateRip: сводка

Трек 1 точное извлечение (доверие 1) [11BF4E62]
Трек 2 точное извлечение (доверие 1) [FB7FC301]
Трек 3 точное извлечение (доверие 1) [EEF1C302]
Трек 4 точное извлечение (доверие 1) [C847C17D]
Трек 5 точное извлечение (доверие 1) [7CEB831A]
Трек 6 точное извлечение (доверие 1) [BA6481EB]
Трек 7 точное извлечение (доверие 1) [B25C435F]
Трек 8 точное извлечение (доверие 1) [9C921DDE]
Трек 9 точное извлечение (доверие 1) [B293E9C6]
Трек 10 точное извлечение (доверие 1) [17FA3007]
Трек 11 точное извлечение (доверие 1) [3628D3CF]
Трек 12 точное извлечение (доверие 1) [673A12E0]
Трек 13 точное извлечение (доверие 1) [6F49121B]
Трек 14 точное извлечение (доверие 1) [81EFE917]
Трек 15 точное извлечение (доверие 1) [BEB03DAE]
Трек 16 точное извлечение (доверие 1) [3BB99187]
Трек 17 точное извлечение (доверие 1) [44F6D6DE]
Трек 18 точное извлечение (доверие 1) [059D7584]
Трек 19 точное извлечение (доверие 1) [7EAA9A7E]
Трек 20 точное извлечение (доверие 1) [3CADD535]
Трек 21 точное извлечение (доверие 1) [18208E10]
Трек 22 нет в базе данных
Трек 23 нет в базе данных
Трек 24 точное извлечение (доверие 1) [B8A3B54D]
Трек 25 точное извлечение (доверие 1) [40349B4D]
Трек 26 точное извлечение (доверие 1) [9E22B750]

24 трек(и) скопированы точно
2 трек(и) не содержатся в базе AccurateRip

Некоторые треки не прошли проверку на точность

Конец отчёта

[CUETools log; Date: 25.03.2020 20:07:49; Version: 2.1.4]
[CTDB TOCID: WkIXCrBUnxP0FGbufOVY7yaiiGo-] found.
Track | CTDB Status
1 | (9/9) Accurately ripped
2 | (9/9) Accurately ripped
3 | (9/9) Accurately ripped
4 | (9/9) Accurately ripped
5 | (9/9) Accurately ripped
6 | (9/9) Accurately ripped
7 | (8/9) Accurately ripped
8 | (9/9) Accurately ripped
9 | (9/9) Accurately ripped
10 | (9/9) Accurately ripped
11 | (9/9) Accurately ripped
12 | (9/9) Accurately ripped
13 | (9/9) Accurately ripped
14 | (9/9) Accurately ripped
15 | (9/9) Accurately ripped
16 | (9/9) Accurately ripped
17 | (9/9) Accurately ripped
18 | (9/9) Accurately ripped
19 | (9/9) Accurately ripped
20 | (9/9) Accurately ripped
21 | (9/9) Accurately ripped
22 | (9/9) Accurately ripped
23 | (9/9) Accurately ripped
24 | (9/9) Accurately ripped
25 | (9/9) Accurately ripped
26 | (9/9) Accurately ripped
[AccurateRip ID: 0046e9b9-052ac48a-8f11c21a] found.
Track [ CRC | V2 ] Status
01 [11bf4e62|438f2d14] (4+5/9) Accurately ripped
02 [fb7fc301|455c3214] (4+5/9) Accurately ripped
03 [eef1c302|cbcd83b3] (4+5/9) Accurately ripped
04 [c847c17d|8a9ee52b] (4+5/9) Accurately ripped
05 [7ceb831a|a1711f11] (4+5/9) Accurately ripped
06 [ba6481eb|f4f60e75] (4+5/9) Accurately ripped
07 [b25c435f|991ca472] (4+5/9) Accurately ripped
08 [9c921dde|c9d517c9] (4+5/9) Accurately ripped
09 [b293e9c6|e6450423] (4+5/9) Accurately ripped
10 [17fa3007|ac6b2b89] (3+5/8) Accurately ripped
11 [3628d3cf|c6b7bd81] (4+5/9) Accurately ripped
12 [673a12e0|e2b60ab2] (4+5/9) Accurately ripped
13 [6f49121b|debfe42b] (4+5/9) Accurately ripped
14 [81efe917|016cbb2a] (4+5/9) Accurately ripped
15 [beb03dae|b5e4651e] (4+5/9) Accurately ripped
16 [3bb99187|23cc8fcc] (4+5/9) Accurately ripped
17 [44f6d6de|23f74940] (4+5/9) Accurately ripped
18 [059d7584|e7f088ad] (4+5/9) Accurately ripped
19 [7eaa9a7e|9a28fbae] (4+5/9) Accurately ripped
20 [3cadd535|0fdcc975] (4+5/9) Accurately ripped
21 [18208e10|dd0106eb] (4+5/9) Accurately ripped
22 [b01c6a0c|b0a11fd2] (3+5/8) Accurately ripped
23 [e1023c45|8165c10b] (3+5/8) Accurately ripped
24 [b8a3b54d|fdf9c9db] (4+5/9) Accurately ripped
25 [40349b4d|c9370e00] (4+5/9) Accurately ripped
26 [9e22b750|b5ca3448] (4+5/9) Accurately ripped

Track Peak [ CRC32 ] [W/O NULL] [ LOG ]
– 94,4 [597C6690] [59A41600] CRC32
01 83,2 [0D13EBC8] [EC114FCE]
02 76,4 [173551FE] [358DE152]
03 94,4 [1F435D4B] [F4AA5958]
04 78,5 [73BF767F] [8C98CE73]
05 81,7 [CF684EAC] [F9071CF5]
06 84,2 [D4872D01] [5A14AC17]
07 81,0 [97B9B5BC] [462EB964]
08 84,3 [A55E4EFB] [6D819750]
09 76,9 [B9773F6D] [A1A84422]
10 76,8 [46ACF63C] [E49952BB]
11 78,3 [59E39B34] [A5A6C8BB]
12 85,2 [746AFF32] [47E78C2C]
13 75,9 [C97AEEF8] [B2B94469]
14 84,8 [2F273728] [C0AE4A8F]
15 76,0 [8980C559] [00A79543]
16 76,6 [0EA51992] [7BC1CAC8]
17 68,8 [E6CE64B8] [B741D039]
18 83,9 [691EEDE5] [B27C798A]
19 80,2 [D97812CB] [CE718E0D]
20 85,0 [E9F2123B] [B1120584]
21 85,0 [F216BD30] [EAFA7E0D]
22 78,4 [99F7488B] [8CF9A592]
23 85,3 [6FA51B73] [3B6A2C92]
24 83,1 [DF56D721] [04E4C3D6]
25 81,7 [052E2835] [6461FD50]
26 84,0 [0D0171EA] [E505A163]

Thanks to Swingle