Tags
Language
Tags

V.A. - Car Hits - The Ultimate Collection (5CD Box Set, 2018)

Posted By: Discograf_man
V.A. - Car Hits - The Ultimate Collection (5CD Box Set, 2018)

V.A. - Car Hits - The Ultimate Collection (5CD Box Set, 2018)
EAC Rip | FLAC (image + .cue, log) | Run Time: 06:06:20 | 2,48 Gb | Scans 12,6 Mb
Genre: Pop, Rock, Disco | Label: The Ultimate Collection

The Ultimate Collection Car Hits is an amazing 100 track collection of some of the most loved and anthemic singalong tracks for any car journey. With great songs and fabulous artists covering every genre such as Abba “Dancing Queen”, The Human League “Don’t You Want Me”, Gloria Gaynor “I Will Survive” and Status Quo "Rocking All Over The World” right through to massive singalong favourites such as James Bay “Hold Back The River”, One Republic “Counting Stars”, The Vamps “Wild Heart” and Ellie Goulding “Burn”. So open that sunroof, wind down the window, crank up the volume and singalong to your heart’s content whilst enjoying the very best collection of uplifting Car Hits that there is.
Tracklist:

CD1:
01. Simple Minds - Don't You Forget About Me
02. Dexy's Midnight Runners - Come On Eileen
03. The Human League - Don't You Want Me
04. Soft Cell - Tainted Love
05. Tears For Fears - Everybody Wants To Rule The World
06. Rick Astley - Never Gonna Give You Up
07. Madness - Our House
08. Thompson Twins - Doctor Doctor
09. Frankie Goes To Hollywood - Born To Run
10. Nena - 99 Red Balloons
11. Bucks Fizz - Making Your Mind Up
12. Tracey Ullman - They Don't Know
13. Cutting Crew - (I Just) Died In Your Arms
14. Katrina & The Waves - Walking On Sunshine
15. Tiffany - I Think We're Alone Now
16. The Belle Stars - The Clapping Song
17. Jason Donovan - Happy Together
18. Mel & Kim - Respectable
19. A Flock Of Seagulls - Wishing (If I Had A Photograph Of You)
20. James - Sit Down

CD2:
01. Take That - Rule The World
02. Black Eyed Peas - I Gotta Feeling
03. James Bay - Hold Back The River
04. Amy Winehouse - Rehab
05. OneRepublic - Counting Stars
06. Jessie J - Domino
07. Bastille - Pompeii
08. Ellie Goulding - Burn
09. The Vamps - Wild Heart
10. Cheryl Cole - Fight For This Love
11. Aqua - Barbie Girl
12. The Wanted - Chasing The Sun
13. The Saturdays - Just Cant Get Enough
14. S Club 7 - Reach
15. Duffy - Mercy
16. Stereophonics - Dakota
17. The Fratellis - Chelsea Dagger
18. The Automatic - Monster
19. Razorlight - In The Morning
20. blink-182 - All The Small Things

CD3:
01. FGTH - Relax
02. Madness - House Of Fun
03. Thompson Twins - You Take Me Up
04. Kim Wilde - Kids In America
05. Shakin' Stevens - This Ole House
06. The Maisonettes - Heartache Avenue
07. Gloria Gaynor - I Will Survive
08. KC & The Sunshine Band - Give It Up
09. Loleatta Holloway - Love Sensation
10. Candi Staton - Suspicious Minds
11. Amii Stewart - Knock On Wood
12. Shalamar - A Night To Remember
13. Anita Ward - Ring My Bell
14. John Paul Young - Love Is In The Air
15. M - Pop Muzik
16. The Buggles - Video Killed The Radio Star
17. The Boomtown Rats - I Don't Like Mondays
18. Jilted John - Jilted John
19. Sham 69 - If The Kids Are United
20. The Toy Dolls - Nellie The Elephant

CD4:
01. Robbie Williams - Angels
02. Cher - If I Could Turn Back Time
03. Wet Wet Wet - Love Is All Around
04. Kylie Minogue - The Locomotion
05. Jason Donovan - Too Many Broken Hearts
06. Ronan Keating - Life Is A Rollercoaster
07. Moloko - Sing It Back
08. Ce Ce Peniston - Finally
09. Ultra Nate - Free
10. Shanice - I Love Your Smile
11. Lenny Kravitz - It Ain't Over 'Til It's Over
12. Extreme - Get The Funk Out
13. Vic Reeves & The Wonder Stuff - Dizzy
14. Ocean Colour Scene - You've Got It Bad
15. Dodgy - Good Enough
16. Cast - Walkaway
17. The Farm - All Together Now
18. The LA's - There She Goes
19. Baby Bird - You're Gorgeous
20. Fat Les - Vindaloo

CD5:
01. Abba - Dancing Queen
02. Norman Greenbaum - Spirit In The Sky
03. The Archies - Sugar Sugar
04. John Travolta - Greased Lightning
05. The Real Thing - You To Me Are Everything
06. The Foundations - Baby Now That I've Found You
07. Love Affair - Everlasting Love
08. Petula Clark - Downtown
09. Del Shannon - Runaway
10. Marmalade - Ob-La-Di Ob-La-Da
11. Ken Boothe - Everything I Own
12. Carl Douglas - Kung Fu Fighting
13. The Foundations - Build Me Up Buttercup
14. Free - All Right Now
15. Sweet - Blockbuster
16. Stealers Wheel - Stuck In The Middle With You
17. Bachman Turner Overdrive - You Ain't Seen Nothing Yet
18. Lynyrd Skynyrd - Sweet Home Alabama
19. Thin Lizzy - The Boys Are Back In Town
20. Status Quo - Rocking All Over The World

V.A. - Car Hits - The Ultimate Collection (5CD Box Set, 2018)


Exact Audio Copy V1.3 from 2. September 2016

EAC extraction logfile from 8. May 2018, 17:20

Various / Car Hits - The Ultimate Collection - CD01

Used drive : HL-DT-STDVDRAM GSA-E40N Adapter: 1 ID: 1

Read mode : Secure
Utilize accurate stream : Yes
Defeat audio cache : No
Make use of C2 pointers : Yes

Read offset correction : 667
Overread into Lead-In and Lead-Out : No
Fill up missing offset samples with silence : Yes
Delete leading and trailing silent blocks : No
Null samples used in CRC calculations : Yes
Used interface : Native Win32 interface for Win NT & 2000
Gap handling : Not detected, thus appended to previous track

Used output format : User Defined Encoder
Selected bitrate : 896 kBit/s
Quality : High
Add ID3 tag : No
Command line compressor : C:\Program Files (x86)\Exact Audio Copy\FLAC\FLAC.EXE
Additional command line options : -6 -V -T "ARTIST=%artist%" -T "TITLE=%title%" -T "ALBUM=%albumtitle%" -T "DATE=%year%" -T "TRACKNUMBER=%tracknr%" -T "GENRE=%genre%" -T "COMMENT=%comment%" -T "BAND=%albuminterpret%" -T "ALBUMARTIST=%albuminterpret%" -T "COMPOSER=%composer%" %haslyrics%–tag-from-file=LYRICS="%lyricsfile%"%haslyrics% -T "DISCNUMBER=%cdnumber%" -T "TOTALDISCS=%totalcds%" -T "TOTALTRACKS=%numtracks%" %hascover%–picture="%coverfile%"%hascover% %source% -o %dest%


TOC of the extracted CD

Track | Start | Length | Start sector | End sector
––––––––––––––––––––––––––––-
1 | 0:00.00 | 4:21.53 | 0 | 19627
2 | 4:21.53 | 4:00.55 | 19628 | 37682
3 | 8:22.33 | 3:57.50 | 37683 | 55507
4 | 12:20.08 | 2:40.34 | 55508 | 67541
5 | 15:00.42 | 4:11.38 | 67542 | 86404
6 | 19:12.05 | 3:32.54 | 86405 | 102358
7 | 22:44.59 | 3:10.67 | 102359 | 116675
8 | 25:55.51 | 4:35.31 | 116676 | 137331
9 | 30:31.07 | 3:55.37 | 137332 | 154993
10 | 34:26.44 | 3:50.44 | 154994 | 172287
11 | 38:17.13 | 2:38.66 | 172288 | 184203
12 | 40:56.04 | 3:00.52 | 184204 | 197755
13 | 43:56.56 | 4:44.38 | 197756 | 219093
14 | 48:41.19 | 3:57.39 | 219094 | 236907
15 | 52:38.58 | 3:45.36 | 236908 | 253818
16 | 56:24.19 | 3:13.57 | 253819 | 268350
17 | 59:38.01 | 3:07.32 | 268351 | 282407
18 | 62:45.33 | 3:21.02 | 282408 | 297484
19 | 66:06.35 | 4:09.68 | 297485 | 316227
20 | 70:16.28 | 4:03.63 | 316228 | 334515


Track 1

Filename A:\PsPBuRnOuT's MUSIC\DRIVE\Car Hits - The Ultimate Collection\Car Hits - The Ultimate Collection - CD01\01.Simple Minds - Don't You Forget About Me.wav

Peak level 82.2 %
Extraction speed 11.1 X
Track quality 100.0 %
Copy CRC 9FC49897
Track not present in AccurateRip database
Copy OK

Track 2

Filename A:\PsPBuRnOuT's MUSIC\DRIVE\Car Hits - The Ultimate Collection\Car Hits - The Ultimate Collection - CD01\02.Dexy's Midnight Runners - Come On Eileen.wav

Peak level 82.2 %
Extraction speed 12.3 X
Track quality 100.0 %
Copy CRC F5B7B366
Track not present in AccurateRip database
Copy OK

Track 3

Filename A:\PsPBuRnOuT's MUSIC\DRIVE\Car Hits - The Ultimate Collection\Car Hits - The Ultimate Collection - CD01\03.The Human League - Don't You Want Me (Remastered 2012).wav

Peak level 100.0 %
Extraction speed 12.2 X
Track quality 100.0 %
Copy CRC BA0051B8
Track not present in AccurateRip database
Copy OK

Track 4

Filename A:\PsPBuRnOuT's MUSIC\DRIVE\Car Hits - The Ultimate Collection\Car Hits - The Ultimate Collection - CD01\04.Soft Cell - Tainted Love.wav

Peak level 100.0 %
Extraction speed 12.3 X
Track quality 100.0 %
Copy CRC 7B54B57D
Track not present in AccurateRip database
Copy OK

Track 5

Filename A:\PsPBuRnOuT's MUSIC\DRIVE\Car Hits - The Ultimate Collection\Car Hits - The Ultimate Collection - CD01\05.Tears For Fears - Everybody Wants To Rule The World.wav

Peak level 100.0 %
Extraction speed 14.9 X
Track quality 100.0 %
Copy CRC 08CD58BB
Track not present in AccurateRip database
Copy OK

Track 6

Filename A:\PsPBuRnOuT's MUSIC\DRIVE\Car Hits - The Ultimate Collection\Car Hits - The Ultimate Collection - CD01\06.Rick Astley - Never Gonna Give You Up.wav

Peak level 99.9 %
Extraction speed 14.1 X
Track quality 100.0 %
Copy CRC AAE85F93
Track not present in AccurateRip database
Copy OK

Track 7

Filename A:\PsPBuRnOuT's MUSIC\DRIVE\Car Hits - The Ultimate Collection\Car Hits - The Ultimate Collection - CD01\07.Madness - Our House (2009 - Remaster).wav

Peak level 93.8 %
Extraction speed 13.4 X
Track quality 99.8 %
Copy CRC B073B676
Track not present in AccurateRip database
Copy OK

Track 8

Filename A:\PsPBuRnOuT's MUSIC\DRIVE\Car Hits - The Ultimate Collection\Car Hits - The Ultimate Collection - CD01\08.Thompson Twins - Doctor! Doctor! (Album Version).wav

Peak level 95.2 %
Extraction speed 16.8 X
Track quality 100.0 %
Copy CRC 464E78A4
Track not present in AccurateRip database
Copy OK

Track 9

Filename A:\PsPBuRnOuT's MUSIC\DRIVE\Car Hits - The Ultimate Collection\Car Hits - The Ultimate Collection - CD01\09.Frankie Goes To Hollywood - Born To Run.wav

Peak level 100.0 %
Extraction speed 10.5 X
Track quality 99.7 %
Copy CRC 25A8DEA8
Track not present in AccurateRip database
Copy OK

Track 10

Filename A:\PsPBuRnOuT's MUSIC\DRIVE\Car Hits - The Ultimate Collection\Car Hits - The Ultimate Collection - CD01\10.Nena - 99 Red Balloons.wav

Peak level 93.0 %
Extraction speed 12.1 X
Track quality 99.8 %
Copy CRC B560E609
Track not present in AccurateRip database
Copy OK

Track 11

Filename A:\PsPBuRnOuT's MUSIC\DRIVE\Car Hits - The Ultimate Collection\Car Hits - The Ultimate Collection - CD01\11.Bucks Fizz - Making Your Mind Up.wav

Peak level 89.1 %
Extraction speed 11.3 X
Track quality 99.7 %
Copy CRC 3AA6F0A8
Track not present in AccurateRip database
Copy OK

Track 12

Filename A:\PsPBuRnOuT's MUSIC\DRIVE\Car Hits - The Ultimate Collection\Car Hits - The Ultimate Collection - CD01\12.Tracey Ullman - They Don't Know.wav

Peak level 100.0 %
Extraction speed 15.2 X
Track quality 99.8 %
Copy CRC 6CFB2BBD
Track not present in AccurateRip database
Copy OK

Track 13

Filename A:\PsPBuRnOuT's MUSIC\DRIVE\Car Hits - The Ultimate Collection\Car Hits - The Ultimate Collection - CD01\13.Cutting Crew - (I Just) Died In Your Arms.wav

Peak level 100.0 %
Extraction speed 17.9 X
Track quality 100.0 %
Copy CRC 6FBE3AE8
Track not present in AccurateRip database
Copy OK

Track 14

Filename A:\PsPBuRnOuT's MUSIC\DRIVE\Car Hits - The Ultimate Collection\Car Hits - The Ultimate Collection - CD01\14.Katrina & The Waves - Walking On Sunshine.wav

Peak level 100.0 %
Extraction speed 20.8 X
Track quality 100.0 %
Copy CRC E3206625
Track not present in AccurateRip database
Copy OK

Track 15

Filename A:\PsPBuRnOuT's MUSIC\DRIVE\Car Hits - The Ultimate Collection\Car Hits - The Ultimate Collection - CD01\15.Tiffany - I Think We're Alone Now (Single Version).wav

Peak level 100.0 %
Extraction speed 19.2 X
Track quality 100.0 %
Copy CRC 4725BF2B
Track not present in AccurateRip database
Copy OK

Track 16

Filename A:\PsPBuRnOuT's MUSIC\DRIVE\Car Hits - The Ultimate Collection\Car Hits - The Ultimate Collection - CD01\16.The Belle Stars - The Clapping Song.wav

Peak level 91.8 %
Extraction speed 17.5 X
Track quality 99.8 %
Copy CRC C812764C
Track not present in AccurateRip database
Copy OK

Track 17

Filename A:\PsPBuRnOuT's MUSIC\DRIVE\Car Hits - The Ultimate Collection\Car Hits - The Ultimate Collection - CD01\17.Jason Donovan - Happy Together.wav

Peak level 94.4 %
Extraction speed 21.5 X
Track quality 100.0 %
Copy CRC 95B62925
Track not present in AccurateRip database
Copy OK

Track 18

Filename A:\PsPBuRnOuT's MUSIC\DRIVE\Car Hits - The Ultimate Collection\Car Hits - The Ultimate Collection - CD01\18.Mel & Kim - Respectable.wav

Peak level 89.1 %
Extraction speed 20.1 X
Track quality 100.0 %
Copy CRC FA34DE49
Track not present in AccurateRip database
Copy OK

Track 19

Filename A:\PsPBuRnOuT's MUSIC\DRIVE\Car Hits - The Ultimate Collection\Car Hits - The Ultimate Collection - CD01\19.A Flock Of Seagulls - Wishing (If I Had A Photograph Of You).wav

Peak level 87.5 %
Extraction speed 23.3 X
Track quality 100.0 %
Copy CRC 7E16BD09
Track not present in AccurateRip database
Copy OK

Track 20

Filename A:\PsPBuRnOuT's MUSIC\DRIVE\Car Hits - The Ultimate Collection\Car Hits - The Ultimate Collection - CD01\20.James - Sit Down (Album Version).wav

Peak level 100.0 %
Extraction speed 23.7 X
Track quality 100.0 %
Copy CRC 9DA8DC41
Track not present in AccurateRip database
Copy OK


None of the tracks are present in the AccurateRip database

No errors occurred

End of status report

–– CUETools DB Plugin V2.1.6

[CTDB TOCID: oJo5xjo2qSW14T66bZ.eQb1d4Y4-] found
Submit result: oJo5xjo2qSW14T66bZ.eQb1d4Y4- has been submitted
Track | CTDB Status
1 | (2/2) Accurately ripped
2 | (2/2) Accurately ripped
3 | (2/2) Accurately ripped
4 | (2/2) Accurately ripped
5 | (2/2) Accurately ripped
6 | (2/2) Accurately ripped
7 | (2/2) Accurately ripped
8 | (2/2) Accurately ripped
9 | (2/2) Differs in 2 samples @00:16:24
10 | (2/2) Accurately ripped
11 | (2/2) Accurately ripped
12 | (2/2) Accurately ripped
13 | (2/2) Accurately ripped
14 | (2/2) Accurately ripped
15 | (2/2) Accurately ripped
16 | (2/2) Accurately ripped
17 | (2/2) Accurately ripped
18 | (2/2) Accurately ripped
19 | (2/2) Accurately ripped
20 | (2/2) Accurately ripped


=================================

Exact Audio Copy V1.3 from 2. September 2016

EAC extraction logfile from 8. May 2018, 20:04

Various / Car Hits - The Ultimate Collection - CD02

Used drive : HL-DT-STDVDRAM GSA-E40N Adapter: 1 ID: 1

Read mode : Secure
Utilize accurate stream : Yes
Defeat audio cache : No
Make use of C2 pointers : Yes

Read offset correction : 667
Overread into Lead-In and Lead-Out : No
Fill up missing offset samples with silence : Yes
Delete leading and trailing silent blocks : No
Null samples used in CRC calculations : Yes
Used interface : Native Win32 interface for Win NT & 2000
Gap handling : Not detected, thus appended to previous track

Used output format : User Defined Encoder
Selected bitrate : 896 kBit/s
Quality : High
Add ID3 tag : No
Command line compressor : C:\Program Files (x86)\Exact Audio Copy\FLAC\FLAC.EXE
Additional command line options : -6 -V -T "ARTIST=%artist%" -T "TITLE=%title%" -T "ALBUM=%albumtitle%" -T "DATE=%year%" -T "TRACKNUMBER=%tracknr%" -T "GENRE=%genre%" -T "COMMENT=%comment%" -T "BAND=%albuminterpret%" -T "ALBUMARTIST=%albuminterpret%" -T "COMPOSER=%composer%" %haslyrics%–tag-from-file=LYRICS="%lyricsfile%"%haslyrics% -T "DISCNUMBER=%cdnumber%" -T "TOTALDISCS=%totalcds%" -T "TOTALTRACKS=%numtracks%" %hascover%–picture="%coverfile%"%hascover% %source% -o %dest%


TOC of the extracted CD

Track | Start | Length | Start sector | End sector
––––––––––––––––––––––––––––-
1 | 0:00.00 | 3:57.62 | 0 | 17836
2 | 3:57.62 | 4:05.62 | 17837 | 36273
3 | 8:03.49 | 3:38.06 | 36274 | 52629
4 | 11:41.55 | 3:33.08 | 52630 | 68612
5 | 15:14.63 | 4:16.40 | 68613 | 87852
6 | 19:31.28 | 3:50.55 | 87853 | 105157
7 | 23:22.08 | 3:33.72 | 105158 | 121204
8 | 26:56.05 | 3:51.15 | 121205 | 138544
9 | 30:47.20 | 3:10.51 | 138545 | 152845
10 | 33:57.71 | 3:44.24 | 152846 | 169669
11 | 37:42.20 | 3:15.07 | 169670 | 184301
12 | 40:57.27 | 3:18.02 | 184302 | 199153
13 | 44:15.29 | 3:05.71 | 199154 | 213099
14 | 47:21.25 | 4:01.65 | 213100 | 231239
15 | 51:23.15 | 3:40.31 | 231240 | 247770
16 | 55:03.46 | 4:02.17 | 247771 | 265937
17 | 59:05.63 | 3:34.01 | 265938 | 281988
18 | 62:39.64 | 3:40.62 | 281989 | 298550
19 | 66:20.51 | 3:42.41 | 298551 | 315241
20 | 70:03.17 | 2:47.29 | 315242 | 327795


Track 1

Filename A:\PsPBuRnOuT's MUSIC\DRIVE\Car Hits - The Ultimate Collection\Car Hits - The Ultimate Collection - CD02\01.Take That - Rule The World (Radio Edit).wav

Peak level 82.2 %
Extraction speed 14.8 X
Track quality 100.0 %
Copy CRC DC560026
Track not present in AccurateRip database
Copy OK

Track 2

Filename A:\PsPBuRnOuT's MUSIC\DRIVE\Car Hits - The Ultimate Collection\Car Hits - The Ultimate Collection - CD02\02.Black Eyed Peas - I Gotta Feeling (Edit).wav

Peak level 98.8 %
Extraction speed 16.4 X
Track quality 100.0 %
Copy CRC A15B5DEA
Track not present in AccurateRip database
Copy OK

Track 3

Filename A:\PsPBuRnOuT's MUSIC\DRIVE\Car Hits - The Ultimate Collection\Car Hits - The Ultimate Collection - CD02\03.James Bay - Hold Back The River.wav

Peak level 93.9 %
Extraction speed 17.8 X
Track quality 100.0 %
Copy CRC 45669163
Track not present in AccurateRip database
Copy OK

Track 4

Filename A:\PsPBuRnOuT's MUSIC\DRIVE\Car Hits - The Ultimate Collection\Car Hits - The Ultimate Collection - CD02\04.Amy Winehouse - Rehab (Album Version).wav

Peak level 100.0 %
Extraction speed 16.9 X
Track quality 100.0 %
Copy CRC D709536E
Track not present in AccurateRip database
Copy OK

Track 5

Filename A:\PsPBuRnOuT's MUSIC\DRIVE\Car Hits - The Ultimate Collection\Car Hits - The Ultimate Collection - CD02\05.OneRepublic - Counting Stars.wav

Peak level 89.0 %
Extraction speed 15.9 X
Track quality 99.9 %
Copy CRC EB420CF6
Track not present in AccurateRip database
Copy OK

Track 6

Filename A:\PsPBuRnOuT's MUSIC\DRIVE\Car Hits - The Ultimate Collection\Car Hits - The Ultimate Collection - CD02\06.Jessie J - Domino.wav

Peak level 84.1 %
Extraction speed 19.3 X
Track quality 100.0 %
Copy CRC 354FD2BE
Track not present in AccurateRip database
Copy OK

Track 7

Filename A:\PsPBuRnOuT's MUSIC\DRIVE\Car Hits - The Ultimate Collection\Car Hits - The Ultimate Collection - CD02\07.Bastille - Pompeii.wav

Peak level 93.3 %
Extraction speed 22.0 X
Track quality 100.0 %
Copy CRC 6D8D73E7
Track not present in AccurateRip database
Copy OK

Track 8

Filename A:\PsPBuRnOuT's MUSIC\DRIVE\Car Hits - The Ultimate Collection\Car Hits - The Ultimate Collection - CD02\08.Ellie Goulding - Burn.wav

Peak level 81.9 %
Extraction speed 20.7 X
Track quality 100.0 %
Copy CRC 276FEB05
Track not present in AccurateRip database
Copy OK

Track 9

Filename A:\PsPBuRnOuT's MUSIC\DRIVE\Car Hits - The Ultimate Collection\Car Hits - The Ultimate Collection - CD02\09.The Vamps - Wild Heart.wav

Peak level 93.3 %
Extraction speed 23.7 X
Track quality 100.0 %
Copy CRC 6A27266C
Track not present in AccurateRip database
Copy OK

Track 10

Filename A:\PsPBuRnOuT's MUSIC\DRIVE\Car Hits - The Ultimate Collection\Car Hits - The Ultimate Collection - CD02\10.Cheryl Cole - Fight For This Love.wav

Peak level 89.0 %
Extraction speed 18.6 X
Track quality 99.9 %
Copy CRC 2C0FCCB0
Track not present in AccurateRip database
Copy OK

Track 11

Filename A:\PsPBuRnOuT's MUSIC\DRIVE\Car Hits - The Ultimate Collection\Car Hits - The Ultimate Collection - CD02\11.Aqua - Barbie Girl.wav

Peak level 99.9 %
Extraction speed 21.7 X
Track quality 100.0 %
Copy CRC FFF2B3CC
Track not present in AccurateRip database
Copy OK

Track 12

Filename A:\PsPBuRnOuT's MUSIC\DRIVE\Car Hits - The Ultimate Collection\Car Hits - The Ultimate Collection - CD02\12.The Wanted - Chasing The Sun.wav

Peak level 89.0 %
Extraction speed 23.0 X
Track quality 100.0 %
Copy CRC 163565FE
Track not present in AccurateRip database
Copy OK

Track 13

Filename A:\PsPBuRnOuT's MUSIC\DRIVE\Car Hits - The Ultimate Collection\Car Hits - The Ultimate Collection - CD02\13.The Saturdays - Just Can't Get Enough (Radio Mix).wav

Peak level 84.1 %
Extraction speed 22.2 X
Track quality 100.0 %
Copy CRC E2DB6C8F
Track not present in AccurateRip database
Copy OK

Track 14

Filename A:\PsPBuRnOuT's MUSIC\DRIVE\Car Hits - The Ultimate Collection\Car Hits - The Ultimate Collection - CD02\14.S Club 7 - Reach (Radio Edit).wav

Peak level 100.0 %
Extraction speed 20.9 X
Track quality 99.9 %
Copy CRC E58E4C18
Track not present in AccurateRip database
Copy OK

Track 15

Filename A:\PsPBuRnOuT's MUSIC\DRIVE\Car Hits - The Ultimate Collection\Car Hits - The Ultimate Collection - CD02\15.Duffy - Mercy.wav

Peak level 84.2 %
Extraction speed 22.3 X
Track quality 100.0 %
Copy CRC C73643B6
Track not present in AccurateRip database
Copy OK

Track 16

Filename A:\PsPBuRnOuT's MUSIC\DRIVE\Car Hits - The Ultimate Collection\Car Hits - The Ultimate Collection - CD02\16.Stereophonics - Dakota.wav

Peak level 94.3 %
Extraction speed 27.8 X
Track quality 100.0 %
Copy CRC 882734D0
Track not present in AccurateRip database
Copy OK

Track 17

Filename A:\PsPBuRnOuT's MUSIC\DRIVE\Car Hits - The Ultimate Collection\Car Hits - The Ultimate Collection - CD02\17.The Fratellis - Chelsea Dagger.wav

Peak level 83.8 %
Extraction speed 25.9 X
Track quality 100.0 %
Copy CRC 67348EAE
Track not present in AccurateRip database
Copy OK

Track 18

Filename A:\PsPBuRnOuT's MUSIC\DRIVE\Car Hits - The Ultimate Collection\Car Hits - The Ultimate Collection - CD02\18.The Automatic - Monster (Album Version).wav

Peak level 89.1 %
Extraction speed 22.0 X
Track quality 99.9 %
Copy CRC E4D46DBF
Track not present in AccurateRip database
Copy OK

Track 19

Filename A:\PsPBuRnOuT's MUSIC\DRIVE\Car Hits - The Ultimate Collection\Car Hits - The Ultimate Collection - CD02\19.Razorlight - In The Morning.wav

Peak level 84.1 %
Extraction speed 26.7 X
Track quality 100.0 %
Copy CRC 3D1C2629
Track not present in AccurateRip database
Copy OK

Track 20

Filename A:\PsPBuRnOuT's MUSIC\DRIVE\Car Hits - The Ultimate Collection\Car Hits - The Ultimate Collection - CD02\20.Blink-182 - All The Small Things.wav

Peak level 93.5 %
Extraction speed 31.6 X
Track quality 100.0 %
Copy CRC 2F765C14
Track not present in AccurateRip database
Copy OK


None of the tracks are present in the AccurateRip database

No errors occurred

End of status report

–– CUETools DB Plugin V2.1.6

[CTDB TOCID: orn6Vq3mV232d8p7UO1wsdjLLGE-] found
Submit result: orn6Vq3mV232d8p7UO1wsdjLLGE- has been confirmed
Track | CTDB Status
1 | (2/2) Accurately ripped
2 | (2/2) Accurately ripped
3 | (2/2) Accurately ripped
4 | (2/2) Accurately ripped
5 | (2/2) Accurately ripped
6 | (2/2) Accurately ripped
7 | (2/2) Accurately ripped
8 | (2/2) Accurately ripped
9 | (2/2) Accurately ripped
10 | (2/2) Accurately ripped
11 | (2/2) Accurately ripped
12 | (2/2) Accurately ripped
13 | (2/2) Accurately ripped
14 | (2/2) Accurately ripped
15 | (2/2) Accurately ripped
16 | (2/2) Accurately ripped
17 | (2/2) Accurately ripped
18 | (2/2) Accurately ripped
19 | (2/2) Accurately ripped
20 | (2/2) Accurately ripped

====================================

Exact Audio Copy V1.3 from 2. September 2016

EAC extraction logfile from 8. May 2018, 22:39

Various / Car Hits - The Ultimate Collection - CD03

Used drive : HL-DT-STDVDRAM GSA-E40N Adapter: 1 ID: 1

Read mode : Secure
Utilize accurate stream : Yes
Defeat audio cache : No
Make use of C2 pointers : Yes

Read offset correction : 667
Overread into Lead-In and Lead-Out : No
Fill up missing offset samples with silence : Yes
Delete leading and trailing silent blocks : No
Null samples used in CRC calculations : Yes
Used interface : Native Win32 interface for Win NT & 2000
Gap handling : Not detected, thus appended to previous track

Used output format : User Defined Encoder
Selected bitrate : 896 kBit/s
Quality : High
Add ID3 tag : No
Command line compressor : C:\Program Files (x86)\Exact Audio Copy\FLAC\FLAC.EXE
Additional command line options : -6 -V -T "ARTIST=%artist%" -T "TITLE=%title%" -T "ALBUM=%albumtitle%" -T "DATE=%year%" -T "TRACKNUMBER=%tracknr%" -T "GENRE=%genre%" -T "COMMENT=%comment%" -T "BAND=%albuminterpret%" -T "ALBUMARTIST=%albuminterpret%" -T "COMPOSER=%composer%" %haslyrics%–tag-from-file=LYRICS="%lyricsfile%"%haslyrics% -T "DISCNUMBER=%cdnumber%" -T "TOTALDISCS=%totalcds%" -T "TOTALTRACKS=%numtracks%" %hascover%–picture="%coverfile%"%hascover% %source% -o %dest%


TOC of the extracted CD

Track | Start | Length | Start sector | End sector
––––––––––––––––––––––––––––-
1 | 0:00.00 | 3:56.53 | 0 | 17752
2 | 3:56.53 | 2:46.03 | 17753 | 30205
3 | 6:42.56 | 4:25.59 | 30206 | 50139
4 | 11:08.40 | 3:09.55 | 50140 | 64369
5 | 14:18.20 | 3:05.13 | 64370 | 78257
6 | 17:23.33 | 2:51.20 | 78258 | 91102
7 | 20:14.53 | 3:17.18 | 91103 | 105895
8 | 23:31.71 | 4:02.56 | 105896 | 124101
9 | 27:34.52 | 6:30.20 | 124102 | 153371
10 | 34:04.72 | 3:50.28 | 153372 | 170649
11 | 37:55.25 | 3:44.11 | 170650 | 187460
12 | 41:39.36 | 3:30.56 | 187461 | 203266
13 | 45:10.17 | 4:28.37 | 203267 | 223403
14 | 49:38.54 | 3:27.21 | 223404 | 238949
15 | 53:06.00 | 3:18.59 | 238950 | 253858
16 | 56:24.59 | 3:17.18 | 253859 | 268651
17 | 59:42.02 | 4:15.64 | 268652 | 287840
18 | 63:57.66 | 2:55.41 | 287841 | 301006
19 | 66:53.32 | 3:44.63 | 301007 | 317869
20 | 70:38.20 | 2:59.03 | 317870 | 331297


Track 1

Filename A:\PsPBuRnOuT's MUSIC\DRIVE\Car Hits - The Ultimate Collection\Car Hits - The Ultimate Collection - CD03\01.Frankie Goes To Hollywood - Relax.wav

Peak level 100.0 %
Extraction speed 13.6 X
Track quality 100.0 %
Copy CRC 01E06524
Track not present in AccurateRip database
Copy OK

Track 2

Filename A:\PsPBuRnOuT's MUSIC\DRIVE\Car Hits - The Ultimate Collection\Car Hits - The Ultimate Collection - CD03\02.Madness - House Of Fun.wav

Peak level 91.7 %
Extraction speed 13.1 X
Track quality 99.8 %
Copy CRC 8BD45546
Track not present in AccurateRip database
Copy OK

Track 3

Filename A:\PsPBuRnOuT's MUSIC\DRIVE\Car Hits - The Ultimate Collection\Car Hits - The Ultimate Collection - CD03\03.Thompson Twins - You Take Me Up.wav

Peak level 100.0 %
Extraction speed 15.0 X
Track quality 99.9 %
Copy CRC EB926AD2
Track not present in AccurateRip database
Copy OK

Track 4

Filename A:\PsPBuRnOuT's MUSIC\DRIVE\Car Hits - The Ultimate Collection\Car Hits - The Ultimate Collection - CD03\04.Kim Wilde - Kids In America.wav

Peak level 95.4 %
Extraction speed 18.1 X
Track quality 100.0 %
Copy CRC EAAB39D2
Track not present in AccurateRip database
Copy OK

Track 5

Filename A:\PsPBuRnOuT's MUSIC\DRIVE\Car Hits - The Ultimate Collection\Car Hits - The Ultimate Collection - CD03\05.Shakin' Stevens - This Ole House.wav

Peak level 83.5 %
Extraction speed 16.1 X
Track quality 99.8 %
Copy CRC 16A16DBA
Track not present in AccurateRip database
Copy OK

Track 6

Filename A:\PsPBuRnOuT's MUSIC\DRIVE\Car Hits - The Ultimate Collection\Car Hits - The Ultimate Collection - CD03\06.The Maisonettes - Heartache Avenue.wav

Peak level 88.9 %
Extraction speed 19.6 X
Track quality 100.0 %
Copy CRC F100C567
Track not present in AccurateRip database
Copy OK

Track 7

Filename A:\PsPBuRnOuT's MUSIC\DRIVE\Car Hits - The Ultimate Collection\Car Hits - The Ultimate Collection - CD03\07.Gloria Gaynor - I Will Survive (Single Version).wav

Peak level 96.9 %
Extraction speed 17.6 X
Track quality 99.8 %
Copy CRC F9BB38F7
Track not present in AccurateRip database
Copy OK

Track 8

Filename A:\PsPBuRnOuT's MUSIC\DRIVE\Car Hits - The Ultimate Collection\Car Hits - The Ultimate Collection - CD03\08.KC & The Sunshine Band - Give It Up.wav

Peak level 97.7 %
Extraction speed 19.8 X
Track quality 100.0 %
Copy CRC 753475D9
Track not present in AccurateRip database
Copy OK

Track 9

Filename A:\PsPBuRnOuT's MUSIC\DRIVE\Car Hits - The Ultimate Collection\Car Hits - The Ultimate Collection - CD03\09.Loleatta Holloway - Love Sensation.wav

Peak level 100.0 %
Extraction speed 21.6 X
Track quality 100.0 %
Copy CRC C7CC923E
Track not present in AccurateRip database
Copy OK

Track 10

Filename A:\PsPBuRnOuT's MUSIC\DRIVE\Car Hits - The Ultimate Collection\Car Hits - The Ultimate Collection - CD03\10.Candi Staton - Suspicious Minds.wav

Peak level 100.0 %
Extraction speed 20.7 X
Track quality 99.9 %
Copy CRC 78CA87B7
Track not present in AccurateRip database
Copy OK

Track 11

Filename A:\PsPBuRnOuT's MUSIC\DRIVE\Car Hits - The Ultimate Collection\Car Hits - The Ultimate Collection - CD03\11.Amii Stewart - Knock On Wood.wav

Peak level 97.7 %
Extraction speed 25.0 X
Track quality 100.0 %
Copy CRC F9739978
Track not present in AccurateRip database
Copy OK

Track 12

Filename A:\PsPBuRnOuT's MUSIC\DRIVE\Car Hits - The Ultimate Collection\Car Hits - The Ultimate Collection - CD03\12.Shalamar - A Night To Remember.wav

Peak level 96.9 %
Extraction speed 26.5 X
Track quality 100.0 %
Copy CRC 86287F93
Track not present in AccurateRip database
Copy OK

Track 13

Filename A:\PsPBuRnOuT's MUSIC\DRIVE\Car Hits - The Ultimate Collection\Car Hits - The Ultimate Collection - CD03\13.Anita Ward - Ring My Bell.wav

Peak level 100.0 %
Extraction speed 24.6 X
Track quality 100.0 %
Copy CRC 8EA96FE2
Track not present in AccurateRip database
Copy OK

Track 14

Filename A:\PsPBuRnOuT's MUSIC\DRIVE\Car Hits - The Ultimate Collection\Car Hits - The Ultimate Collection - CD03\14.John Paul Young - Love Is In The Air.wav

Peak level 79.7 %
Extraction speed 24.1 X
Track quality 100.0 %
Copy CRC 351D3831
Track not present in AccurateRip database
Copy OK

Track 15

Filename A:\PsPBuRnOuT's MUSIC\DRIVE\Car Hits - The Ultimate Collection\Car Hits - The Ultimate Collection - CD03\15.M - Pop Muzik.wav

Peak level 100.0 %
Extraction speed 24.6 X
Track quality 100.0 %
Copy CRC 7279D105
Track not present in AccurateRip database
Copy OK

Track 16

Filename A:\PsPBuRnOuT's MUSIC\DRIVE\Car Hits - The Ultimate Collection\Car Hits - The Ultimate Collection - CD03\16.The Buggles - Video Killed The Radio Star.wav

Peak level 100.0 %
Extraction speed 22.9 X
Track quality 99.8 %
Copy CRC 1ED86A13
Track not present in AccurateRip database
Copy OK

Track 17

Filename A:\PsPBuRnOuT's MUSIC\DRIVE\Car Hits - The Ultimate Collection\Car Hits - The Ultimate Collection - CD03\17.The Boomtown Rats - I Don't Like Mondays.wav

Peak level 100.0 %
Extraction speed 24.2 X
Track quality 99.9 %
Copy CRC 1A020491
Track not present in AccurateRip database
Copy OK

Track 18

Filename A:\PsPBuRnOuT's MUSIC\DRIVE\Car Hits - The Ultimate Collection\Car Hits - The Ultimate Collection - CD03\18.Jilted John - Jilted John (Single Version).wav

Peak level 75.8 %
Extraction speed 24.6 X
Track quality 100.0 %
Copy CRC B7E285A2
Track not present in AccurateRip database
Copy OK

Track 19

Filename A:\PsPBuRnOuT's MUSIC\DRIVE\Car Hits - The Ultimate Collection\Car Hits - The Ultimate Collection - CD03\19.Sham 69 - If The Kids Are United.wav

Peak level 85.1 %
Extraction speed 27.4 X
Track quality 100.0 %
Copy CRC EC6D64D8
Track not present in AccurateRip database
Copy OK

Track 20

Filename A:\PsPBuRnOuT's MUSIC\DRIVE\Car Hits - The Ultimate Collection\Car Hits - The Ultimate Collection - CD03\20.The Toy Dolls - Nellie The Elephant.wav

Peak level 88.1 %
Extraction speed 27.7 X
Track quality 100.0 %
Copy CRC 5A19601C
Track not present in AccurateRip database
Copy OK


None of the tracks are present in the AccurateRip database

No errors occurred

End of status report

–– CUETools DB Plugin V2.1.6

[CTDB TOCID: iDUFRPVDziqWv24tNP2Dj6hkPOA-] found
Submit result: iDUFRPVDziqWv24tNP2Dj6hkPOA- has been confirmed
Track | CTDB Status
1 | (2/2) Accurately ripped
2 | (2/2) Accurately ripped
3 | (2/2) Accurately ripped
4 | (2/2) Accurately ripped
5 | (2/2) Accurately ripped
6 | (2/2) Accurately ripped
7 | (2/2) Accurately ripped
8 | (2/2) Accurately ripped
9 | (2/2) Accurately ripped
10 | (2/2) Accurately ripped
11 | (2/2) Accurately ripped
12 | (2/2) Accurately ripped
13 | (2/2) Accurately ripped
14 | (2/2) Accurately ripped
15 | (2/2) Accurately ripped
16 | (2/2) Accurately ripped
17 | (2/2) Accurately ripped
18 | (2/2) Accurately ripped
19 | (2/2) Accurately ripped
20 | (2/2) Accurately ripped

==================================

Exact Audio Copy V1.3 from 2. September 2016

EAC extraction logfile from 8. May 2018, 23:11

Various / Car Hits - The Ultimate Collection - CD04

Used drive : HL-DT-STDVDRAM GSA-E40N Adapter: 1 ID: 1

Read mode : Secure
Utilize accurate stream : Yes
Defeat audio cache : No
Make use of C2 pointers : Yes

Read offset correction : 667
Overread into Lead-In and Lead-Out : No
Fill up missing offset samples with silence : Yes
Delete leading and trailing silent blocks : No
Null samples used in CRC calculations : Yes
Used interface : Native Win32 interface for Win NT & 2000
Gap handling : Not detected, thus appended to previous track

Used output format : User Defined Encoder
Selected bitrate : 896 kBit/s
Quality : High
Add ID3 tag : No
Command line compressor : C:\Program Files (x86)\Exact Audio Copy\FLAC\FLAC.EXE
Additional command line options : -6 -V -T "ARTIST=%artist%" -T "TITLE=%title%" -T "ALBUM=%albumtitle%" -T "DATE=%year%" -T "TRACKNUMBER=%tracknr%" -T "GENRE=%genre%" -T "COMMENT=%comment%" -T "BAND=%albuminterpret%" -T "ALBUMARTIST=%albuminterpret%" -T "COMPOSER=%composer%" %haslyrics%–tag-from-file=LYRICS="%lyricsfile%"%haslyrics% -T "DISCNUMBER=%cdnumber%" -T "TOTALDISCS=%totalcds%" -T "TOTALTRACKS=%numtracks%" %hascover%–picture="%coverfile%"%hascover% %source% -o %dest%


TOC of the extracted CD

Track | Start | Length | Start sector | End sector
––––––––––––––––––––––––––––-
1 | 0:00.00 | 4:26.16 | 0 | 19965
2 | 4:26.16 | 3:52.56 | 19966 | 37421
3 | 8:18.72 | 3:59.11 | 37422 | 55357
4 | 12:18.08 | 3:11.06 | 55358 | 69688
5 | 15:29.14 | 3:24.43 | 69689 | 85031
6 | 18:53.57 | 3:50.47 | 85032 | 102328
7 | 22:44.29 | 3:35.22 | 102329 | 118475
8 | 26:19.51 | 3:43.17 | 118476 | 135217
9 | 30:02.68 | 3:52.35 | 135218 | 152652
10 | 33:55.28 | 3:50.25 | 152653 | 169927
11 | 37:45.53 | 4:00.33 | 169928 | 187960
12 | 41:46.11 | 4:23.19 | 187961 | 207704
13 | 46:09.30 | 3:17.23 | 207705 | 222502
14 | 49:26.53 | 3:44.52 | 222503 | 239354
15 | 53:11.30 | 3:57.72 | 239355 | 257201
16 | 57:09.27 | 3:51.68 | 257202 | 274594
17 | 61:01.20 | 5:41.16 | 274595 | 300185
18 | 66:42.36 | 2:42.63 | 300186 | 312398
19 | 69:25.24 | 3:41.58 | 312399 | 329031
20 | 73:07.07 | 3:39.36 | 329032 | 345492


Track 1

Filename A:\PsPBuRnOuT's MUSIC\DRIVE\Car Hits - The Ultimate Collection\Car Hits - The Ultimate Collection - CD04\01.Robbie Williams - Angels (Remastered 2004).wav

Peak level 88.7 %
Extraction speed 11.7 X
Track quality 99.9 %
Copy CRC 94D8DB8B
Track not present in AccurateRip database
Copy OK

Track 2

Filename A:\PsPBuRnOuT's MUSIC\DRIVE\Car Hits - The Ultimate Collection\Car Hits - The Ultimate Collection - CD04\02.Cher - If I Could Turn Back Time (Edit).wav

Peak level 100.0 %
Extraction speed 16.4 X
Track quality 100.0 %
Copy CRC 324051AA
Track not present in AccurateRip database
Copy OK

Track 3

Filename A:\PsPBuRnOuT's MUSIC\DRIVE\Car Hits - The Ultimate Collection\Car Hits - The Ultimate Collection - CD04\03.Wet Wet Wet - Love Is All Around.wav

Peak level 83.5 %
Extraction speed 16.2 X
Track quality 100.0 %
Copy CRC 8CC8495F
Track not present in AccurateRip database
Copy OK

Track 4

Filename A:\PsPBuRnOuT's MUSIC\DRIVE\Car Hits - The Ultimate Collection\Car Hits - The Ultimate Collection - CD04\04.Kylie Minogue - The Loco-Motion.wav

Peak level 89.1 %
Extraction speed 16.6 X
Track quality 100.0 %
Copy CRC 5B7FF04B
Track not present in AccurateRip database
Copy OK

Track 5

Filename A:\PsPBuRnOuT's MUSIC\DRIVE\Car Hits - The Ultimate Collection\Car Hits - The Ultimate Collection - CD04\05.Jason Donovan - Too Many Broken Hearts.wav

Peak level 89.0 %
Extraction speed 16.2 X
Track quality 99.8 %
Copy CRC B877EEE5
Track not present in AccurateRip database
Copy OK

Track 6

Filename A:\PsPBuRnOuT's MUSIC\DRIVE\Car Hits - The Ultimate Collection\Car Hits - The Ultimate Collection - CD04\06.Ronan Keating - Life Is A Rollercoaster (Radio Edit).wav

Peak level 100.0 %
Extraction speed 18.5 X
Track quality 100.0 %
Copy CRC 13FE3F1F
Track not present in AccurateRip database
Copy OK

Track 7

Filename A:\PsPBuRnOuT's MUSIC\DRIVE\Car Hits - The Ultimate Collection\Car Hits - The Ultimate Collection - CD04\07.Moloko - Sing It Back.wav

Peak level 86.9 %
Extraction speed 19.3 X
Track quality 100.0 %
Copy CRC F6F35BB6
Track not present in AccurateRip database
Copy OK

Track 8

Filename A:\PsPBuRnOuT's MUSIC\DRIVE\Car Hits - The Ultimate Collection\Car Hits - The Ultimate Collection - CD04\08.Ce Ce Peniston - Finally.wav

Peak level 100.0 %
Extraction speed 20.2 X
Track quality 100.0 %
Copy CRC FA0AF412
Track not present in AccurateRip database
Copy OK

Track 9

Filename A:\PsPBuRnOuT's MUSIC\DRIVE\Car Hits - The Ultimate Collection\Car Hits - The Ultimate Collection - CD04\09.Ultra Nate - Free.wav

Peak level 91.6 %
Extraction speed 21.1 X
Track quality 100.0 %
Copy CRC 23DC0A00
Track not present in AccurateRip database
Copy OK

Track 10

Filename A:\PsPBuRnOuT's MUSIC\DRIVE\Car Hits - The Ultimate Collection\Car Hits - The Ultimate Collection - CD04\10.Shanice - I Love Your Smile (Original Single Version).wav

Peak level 100.0 %
Extraction speed 21.6 X
Track quality 100.0 %
Copy CRC 0ED79B24
Track not present in AccurateRip database
Copy OK

Track 11

Filename A:\PsPBuRnOuT's MUSIC\DRIVE\Car Hits - The Ultimate Collection\Car Hits - The Ultimate Collection - CD04\11.Lenny Kravitz - It Ain't Over 'Til It's Over (2012 Remaster).wav

Peak level 84.1 %
Extraction speed 22.6 X
Track quality 100.0 %
Copy CRC CF4D7A73
Track not present in AccurateRip database
Copy OK

Track 12

Filename A:\PsPBuRnOuT's MUSIC\DRIVE\Car Hits - The Ultimate Collection\Car Hits - The Ultimate Collection - CD04\12.Extreme - Get The Funk Out.wav

Peak level 100.0 %
Extraction speed 26.2 X
Track quality 100.0 %
Copy CRC B2B3285A
Track not present in AccurateRip database
Copy OK

Track 13

Filename A:\PsPBuRnOuT's MUSIC\DRIVE\Car Hits - The Ultimate Collection\Car Hits - The Ultimate Collection - CD04\13.Vic Reeves & The Wonder Stuff - Dizzy.wav

Peak level 92.1 %
Extraction speed 27.1 X
Track quality 100.0 %
Copy CRC AF12EE35
Track not present in AccurateRip database
Copy OK

Track 14

Filename A:\PsPBuRnOuT's MUSIC\DRIVE\Car Hits - The Ultimate Collection\Car Hits - The Ultimate Collection - CD04\14.Ocean Colour Scene - You're Got It Bad.wav

Peak level 88.8 %
Extraction speed 27.8 X
Track quality 100.0 %
Copy CRC F6C964BC
Track not present in AccurateRip database
Copy OK

Track 15

Filename A:\PsPBuRnOuT's MUSIC\DRIVE\Car Hits - The Ultimate Collection\Car Hits - The Ultimate Collection - CD04\15.Dodgy - Good Enough.wav

Peak level 100.0 %
Extraction speed 25.4 X
Track quality 100.0 %
Copy CRC BEDADBE6
Track not present in AccurateRip database
Copy OK

Track 16

Filename A:\PsPBuRnOuT's MUSIC\DRIVE\Car Hits - The Ultimate Collection\Car Hits - The Ultimate Collection - CD04\16.Cast - Walkaway.wav

Peak level 100.0 %
Extraction speed 25.3 X
Track quality 100.0 %
Copy CRC CCF47EEE
Track not present in AccurateRip database
Copy OK

Track 17

Filename A:\PsPBuRnOuT's MUSIC\DRIVE\Car Hits - The Ultimate Collection\Car Hits - The Ultimate Collection - CD04\17.The Farm - All Together Now.wav

Peak level 100.0 %
Extraction speed 27.2 X
Track quality 100.0 %
Copy CRC FE5B5364
Track not present in AccurateRip database
Copy OK

Track 18

Filename A:\PsPBuRnOuT's MUSIC\DRIVE\Car Hits - The Ultimate Collection\Car Hits - The Ultimate Collection - CD04\18.The LA's - There She Goes.wav

Peak level 100.0 %
Extraction speed 23.1 X
Track quality 99.8 %
Copy CRC 394931EE
Track not present in AccurateRip database
Copy OK

Track 19

Filename A:\PsPBuRnOuT's MUSIC\DRIVE\Car Hits - The Ultimate Collection\Car Hits - The Ultimate Collection - CD04\19.Baby Bird - You're Gorgeous.wav

Peak level 97.0 %
Extraction speed 25.1 X
Track quality 99.9 %
Copy CRC 21BAA17B
Track not present in AccurateRip database
Copy OK

Track 20

Filename A:\PsPBuRnOuT's MUSIC\DRIVE\Car Hits - The Ultimate Collection\Car Hits - The Ultimate Collection - CD04\20.Fat Les - Vindaloo.wav

Peak level 99.9 %
Extraction speed 27.3 X
Track quality 100.0 %
Copy CRC DC448E12
Track not present in AccurateRip database
Copy OK


None of the tracks are present in the AccurateRip database

No errors occurred

End of status report

–– CUETools DB Plugin V2.1.6

[CTDB TOCID: 4E0NLVPW_35osQkQ0TY8.JiUGjg-] found
Submit result: 4E0NLVPW_35osQkQ0TY8.JiUGjg- has been confirmed
Track | CTDB Status
1 | (2/2) Accurately ripped
2 | (2/2) Accurately ripped
3 | (2/2) Accurately ripped
4 | (2/2) Accurately ripped
5 | (2/2) Accurately ripped
6 | (2/2) Accurately ripped
7 | (2/2) Accurately ripped
8 | (2/2) Accurately ripped
9 | (2/2) Accurately ripped
10 | (2/2) Accurately ripped
11 | (2/2) Accurately ripped
12 | (2/2) Accurately ripped
13 | (2/2) Accurately ripped
14 | (2/2) Accurately ripped
15 | (2/2) Accurately ripped
16 | (2/2) Accurately ripped
17 | (2/2) Accurately ripped
18 | (2/2) Accurately ripped
19 | (2/2) Accurately ripped
20 | (2/2) Accurately ripped

=====================================

Exact Audio Copy V1.3 from 2. September 2016

EAC extraction logfile from 8. May 2018, 23:11

Various / Car Hits - The Ultimate Collection - CD04

Used drive : HL-DT-STDVDRAM GSA-E40N Adapter: 1 ID: 1

Read mode : Secure
Utilize accurate stream : Yes
Defeat audio cache : No
Make use of C2 pointers : Yes

Read offset correction : 667
Overread into Lead-In and Lead-Out : No
Fill up missing offset samples with silence : Yes
Delete leading and trailing silent blocks : No
Null samples used in CRC calculations : Yes
Used interface : Native Win32 interface for Win NT & 2000
Gap handling : Not detected, thus appended to previous track

Used output format : User Defined Encoder
Selected bitrate : 896 kBit/s
Quality : High
Add ID3 tag : No
Command line compressor : C:\Program Files (x86)\Exact Audio Copy\FLAC\FLAC.EXE
Additional command line options : -6 -V -T "ARTIST=%artist%" -T "TITLE=%title%" -T "ALBUM=%albumtitle%" -T "DATE=%year%" -T "TRACKNUMBER=%tracknr%" -T "GENRE=%genre%" -T "COMMENT=%comment%" -T "BAND=%albuminterpret%" -T "ALBUMARTIST=%albuminterpret%" -T "COMPOSER=%composer%" %haslyrics%–tag-from-file=LYRICS="%lyricsfile%"%haslyrics% -T "DISCNUMBER=%cdnumber%" -T "TOTALDISCS=%totalcds%" -T "TOTALTRACKS=%numtracks%" %hascover%–picture="%coverfile%"%hascover% %source% -o %dest%


TOC of the extracted CD

Track | Start | Length | Start sector | End sector
––––––––––––––––––––––––––––-
1 | 0:00.00 | 4:26.16 | 0 | 19965
2 | 4:26.16 | 3:52.56 | 19966 | 37421
3 | 8:18.72 | 3:59.11 | 37422 | 55357
4 | 12:18.08 | 3:11.06 | 55358 | 69688
5 | 15:29.14 | 3:24.43 | 69689 | 85031
6 | 18:53.57 | 3:50.47 | 85032 | 102328
7 | 22:44.29 | 3:35.22 | 102329 | 118475
8 | 26:19.51 | 3:43.17 | 118476 | 135217
9 | 30:02.68 | 3:52.35 | 135218 | 152652
10 | 33:55.28 | 3:50.25 | 152653 | 169927
11 | 37:45.53 | 4:00.33 | 169928 | 187960
12 | 41:46.11 | 4:23.19 | 187961 | 207704
13 | 46:09.30 | 3:17.23 | 207705 | 222502
14 | 49:26.53 | 3:44.52 | 222503 | 239354
15 | 53:11.30 | 3:57.72 | 239355 | 257201
16 | 57:09.27 | 3:51.68 | 257202 | 274594
17 | 61:01.20 | 5:41.16 | 274595 | 300185
18 | 66:42.36 | 2:42.63 | 300186 | 312398
19 | 69:25.24 | 3:41.58 | 312399 | 329031
20 | 73:07.07 | 3:39.36 | 329032 | 345492


Track 1

Filename A:\PsPBuRnOuT's MUSIC\DRIVE\Car Hits - The Ultimate Collection\Car Hits - The Ultimate Collection - CD04\01.Robbie Williams - Angels (Remastered 2004).wav

Peak level 88.7 %
Extraction speed 11.7 X
Track quality 99.9 %
Copy CRC 94D8DB8B
Track not present in AccurateRip database
Copy OK

Track 2

Filename A:\PsPBuRnOuT's MUSIC\DRIVE\Car Hits - The Ultimate Collection\Car Hits - The Ultimate Collection - CD04\02.Cher - If I Could Turn Back Time (Edit).wav

Peak level 100.0 %
Extraction speed 16.4 X
Track quality 100.0 %
Copy CRC 324051AA
Track not present in AccurateRip database
Copy OK

Track 3

Filename A:\PsPBuRnOuT's MUSIC\DRIVE\Car Hits - The Ultimate Collection\Car Hits - The Ultimate Collection - CD04\03.Wet Wet Wet - Love Is All Around.wav

Peak level 83.5 %
Extraction speed 16.2 X
Track quality 100.0 %
Copy CRC 8CC8495F
Track not present in AccurateRip database
Copy OK

Track 4

Filename A:\PsPBuRnOuT's MUSIC\DRIVE\Car Hits - The Ultimate Collection\Car Hits - The Ultimate Collection - CD04\04.Kylie Minogue - The Loco-Motion.wav

Peak level 89.1 %
Extraction speed 16.6 X
Track quality 100.0 %
Copy CRC 5B7FF04B
Track not present in AccurateRip database
Copy OK

Track 5

Filename A:\PsPBuRnOuT's MUSIC\DRIVE\Car Hits - The Ultimate Collection\Car Hits - The Ultimate Collection - CD04\05.Jason Donovan - Too Many Broken Hearts.wav

Peak level 89.0 %
Extraction speed 16.2 X
Track quality 99.8 %
Copy CRC B877EEE5
Track not present in AccurateRip database
Copy OK

Track 6

Filename A:\PsPBuRnOuT's MUSIC\DRIVE\Car Hits - The Ultimate Collection\Car Hits - The Ultimate Collection - CD04\06.Ronan Keating - Life Is A Rollercoaster (Radio Edit).wav

Peak level 100.0 %
Extraction speed 18.5 X
Track quality 100.0 %
Copy CRC 13FE3F1F
Track not present in AccurateRip database
Copy OK

Track 7

Filename A:\PsPBuRnOuT's MUSIC\DRIVE\Car Hits - The Ultimate Collection\Car Hits - The Ultimate Collection - CD04\07.Moloko - Sing It Back.wav

Peak level 86.9 %
Extraction speed 19.3 X
Track quality 100.0 %
Copy CRC F6F35BB6
Track not present in AccurateRip database
Copy OK

Track 8

Filename A:\PsPBuRnOuT's MUSIC\DRIVE\Car Hits - The Ultimate Collection\Car Hits - The Ultimate Collection - CD04\08.Ce Ce Peniston - Finally.wav

Peak level 100.0 %
Extraction speed 20.2 X
Track quality 100.0 %
Copy CRC FA0AF412
Track not present in AccurateRip database
Copy OK

Track 9

Filename A:\PsPBuRnOuT's MUSIC\DRIVE\Car Hits - The Ultimate Collection\Car Hits - The Ultimate Collection - CD04\09.Ultra Nate - Free.wav

Peak level 91.6 %
Extraction speed 21.1 X
Track quality 100.0 %
Copy CRC 23DC0A00
Track not present in AccurateRip database
Copy OK

Track 10

Filename A:\PsPBuRnOuT's MUSIC\DRIVE\Car Hits - The Ultimate Collection\Car Hits - The Ultimate Collection - CD04\10.Shanice - I Love Your Smile (Original Single Version).wav

Peak level 100.0 %
Extraction speed 21.6 X
Track quality 100.0 %
Copy CRC 0ED79B24
Track not present in AccurateRip database
Copy OK

Track 11

Filename A:\PsPBuRnOuT's MUSIC\DRIVE\Car Hits - The Ultimate Collection\Car Hits - The Ultimate Collection - CD04\11.Lenny Kravitz - It Ain't Over 'Til It's Over (2012 Remaster).wav

Peak level 84.1 %
Extraction speed 22.6 X
Track quality 100.0 %
Copy CRC CF4D7A73
Track not present in AccurateRip database
Copy OK

Track 12

Filename A:\PsPBuRnOuT's MUSIC\DRIVE\Car Hits - The Ultimate Collection\Car Hits - The Ultimate Collection - CD04\12.Extreme - Get The Funk Out.wav

Peak level 100.0 %
Extraction speed 26.2 X
Track quality 100.0 %
Copy CRC B2B3285A
Track not present in AccurateRip database
Copy OK

Track 13

Filename A:\PsPBuRnOuT's MUSIC\DRIVE\Car Hits - The Ultimate Collection\Car Hits - The Ultimate Collection - CD04\13.Vic Reeves & The Wonder Stuff - Dizzy.wav

Peak level 92.1 %
Extraction speed 27.1 X
Track quality 100.0 %
Copy CRC AF12EE35
Track not present in AccurateRip database
Copy OK

Track 14

Filename A:\PsPBuRnOuT's MUSIC\DRIVE\Car Hits - The Ultimate Collection\Car Hits - The Ultimate Collection - CD04\14.Ocean Colour Scene - You're Got It Bad.wav

Peak level 88.8 %
Extraction speed 27.8 X
Track quality 100.0 %
Copy CRC F6C964BC
Track not present in AccurateRip database
Copy OK

Track 15

Filename A:\PsPBuRnOuT's MUSIC\DRIVE\Car Hits - The Ultimate Collection\Car Hits - The Ultimate Collection - CD04\15.Dodgy - Good Enough.wav

Peak level 100.0 %
Extraction speed 25.4 X
Track quality 100.0 %
Copy CRC BEDADBE6
Track not present in AccurateRip database
Copy OK

Track 16

Filename A:\PsPBuRnOuT's MUSIC\DRIVE\Car Hits - The Ultimate Collection\Car Hits - The Ultimate Collection - CD04\16.Cast - Walkaway.wav

Peak level 100.0 %
Extraction speed 25.3 X
Track quality 100.0 %
Copy CRC CCF47EEE
Track not present in AccurateRip database
Copy OK

Track 17

Filename A:\PsPBuRnOuT's MUSIC\DRIVE\Car Hits - The Ultimate Collection\Car Hits - The Ultimate Collection - CD04\17.The Farm - All Together Now.wav

Peak level 100.0 %
Extraction speed 27.2 X
Track quality 100.0 %
Copy CRC FE5B5364
Track not present in AccurateRip database
Copy OK

Track 18

Filename A:\PsPBuRnOuT's MUSIC\DRIVE\Car Hits - The Ultimate Collection\Car Hits - The Ultimate Collection - CD04\18.The LA's - There She Goes.wav

Peak level 100.0 %
Extraction speed 23.1 X
Track quality 99.8 %
Copy CRC 394931EE
Track not present in AccurateRip database
Copy OK

Track 19

Filename A:\PsPBuRnOuT's MUSIC\DRIVE\Car Hits - The Ultimate Collection\Car Hits - The Ultimate Collection - CD04\19.Baby Bird - You're Gorgeous.wav

Peak level 97.0 %
Extraction speed 25.1 X
Track quality 99.9 %
Copy CRC 21BAA17B
Track not present in AccurateRip database
Copy OK

Track 20

Filename A:\PsPBuRnOuT's MUSIC\DRIVE\Car Hits - The Ultimate Collection\Car Hits - The Ultimate Collection - CD04\20.Fat Les - Vindaloo.wav

Peak level 99.9 %
Extraction speed 27.3 X
Track quality 100.0 %
Copy CRC DC448E12
Track not present in AccurateRip database
Copy OK


None of the tracks are present in the AccurateRip database

No errors occurred

End of status report

–– CUETools DB Plugin V2.1.6

[CTDB TOCID: 4E0NLVPW_35osQkQ0TY8.JiUGjg-] found
Submit result: 4E0NLVPW_35osQkQ0TY8.JiUGjg- has been confirmed
Track | CTDB Status
1 | (2/2) Accurately ripped
2 | (2/2) Accurately ripped
3 | (2/2) Accurately ripped
4 | (2/2) Accurately ripped
5 | (2/2) Accurately ripped
6 | (2/2) Accurately ripped
7 | (2/2) Accurately ripped
8 | (2/2) Accurately ripped
9 | (2/2) Accurately ripped
10 | (2/2) Accurately ripped
11 | (2/2) Accurately ripped
12 | (2/2) Accurately ripped
13 | (2/2) Accurately ripped
14 | (2/2) Accurately ripped
15 | (2/2) Accurately ripped
16 | (2/2) Accurately ripped
17 | (2/2) Accurately ripped
18 | (2/2) Accurately ripped
19 | (2/2) Accurately ripped
20 | (2/2) Accurately ripped

==================================

Exact Audio Copy V1.3 from 2. September 2016

EAC extraction logfile from 8. May 2018, 23:54

Various / Car Hits - The Ultimate Collection - CD05

Used drive : HL-DT-STDVDRAM GSA-E40N Adapter: 1 ID: 1

Read mode : Secure
Utilize accurate stream : Yes
Defeat audio cache : No
Make use of C2 pointers : Yes

Read offset correction : 667
Overread into Lead-In and Lead-Out : No
Fill up missing offset samples with silence : Yes
Delete leading and trailing silent blocks : No
Null samples used in CRC calculations : Yes
Used interface : Native Win32 interface for Win NT & 2000
Gap handling : Not detected, thus appended to previous track

Used output format : User Defined Encoder
Selected bitrate : 896 kBit/s
Quality : High
Add ID3 tag : No
Command line compressor : C:\Program Files (x86)\Exact Audio Copy\FLAC\FLAC.EXE
Additional command line options : -6 -V -T "ARTIST=%artist%" -T "TITLE=%title%" -T "ALBUM=%albumtitle%" -T "DATE=%year%" -T "TRACKNUMBER=%tracknr%" -T "GENRE=%genre%" -T "COMMENT=%comment%" -T "BAND=%albuminterpret%" -T "ALBUMARTIST=%albuminterpret%" -T "COMPOSER=%composer%" %haslyrics%–tag-from-file=LYRICS="%lyricsfile%"%haslyrics% -T "DISCNUMBER=%cdnumber%" -T "TOTALDISCS=%totalcds%" -T "TOTALTRACKS=%numtracks%" %hascover%–picture="%coverfile%"%hascover% %source% -o %dest%


TOC of the extracted CD

Track | Start | Length | Start sector | End sector
––––––––––––––––––––––––––––-
1 | 0:00.00 | 3:50.06 | 0 | 17255
2 | 3:50.06 | 3:58.50 | 17256 | 35155
3 | 7:48.56 | 2:50.21 | 35156 | 47926
4 | 10:39.02 | 3:15.58 | 47927 | 62609
5 | 13:54.60 | 3:29.31 | 62610 | 78315
6 | 17:24.16 | 2:36.71 | 78316 | 90086
7 | 20:01.12 | 3:02.57 | 90087 | 103793
8 | 23:03.69 | 3:04.10 | 103794 | 117603
9 | 26:08.04 | 2:18.33 | 117604 | 127986
10 | 28:26.37 | 3:00.49 | 127987 | 141535
11 | 31:27.11 | 3:45.41 | 141536 | 158451
12 | 35:12.52 | 3:16.70 | 158452 | 173221
13 | 38:29.47 | 2:58.49 | 173222 | 186620
14 | 41:28.21 | 4:11.20 | 186621 | 205465
15 | 45:39.41 | 3:12.57 | 205466 | 219922
16 | 48:52.23 | 3:24.52 | 219923 | 235274
17 | 52:17.00 | 3:53.24 | 235275 | 252773
18 | 56:10.24 | 4:37.17 | 252774 | 273565
19 | 60:47.41 | 4:27.63 | 273566 | 293653
20 | 65:15.29 | 3:30.25 | 293654 | 309428


Track 1

Filename A:\PsPBuRnOuT's MUSIC\DRIVE\Car Hits - The Ultimate Collection\Car Hits - The Ultimate Collection - CD05\01.Abba - Dancing Queen.wav

Peak level 95.1 %
Extraction speed 12.9 X
Track quality 99.9 %
Copy CRC C1860255
Track not present in AccurateRip database
Copy OK

Track 2

Filename A:\PsPBuRnOuT's MUSIC\DRIVE\Car Hits - The Ultimate Collection\Car Hits - The Ultimate Collection - CD05\02.Norman Greenbaum - Spirit In The Sky.wav

Peak level 87.4 %
Extraction speed 13.9 X
Track quality 99.9 %
Copy CRC 596B180D
Track not present in AccurateRip database
Copy OK

Track 3

Filename A:\PsPBuRnOuT's MUSIC\DRIVE\Car Hits - The Ultimate Collection\Car Hits - The Ultimate Collection - CD05\03.The Archies - Sugar Sugar.wav

Peak level 97.7 %
Extraction speed 17.1 X
Track quality 100.0 %
Copy CRC 55953842
Track not present in AccurateRip database
Copy OK

Track 4

Filename A:\PsPBuRnOuT's MUSIC\DRIVE\Car Hits - The Ultimate Collection\Car Hits - The Ultimate Collection - CD05\04.John Travolta - Greased Lightning.wav

Peak level 94.4 %
Extraction speed 18.5 X
Track quality 100.0 %
Copy CRC 170A3182
Track not present in AccurateRip database
Copy OK

Track 5

Filename A:\PsPBuRnOuT's MUSIC\DRIVE\Car Hits - The Ultimate Collection\Car Hits - The Ultimate Collection - CD05\05.The Real Thing - You To Me Are Everything.wav

Peak level 91.2 %
Extraction speed 19.5 X
Track quality 100.0 %
Copy CRC 849C05D6
Track not present in AccurateRip database
Copy OK

Track 6

Filename A:\PsPBuRnOuT's MUSIC\DRIVE\Car Hits - The Ultimate Collection\Car Hits - The Ultimate Collection - CD05\06.The Foundations - Baby Now That I've Found You.wav

Peak level 91.5 %
Extraction speed 17.4 X
Track quality 100.0 %
Copy CRC AFA8AA00
Track not present in AccurateRip database
Copy OK

Track 7

Filename A:\PsPBuRnOuT's MUSIC\DRIVE\Car Hits - The Ultimate Collection\Car Hits - The Ultimate Collection - CD05\07.Love Affair - Everlasting Love.wav

Peak level 81.2 %
Extraction speed 18.3 X
Track quality 100.0 %
Copy CRC 50D764F9
Track not present in AccurateRip database
Copy OK

Track 8

Filename A:\PsPBuRnOuT's MUSIC\DRIVE\Car Hits - The Ultimate Collection\Car Hits - The Ultimate Collection - CD05\08.Petula Clark - Downtown.wav

Peak level 95.9 %
Extraction speed 19.1 X
Track quality 100.0 %
Copy CRC C5D421EB
Track not present in AccurateRip database
Copy OK

Track 9

Filename A:\PsPBuRnOuT's MUSIC\DRIVE\Car Hits - The Ultimate Collection\Car Hits - The Ultimate Collection - CD05\09.Del Shannon - Runaway.wav

Peak level 83.1 %
Extraction speed 22.1 X
Track quality 100.0 %
Copy CRC 0D555EFA
Track not present in AccurateRip database
Copy OK

Track 10

Filename A:\PsPBuRnOuT's MUSIC\DRIVE\Car Hits - The Ultimate Collection\Car Hits - The Ultimate Collection - CD05\10.Marmalade - Ob-La-Di Ob-La-Da.wav

Peak level 99.9 %
Extraction speed 19.0 X
Track quality 99.8 %
Copy CRC DF618835
Track not present in AccurateRip database
Copy OK

Track 11

Filename A:\PsPBuRnOuT's MUSIC\DRIVE\Car Hits - The Ultimate Collection\Car Hits - The Ultimate Collection - CD05\11.Ken Boothe - Everything I Own.wav

Peak level 89.1 %
Extraction speed 21.2 X
Track quality 100.0 %
Copy CRC 31853A07
Track not present in AccurateRip database
Copy OK

Track 12

Filename A:\PsPBuRnOuT's MUSIC\DRIVE\Car Hits - The Ultimate Collection\Car Hits - The Ultimate Collection - CD05\12.Carl Douglas - Kung Fu Fighting.wav

Peak level 100.0 %
Extraction speed 19.7 X
Track quality 99.8 %
Copy CRC A0771757
Track not present in AccurateRip database
Copy OK

Track 13

Filename A:\PsPBuRnOuT's MUSIC\DRIVE\Car Hits - The Ultimate Collection\Car Hits - The Ultimate Collection - CD05\13.The Foundations - Build Me Up Buttercup.wav

Peak level 87.2 %
Extraction speed 21.1 X
Track quality 100.0 %
Copy CRC C15976FB
Track not present in AccurateRip database
Copy OK

Track 14

Filename A:\PsPBuRnOuT's MUSIC\DRIVE\Car Hits - The Ultimate Collection\Car Hits - The Ultimate Collection - CD05\14.Free - All Right Now.wav

Peak level 97.7 %
Extraction speed 23.6 X
Track quality 100.0 %
Copy CRC AAAB84B6
Track not present in AccurateRip database
Copy OK

Track 15

Filename A:\PsPBuRnOuT's MUSIC\DRIVE\Car Hits - The Ultimate Collection\Car Hits - The Ultimate Collection - CD05\15.Sweet - Blockbuster (7'' Version).wav

Peak level 90.7 %
Extraction speed 21.8 X
Track quality 99.8 %
Copy CRC 61C3CAF2
Track not present in AccurateRip database
Copy OK

Track 16

Filename A:\PsPBuRnOuT's MUSIC\DRIVE\Car Hits - The Ultimate Collection\Car Hits - The Ultimate Collection - CD05\16.Stealers Wheel - Stuck In The Middle With You.wav

Peak level 100.0 %
Extraction speed 26.6 X
Track quality 100.0 %
Copy CRC 841A8152
Track not present in AccurateRip database
Copy OK

Track 17

Filename A:\PsPBuRnOuT's MUSIC\DRIVE\Car Hits - The Ultimate Collection\Car Hits - The Ultimate Collection - CD05\17.Bachman Turner Overdrive - You Ain't Seen Nothing Yet.wav

Peak level 100.0 %
Extraction speed 28.3 X
Track quality 100.0 %
Copy CRC A493CD9F
Track not present in AccurateRip database
Copy OK

Track 18

Filename A:\PsPBuRnOuT's MUSIC\DRIVE\Car Hits - The Ultimate Collection\Car Hits - The Ultimate Collection - CD05\18.Lynyrd Skynyrd - Sweet Home Alabama.wav

Peak level 100.0 %
Extraction speed 24.6 X
Track quality 99.9 %
Copy CRC 683B2BE6
Track not present in AccurateRip database
Copy OK

Track 19

Filename A:\PsPBuRnOuT's MUSIC\DRIVE\Car Hits - The Ultimate Collection\Car Hits - The Ultimate Collection - CD05\19.Thin Lizzy - The Boys Are Back In Town.wav

Peak level 100.0 %
Extraction speed 26.3 X
Track quality 100.0 %
Copy CRC 45BD7D56
Track not present in AccurateRip database
Copy OK

Track 20

Filename A:\PsPBuRnOuT's MUSIC\DRIVE\Car Hits - The Ultimate Collection\Car Hits - The Ultimate Collection - CD05\20.Status Quo - Rocking All Over The World.wav

Peak level 94.4 %
Extraction speed 30.4 X
Track quality 99.8 %
Copy CRC 129BE82E
Track not present in AccurateRip database
Copy OK


None of the tracks are present in the AccurateRip database

No errors occurred

End of status report

–– CUETools DB Plugin V2.1.6

[CTDB TOCID: rbTGygey8ATZl_e42z4s7XiFbrA-] found
Submit result: rbTGygey8ATZl_e42z4s7XiFbrA- has been confirmed
Track | CTDB Status
1 | (2/2) Accurately ripped
2 | (2/2) Accurately ripped
3 | (2/2) Accurately ripped
4 | (2/2) Accurately ripped
5 | (2/2) Accurately ripped
6 | (2/2) Accurately ripped
7 | (2/2) Accurately ripped
8 | (2/2) Accurately ripped
9 | (2/2) Accurately ripped
10 | (2/2) Accurately ripped
11 | (2/2) Accurately ripped
12 | (2/2) Accurately ripped
13 | (2/2) Accurately ripped
14 | (2/2) Accurately ripped
15 | (2/2) Accurately ripped
16 | (2/2) Accurately ripped
17 | (2/2) Accurately ripped
18 | (2/2) Accurately ripped
19 | (2/2) Accurately ripped
20 | (2/2) Accurately ripped