Tags
Language
Tags
June 2024
Su Mo Tu We Th Fr Sa
26 27 28 29 30 31 1
2 3 4 5 6 7 8
9 10 11 12 13 14 15
16 17 18 19 20 21 22
23 24 25 26 27 28 29
30 1 2 3 4 5 6

V.A. - Decca: Wiener Philharmoniker - The Orchestral Edition (65CD Box Set, 2014) Part 1

Posted By: Discograf_man
V.A. - Decca: Wiener Philharmoniker - The Orchestral Edition (65CD Box Set, 2014) Part 1

V.A. - Decca: Wiener Philharmoniker - The Orchestral Edition (65CD Box Set, 2014) Part 1
EAC Rip | FLAC (tracks+.cue,log,scans) | Run Time: 23:41:33 | 5,94 Gb | Artworks 1,26 Gb
Genre: Classical, Orchestral | Label: Decca

A luxurious and authoritative 64CD orchestral and concerto set, celebrating one of the world’s great orchestras and their 64-year relationship with Decca Classics.
Few labels can claim to be so associated with a city as inextricably as Decca is with Vienna. No history of classical recordings would be complete without a chapter documenting how both Decca and the WP worked to perfect the art of recording in the city’s great concert halls, most notably in the famous Sofiensaal.
Includes three complete symphonic cycles: BEETHOVEN – Monteux, Kleiber, Schmidt-Isserstedt, Solti, Abbado / BRAHMS – Mehta, Schuricht, Böhm, Kertesz / BRUCKNER – Mehta, Abbado, Solti, Stein, Maazel, Böhm (this is WP’s only complete Bruckner cycle, recorded 1965-1974).
FEATURING: Abbado, Bernstein, Boskovsky, Boult, Bohm, Chailly, Dohnányi, Dorati, Haitink, Karajan, Kertesz, Kondrashin, Khachaturian, Kleiber, Knappertsbusch, Krauss, Krips, Kubelik, Maazel, Mehta, Monteux , Münchinger, Reiner, Schmidt-Isserstedt, Schuricht, Stein, Solti, Szell, Walter, Gulda, Backhaus, Curzon, Ashkenazy, Schiff.
V.A. - Decca: Wiener Philharmoniker - The Orchestral Edition (65CD Box Set, 2014) Part 1

V.A. - Decca: Wiener Philharmoniker - The Orchestral Edition (65CD Box Set, 2014) Part 1

Contents:

CD 1 HAYDN:Symphonies Nos.94, 101 & 104
Wiener Philharmoniker / Pierre Monteux / Herbert von Karajan*

CD 2 HAYDN: Missa brevis Sancti Joannis de Deo*
Die Schöpfung (Part 1)

CD 3 HAYDN: Tracks 1-7: Die Schöpfung Part II
Erna Spoorenberg soprano (Eva) / Elly Ameling soprano (Gabriel) / Werner Krenn tenor (Uriel) / Tom Krause, baritone (Raphael) / Robin Fairhurst, bass (Adam) / Peter Planyavsky, organ* / Wiener Staatsopernchor / Wiener Philharmoniker / Karl Münchinger

CD 4 MOZART: Piano Concerto No.15 in B flat major, K450
Symphony No.36 in C major, K425 “Linz”
Leonard Bernstein, pianist and conductor / Wiener Philharmoniker

CD 5 MOZART: Piano Concerto No.23 & No.27
Clifford Curzon, piano / Wiener Philharmoniker / George Szell

CD 6 MOZART: Clarinet Concerto in A major, K622
Flute and Harp Concerto in C major, K299
Symphony No.40 in G minor, K550*
Alfred Prinz, clarinet / Werner Tripp, flute / Hubert Jellinek, harp / Wiener Philharmoniker / Karl Münchinger / Herbert von Karajan*

CD 7 MOZART Requiem, K626
Arleen Auger, soprano / Cecilia Bartoli, mezzo-soprano / Vinson Cole, tenor / René Pape, bass / Konzertvereinigung Wiener Staatsopernchor / Wiener Philharmoniker / Sir Georg Solti

CD 8 BEETHOVEN:Symphonies Nos.1 & 6 “Pastoral”
Wiener Philharmoniker / Pierre Monteux

CD 9 BEETHOVEN: Symphonies Nos.2 & 4
Wiener Philharmoniker / Hans Schmidt-Isserstedt

CD 10 BEETHOVEN: Symphony No.3 “Eroica”
Leonora Overture Nos.2 & 3, Fidelio Overture, op.72*
Wiener Philharmoniker / Erich Kleiber / Clemens Krauss*

CD 11 BEETHOVEN: Symphonies Nos.5 & 7
Wiener Philharmoniker / Sir Georg Solti

CD 12 BEETHOVEN: Symphony No.8 in F major, op.93
BRUCKNER: Symphony No.1 in C minor
Wiener Philharmoniker / Claudio Abbado

CD 13 BEETHOVEN: Symphony No.9
Joan Sutherland, soprano / Marilyn Horne, contralto / James King, tenor / Martti Talvela, bass / Wiener Staatsopernchor / Wiener Philharmoniker / Hans Schmidt-Isserstedt

CD 14 BEETHOVEN: Piano Concerto No.1
BRAHMS: Piano Concerto No.1 in D minor, op.15*
Friedrich Gulda, piano / Wilhelm Backhaus,* piano / Wiener Philharmoniker / Karl Böhm

CD 15 BEETHOVEN: Piano Concerto No.2
BRAHMS: Piano Concerto No.2 in B flat major, op.83*
Vladimir Ashkenazy, piano / Wiener Philharmoniker / Zubin Mehta / Bernard Haitink*

CD 16 BEETHOVEN: Piano Concerto No.3 & No.4
Friedrich Gulda, piano / Wiener Philharmoniker / Horst Stein

CD 17 BEETHOVEN: Piano Concerto No.5 in E flat major, op.73 “Emperor”
TCHAIKOVSKY: Piano Concerto No.1 in B flat minor, op.23*
Clifford Curzon, piano / Wiener Philharmoniker / Hans Knappertsbusch /
Sir Georg Solti*

CD 18 BEETHOVEN: String Quartet in F minor, op.95 (Arr. Mahler)
BRAHMS: Tracks 5-8: Piano Quartet in G minor, op.25 (Orch. Arnold Schoenberg*)
Wiener Philharmoniker / Christoph von Dohnányi

CD 19 BEETHOVEN: Complete incidental music to Egmont, op.84
SCHUBERT: Symphony No.8 in B minor, D759 “Unfinished”*
Pilar Lorengar, soprano / Klaus-Jürgen Wussow, narrator / Wiener Philharmoniker / George Szell / Josef Krips*

CD 20 SCHUBERT: Rosamunde, Fürstin von Zypern, D797
WEBER: Preciosa — Ouvertüre, op.78ª, J279
SCHUMANN: Genoveva — Ouvertüre, op.81ª
CHERUBINI: Anacréon — Ouvertüreª
Rohangiz Yachmi, contralto* / Wiener Staatsopernchorº /
Wiener Philharmoniker / Karl Münchinger

Disc: 1
1. 1. Adagio - Vivace assai - Wiener Philharmoniker, Pierre Monteux
2. 2. Andante - Wiener Philharmoniker, Pierre Monteux
3. 3. Menuet (Allegro molto) - Wiener Philharmoniker, Pierre Monteux
4. 4. Finale (Allegro di molto) - Wiener Philharmoniker, Pierre Monteux
5. 1. Adagio - Presto - Wiener Philharmoniker, Pierre Monteux
6. 2. Andante - Wiener Philharmoniker, Pierre Monteux
7. 3. Menuet (Allegretto) - Trio - Wiener Philharmoniker, Pierre Monteux
8. 4. Finale (Vivace) - Wiener Philharmoniker, Pierre Monteux
9. 1. Adagio - Allegro - Wiener Philharmoniker, Herbert von Karajan
10. 2. Andante - Wiener Philharmoniker, Herbert von Karajan
11. 3. Menuet (Allegro) - Wiener Philharmoniker, Herbert von Karajan
12. 4. Finale (Spiritoso) - Wiener Philharmoniker, Herbert von Karajan

Disc: 2
1. Kyrie - Wiener Staatsopernchor, Wiener Philharmoniker, Karl Münchinger
2. Gloria - Wiener Staatsopernchor, Wiener Philharmoniker, Karl Münchinger
3. Credo - Wiener Staatsopernchor, Wiener Philharmoniker, Karl Münchinger
4. Sanctus - Wiener Staatsopernchor, Wiener Philharmoniker, Karl Münchinger
5. Benedictus - Elly Ameling, Wiener Staatsopernchor, Wiener Philharmoniker, Karl Münchinger
6. Agnus Dei - Wiener Staatsopernchor, Wiener Philharmoniker, Karl Münchinger
7. Overture-The Representation of Chaos - Wiener Philharmoniker, Karl Münchinger
8. Im Anfange schuf Gott Himmel und Erde - Werner Krenn, Tom Krause, Wiener Staatsopernchor, Wiener Philharmoniker, Karl Münchinger
9. Nun schwanden vor dem heiligen Strahle - Werner Krenn, Wiener Staatsopernchor, Wiener Philharmoniker, Karl Münchinger
10. Und Gott machte das Firmament…Mit Staunen sieht das W - Wiener Philharmoniker, Karl Münchinger
11. Und Gott sprach…Rollend in schäumenden Wellen - Tom Krause, Wiener Staatsopernchor, Wiener Philharmoniker, Karl Münchinger
12. Und Gott sprach…Nun beut die Flur - Elly Ameling, Wiener Philharmoniker, Karl Münchinger
13. Und die himmlischen Heerscharen…Stimmt an die Saiten - Werner Krenn, Wiener Staatsopernchor, Wiener Philharmoniker, Karl Münchinger
14. Und Gott sprach…In vollem Glanze - Werner Krenn, Wiener Philharmoniker, Karl Münchinger
15. Die Himmel erzählen die Ehre Gottes - Elly Ameling, Werner Krenn, Tom Krause, Wiener Staatsopernchor, Wiener Philharmoniker, Karl Münchinger

Disc: 3
1. Und Gott sprach…Auf starkem Fittiche - Elly Ameling, Wiener Philharmoniker, Karl Münchinger
2. Und Gott schuf grosse Walfische - Tom Krause, Wiener Philharmoniker, Karl Münchinger
3. Und die Engel rührten….In holder Anmut stehn - Elly Ameling, Werner Krenn, Tom Krause, Wiener Staatsopernchor, Wiener Philharmoniker, Karl Münchinger
4. Und Gott sprach…Gleich öffnet sich der Erde Schoss - Tom Krause, Wiener Philharmoniker, Karl Münchinger
5. Nun scheint in vollem Glanze der Himmel - Tom Krause, Wiener Philharmoniker, Karl Münchinger
6. Und Gott schuf dem Menschen…Mit Wurd' und Hoheit ange - Werner Krenn, Wiener Philharmoniker, Karl Münchinger
7. Und Gott sah jedes Ding…Vollendet ist das grosse Wer - Elly Ameling, Werner Krenn, Tom Krause, Wiener Staatsopernchor, Wiener Philharmoniker, Karl Münchinger
8. Aus Rosenwolken bricht - Werner Krenn, Wiener Philharmoniker, Karl Münchinger
9. Von deiner Güt', o Herr und Gott - Erna Spoorenberg, Robin Fairhurst, Wiener Staatsopernchor, Wiener Philharmoniker, Karl Münchinger
10. Nun ist die erste Pflicht erfüllt - Erna Spoorenberg, Robin Fairhurst, Wiener Philharmoniker, Karl Münchinger
11. Holde Gattin ! - Erna Spoorenberg, Robin Fairhurst, Wiener Philharmoniker, Karl Münchinger
12. O glücklich Paar…Singt dem Herren alle Stimmen - Werner Krenn, Wiener Staatsopernchor, Wiener Philharmoniker, Karl Münchinger

Disc: 4
1. 1. Allegro - Leonard Bernstein, Wiener Philharmoniker
2. 2. (Andante) - Leonard Bernstein, Wiener Philharmoniker
3. 3. Allegro - Leonard Bernstein, Wiener Philharmoniker
4. 1. Adagio - Allegro spiritoso - Wiener Philharmoniker, Leonard Bernstein
5. 2. Andante - Wiener Philharmoniker, Leonard Bernstein
6. 3. Menuetto - Wiener Philharmoniker, Leonard Bernstein
7. 4. Finale (Presto) - Wiener Philharmoniker, Leonard Bernstein

Disc: 5
1. 1. Allegro - Clifford Curzon, Wiener Philharmoniker, George Szell
2. 2. Andante - Clifford Curzon, Wiener Philharmoniker, George Szell
3. 3. Allegro assai - Clifford Curzon, Wiener Philharmoniker, George Szell
4. 1. Allegro - Clifford Curzon, Wiener Philharmoniker, George Szell
5. 2. Larghetto - Clifford Curzon, Wiener Philharmoniker, George Szell
6. 3. Allegro - Clifford Curzon, Wiener Philharmoniker, George Szell

Disc: 6
1. 1. Allegro - Alfred Prinz, Wiener Philharmoniker, Karl Münchinger
2. 2. Adagio - Alfred Prinz, Wiener Philharmoniker, Karl Münchinger
3. 3. Rondo (Allegro) - Alfred Prinz, Wiener Philharmoniker, Karl Münchinger
4. 1. Allegro - Werner Tripp, Hubert Jellinek, Wiener Philharmoniker, Karl Münchinger
5. 2. Andantino - Werner Tripp, Hubert Jellinek, Wiener Philharmoniker, Karl Münchinger
6. 3. Rondo. Allegro - Werner Tripp, Hubert Jellinek, Wiener Philharmoniker, Karl Münchinger
7. 1. Molto allegro - Wiener Philharmoniker, Herbert von Karajan
8. 2. Andante - Wiener Philharmoniker, Herbert von Karajan
9. 3. Menuetto (Allegretto) - Trio - Wiener Philharmoniker, Herbert von Karajan
10. 4. Finale (Allegro assai) - Wiener Philharmoniker, Herbert von Karajan

Disc: 7
1. Introitus - Arleen Augér, Konzertvereinigung Wiener Staatsopernchor, Wiener Philharmoniker, Georg Solti
2. Kyrie - Konzertvereinigung Wiener Staatsopernchor, Wiener Philharmoniker, Georg Solti
3. Dies Irae - Konzertvereinigung Wiener Staatsopernchor, Wiener Philharmoniker, Georg Solti
4. Tuba mirum - Arleen Augér, Cecilia Bartoli, Vinson Cole, René Pape, Wiener Philharmoniker, Georg Solti
5. Rex tremendae - Konzertvereinigung Wiener Staatsopernchor, Wiener Philharmoniker, Georg Solti
6. Recordare - Arleen Augér, Cecilia Bartoli, Vinson Cole, René Pape, Wiener Philharmoniker, Georg Solti
7. Confutatis - Konzertvereinigung Wiener Staatsopernchor, Wiener Philharmoniker, Georg Solti
8. Lacrimosa - Konzertvereinigung Wiener Staatsopernchor, Wiener Philharmoniker, Georg Solti
9. Offertorium: Domine Jesu - Arleen Augér, Cecilia Bartoli, Vinson Cole, René Pape, Konzertvereinigung Wiener Staatsopernchor, Wiener Philharmoniker, Georg Solti
10. Offertorium: Hostias - Konzertvereinigung Wiener Staatsopernchor, Wiener Philharmoniker, Georg Solti
11. Offertorium: Prayer over the gifts - Arleen Augér, Cecilia Bartoli, Vinson Cole, René Pape, Konzertvereinigung Wiener Staatsopernchor, Wiener Philharmoniker, Georg Solti
12. Offertorium: Preface - Arleen Augér, Cecilia Bartoli, Vinson Cole, René Pape, Konzertvereinigung Wiener Staatsopernchor, Wiener Philharmoniker, Georg Solti
13. Sanctus - Konzertvereinigung Wiener Staatsopernchor, Wiener Philharmoniker, Georg Solti
14. Benedictus - Arleen Augér, Cecilia Bartoli, Vinson Cole, René Pape, Konzertvereinigung Wiener Staatsopernchor, Wiener Philharmoniker, Georg Solti
15. Benedictus: Canon - Arleen Augér, Cecilia Bartoli, Vinson Cole, René Pape, Wiener Philharmoniker, Georg Solti
16. Benedictus: Pater noster - Ecce Agnus - Arleen Augér, Cecilia Bartoli, Vinson Cole, René Pape, Konzertvereinigung Wiener Staatsopernchor, Wiener Philharmoniker, Georg Solti
17. Agnus Dei - Konzertvereinigung Wiener Staatsopernchor, Wiener Philharmoniker, Georg Solti
18. Communio - Arleen Augér, Konzertvereinigung Wiener Staatsopernchor, Wiener Philharmoniker, Georg Solti

Disc: 8
1. 1. Adagio molto - Allegro con brio - Wiener Philharmoniker, Pierre Monteux
2. 2. Andante cantabile con moto - Wiener Philharmoniker, Pierre Monteux
3. 3. Menuetto (Allegro molto e vivace) - Wiener Philharmoniker, Pierre Monteux
4. 4. Finale (Adagio - Allegro molto e vivace) - Wiener Philharmoniker, Pierre Monteux
5. 1. Erwachen heiterer Empfindungen bei der Ankunft auf dem Lande: Allegro ma non troppo - Wiener Philharmoniker, Pierre Monteux
6. 2. Szene am Bach: (Andante molto mosso) - Wiener Philharmoniker, Pierre Monteux
7. 3. Lustiges Zusammensein der Landleute (Allegro) - Wiener Philharmoniker, Pierre Monteux
8. 4. Gewitter, Sturm (Allegro) - Wiener Philharmoniker, Pierre Monteux
9. 5. Hirtengesang. Frohe und dankbare Gefühle nach dem Sturm: Allegretto - Wiener Philharmoniker, Pierre Monteux

Disc: 9
1. 1. Adagio molto - Allegro con brio - Wiener Philharmoniker, Hans Schmidt-Isserstedt
2. 2. Larghetto - Wiener Philharmoniker, Hans Schmidt-Isserstedt
3. 3. Scherzo (Allegro) - Wiener Philharmoniker, Hans Schmidt-Isserstedt
4. 4. Allegro molto - Wiener Philharmoniker, Hans Schmidt-Isserstedt
5. 1. Adagio - Allegro vivace - Wiener Philharmoniker, Hans Schmidt-Isserstedt
6. 2. Adagio - Wiener Philharmoniker, Hans Schmidt-Isserstedt
7. 3. Allegro vivace - Wiener Philharmoniker, Hans Schmidt-Isserstedt
8. 4. Allegro ma non troppo - Wiener Philharmoniker, Hans Schmidt-Isserstedt

Disc: 10
1. 1. Allegro con brio - Wiener Philharmoniker, Erich Kleiber
2. 2. Marcia funebre (Adagio assai) - Wiener Philharmoniker, Erich Kleiber
3. 3. Scherzo (Allegro vivace) - Wiener Philharmoniker, Erich Kleiber
4. 4. Finale (Allegro molto) - Wiener Philharmoniker, Erich Kleiber
5. Overture "Leonore No.2", Op.72a - Wiener Philharmoniker, Clemens Krauss
6. Overture "Leonore No.3", Op.72b - Wiener Philharmoniker, Clemens Krauss
7. Overture - Wiener Philharmoniker, Clemens Krauss

Disc: 11
1. 1. Allegro con brio - Wiener Philharmoniker, Georg Solti
2. 2. Andante con moto - Wiener Philharmoniker, Georg Solti
3. 3. Allegro - Wiener Philharmoniker, Georg Solti
4. 4. Allegro - Wiener Philharmoniker, Georg Solti
5. 1. Poco sostenuto - Vivace - Wiener Philharmoniker, Georg Solti
6. 2. Allegretto - Wiener Philharmoniker, Georg Solti
7. 3. Presto - Assai meno presto - Wiener Philharmoniker, Georg Solti
8. 4. Allegro con brio - Wiener Philharmoniker, Georg Solti

Disc: 12
1. 1. Allegro vivace e con brio - Wiener Philharmoniker, Claudio Abbado
2. 2. Allegretto scherzando - Wiener Philharmoniker, Claudio Abbado
3. 3. Tempo di menuetto - Wiener Philharmoniker, Claudio Abbado
4. 4. Allegro vivace - Wiener Philharmoniker, Claudio Abbado
5. 1. Allegro molto moderato - Wiener Philharmoniker, Claudio Abbado
6. 2. Adagio - Wiener Philharmoniker, Claudio Abbado
7. 3. Scherzo - Wiener Philharmoniker, Claudio Abbado
8. 4. Finale. Bewegt, feurig - Wiener Philharmoniker, Claudio Abbado

Disc: 13
1. 1. Allegro ma non troppo, un poco maestoso - Wiener Philharmoniker, Hans Schmidt-Isserstedt
2. 2. Molto vivace - Wiener Philharmoniker, Hans Schmidt-Isserstedt
3. 3. Adagio molto e cantabile - Wiener Philharmoniker, Hans Schmidt-Isserstedt
4. 4. Presto - Allegro assai - Joan Sutherland, Marilyn Horne, James King, Martti Talvela, Wiener Staatsopernchor, Wiener Philharmoniker, Hans Schmidt-Isserstedt

Disc: 14
1. 1. Allegro con brio - Friedrich Gulda, Wiener Philharmoniker, Karl Böhm
2. 2. Largo - Friedrich Gulda, Wiener Philharmoniker, Karl Böhm
3. 3. Rondo (Allegro scherzando) - Friedrich Gulda, Wiener Philharmoniker, Karl Böhm
4. 1. Maestoso - Poco più moderato - Wilhelm Backhaus, Wiener Philharmoniker, Karl Böhm
5. 2. Adagio - Wilhelm Backhaus, Wiener Philharmoniker, Karl Böhm
6. 3. Rondo (Allegro non troppo) - Wilhelm Backhaus, Wiener Philharmoniker, Karl Böhm

Disc: 15
1. 1. Allegro con brio - Vladimir Ashkenazy, Wiener Philharmoniker, Zubin Mehta
2. 2. Adagio - Vladimir Ashkenazy, Wiener Philharmoniker, Zubin Mehta
3. 3. Rondo (Molto allegro) - Vladimir Ashkenazy, Wiener Philharmoniker, Zubin Mehta
4. 1. Allegro non troppo - Vladimir Ashkenazy, Wiener Philharmoniker, Bernard Haitink
5. 2. Allegro appassionato - Vladimir Ashkenazy, Wiener Philharmoniker, Bernard Haitink
6. 3. Andante - Più adagio - Vladimir Ashkenazy, Robert Scheiwein, Wiener Philharmoniker, Bernard Haitink
7. 4. Allegretto grazioso - Un poco più presto - Vladimir Ashkenazy, Wiener Philharmoniker, Bernard Haitink

Disc: 16
1. 1. Allegro con brio - Friedrich Gulda, Wiener Philharmoniker, Horst Stein
2. 2. Largo - Friedrich Gulda, Wiener Philharmoniker, Horst Stein
3. 3. Rondo (Allegro) - Friedrich Gulda, Wiener Philharmoniker, Horst Stein
4. 1. Allegro moderato - Friedrich Gulda, Wiener Philharmoniker, Horst Stein
5. 2. Andante con moto - Friedrich Gulda, Wiener Philharmoniker, Horst Stein
6. 3. Rondo (Vivace) - Friedrich Gulda, Wiener Philharmoniker, Horst Stein

Disc: 17
1. 1. Allegro - Clifford Curzon, Wiener Philharmoniker, Hans Knappertsbusch
2. 2. Adagio un poco mosso - Clifford Curzon, Wiener Philharmoniker, Hans Knappertsbusch
3. 3. Rondo (Allegro) - Clifford Curzon, Wiener Philharmoniker, Hans Knappertsbusch
4. 1. Allegro non troppo e molto maestoso - Allegro con spirito - Clifford Curzon, Wiener Philharmoniker, Georg Solti
5. 2. Andantino semplice - Prestissimo - Tempo I - Clifford Curzon, Wiener Philharmoniker, Georg Solti
6. 3. Allegro con fuoco - Clifford Curzon, Wiener Philharmoniker, Georg Solti

Disc: 18
1. 1. Allegro con brio - Wiener Philharmoniker, Christoph von Dohnanyi
2. 2. Allegretto ma non troppo - Wiener Philharmoniker, Christoph von Dohnanyi
3. 3. Allegro assai vivace ma serioso - Wiener Philharmoniker, Christoph von Dohnanyi
4. 4. Larghetto espressivo - Allegretto agitato - Wiener Philharmoniker, Christoph von Dohnanyi
5. 1. Allegro - Wiener Philharmoniker, Christoph von Dohnanyi
6. 2. Intermezzo. Allegro ma non troppo - Wiener Philharmoniker, Christoph von Dohnanyi
7. 3. Andante con moto - Wiener Philharmoniker, Christoph von Dohnanyi
8. 4. Rondo alla Zingarese - Presto - Wiener Philharmoniker, Christoph von Dohnanyi

Disc: 19
1. Overture - Klausjürgen Wussow, Wiener Philharmoniker, George Szell
2. 1. Lied: "Die Trommel gerühret" - Pilar Lorengar, Klausjürgen Wussow, Wiener Philharmoniker, George Szell
3. 2. Zwischenakt: Andante - Klausjürgen Wussow, Wiener Philharmoniker, George Szell
4. 3. Zwischenakt: Larghetto - Klausjürgen Wussow, Wiener Philharmoniker, George Szell
5. 4. Lied: "Freudvoll und leidvoll" - Pilar Lorengar, Klausjürgen Wussow, Wiener Philharmoniker, George Szell
6. 5. Zwischenakt: Allegro - Marcia - Klausjürgen Wussow, Wiener Philharmoniker, George Szell
7. 6. Zwischenakt: Poco sostenuto e risoluto - Klausjürgen Wussow, Wiener Philharmoniker, George Szell
8. 7. Clärchens Tod - Klausjürgen Wussow, Wiener Philharmoniker, George Szell
9. 8. Melodram: Süßer Schlaf du kommst wie ein - Klausjürgen Wussow, Wiener Philharmoniker, George Szell
10. 9. Siegessymphonie: Allegro con brio - Wiener Philharmoniker, George Szell
11. 1. Allegro moderato - Wiener Philharmoniker, Josef Krips
12. 2. Andante con moto - Wiener Philharmoniker, Josef Krips

Disc: 20
1. Overture (Die Zauberharfe, D.644) - Wiener Philharmoniker, Karl Münchinger
2. Entr'acte No. 1 - Wiener Philharmoniker, Karl Münchinger
3. Ballet Music No. 1 - Andante un poco assai - Wiener Philharmoniker, Karl Münchinger
4. Entr'acte No. 2 - Wiener Philharmoniker, Karl Münchinger
5. Romance: "Der Vollmond strahlt auf Bergeshöh'n" - Rohangiz Yachmi, Wiener Philharmoniker, Karl Münchinger
6. Chorus Of Spirits: "In der Tiefe wohnt das Licht" - Wiener Staatsopernchor, Wiener Philharmoniker, Karl Münchinger
7. Entr'acte No. 3 - Andantino - Wiener Philharmoniker, Karl Münchinger
8. Shepherd's Melody - Wiener Philharmoniker, Karl Münchinger
9. Chorus Of Shepherds: "Hier auf den Fluren…." - Wiener Staatsopernchor, Wiener Philharmoniker, Karl Münchinger
10. Chorus Of Huntsmen: "Wie lebt sich's so fröhlich im Grünen" - Wiener Staatsopernchor, Wiener Philharmoniker, Karl Münchinger
11. Ballet Music No. 2 - Wiener Philharmoniker, Karl Münchinger
12. Overture "Preciosa", Op.78 - Wiener Philharmoniker, Karl Münchinger
13. Overture Genoveva, Op.81 - Wiener Philharmoniker, Karl Münchinger
14. "Anacreon" Overture - Wiener Philharmoniker, Karl Münchinger


Exact Audio Copy V1.1 from 23. June 2015

EAC extraction logfile from 14. October 2015, 11:36

Pierre Monteux & Wiener Philharmoniker / Decca - Wiener Philharmoniker Orchestral Edition - CD 1: Haydn

Used drive : hp CDDVDW SH-216BB Adapter: 1 ID: 1

Read mode : Secure
Utilize accurate stream : Yes
Defeat audio cache : Yes
Make use of C2 pointers : No

Read offset correction : 6
Overread into Lead-In and Lead-Out : No
Fill up missing offset samples with silence : Yes
Delete leading and trailing silent blocks : No
Null samples used in CRC calculations : Yes
Used interface : Native Win32 interface for Win NT & 2000
Gap handling : Appended to previous track

Used output format : User Defined Encoder
Selected bitrate : 1024 kBit/s
Quality : High
Add ID3 tag : No
Command line compressor : P:\Program Files (x86)\Exact Audio Copy\Flac\flac.exe
Additional command line options : -8 -V -T "ARTIST=%artist%" -T "TITLE=%title%" -T "ALBUM=%albumtitle%" -T "DATE=%year%" -T "TRACKNUMBER=%tracknr%" -T "GENRE=%genre%" -T "PERFORMER=%albuminterpret%" -T "COMPOSER=%composer%" %haslyrics%–tag-from-file=LYRICS="%lyricsfile%"%haslyrics% -T "ALBUMARTIST=%albumartist%" -T "DISCNUMBER=%cdnumber%" -T "TOTALDISCS=%totalcds%" -T "TOTALTRACKS=%numtracks%" -T "COMMENT=%comment%" %source% -o %dest%


TOC of the extracted CD

Track | Start | Length | Start sector | End sector
––––––––––––––––––––––––––––-
1 | 0:00.00 | 6:31.39 | 0 | 29363
2 | 6:31.39 | 5:40.27 | 29364 | 54890
3 | 12:11.66 | 5:08.34 | 54891 | 78024
4 | 17:20.25 | 3:40.37 | 78025 | 94561
5 | 21:00.62 | 8:56.43 | 94562 | 134804
6 | 29:57.30 | 6:08.62 | 134805 | 162466
7 | 36:06.17 | 6:34.59 | 162467 | 192075
8 | 42:41.01 | 4:25.55 | 192076 | 212005
9 | 47:06.56 | 8:55.25 | 212006 | 252155
10 | 56:02.06 | 8:19.74 | 252156 | 289654
11 | 64:22.05 | 4:28.03 | 289655 | 309757
12 | 68:50.08 | 4:54.47 | 309758 | 331854


Track 1

Filename T:\EAC Rips\Decca - Wiener Philharmoniker Orchestral Edition\CD 1 - Haydn\01 - Symphony No.94 in G major ''Surprise'' - I. Adagio - Vivace assai.wav

Pre-gap length 0:00:02.00

Peak level 98.8 %
Extraction speed 5.2 X
Track quality 100.0 %
Test CRC CEC64673
Copy CRC CEC64673
Accurately ripped (confidence 10) [DC65235F] (AR v2)
Copy OK

Track 2

Filename T:\EAC Rips\Decca - Wiener Philharmoniker Orchestral Edition\CD 1 - Haydn\02 - Symphony No.94 in G major ''Surprise'' - II. Andante.wav

Pre-gap length 0:00:02.05

Peak level 98.8 %
Extraction speed 5.7 X
Track quality 100.0 %
Test CRC E5A2F736
Copy CRC E5A2F736
Accurately ripped (confidence 10) [8D529191] (AR v2)
Copy OK

Track 3

Filename T:\EAC Rips\Decca - Wiener Philharmoniker Orchestral Edition\CD 1 - Haydn\03 - Symphony No.94 in G major ''Surprise'' - III. Menuetto e Trio- Allegro molto.wav

Peak level 64.8 %
Extraction speed 6.1 X
Track quality 100.0 %
Test CRC 81453BB7
Copy CRC 81453BB7
Accurately ripped (confidence 10) [1250BDC9] (AR v2)
Copy OK

Track 4

Filename T:\EAC Rips\Decca - Wiener Philharmoniker Orchestral Edition\CD 1 - Haydn\04 - Symphony No.94 in G major ''Surprise'' - IV. Finale- Allegro di molto.wav

Peak level 98.2 %
Extraction speed 6.2 X
Track quality 100.0 %
Test CRC DD5F2873
Copy CRC DD5F2873
Accurately ripped (confidence 10) [867DABC7] (AR v2)
Copy OK

Track 5

Filename T:\EAC Rips\Decca - Wiener Philharmoniker Orchestral Edition\CD 1 - Haydn\05 - Symphony No.101 in D major, ''The Clock'' - I. Adagio - Presto.wav

Pre-gap length 0:00:05.76

Peak level 87.8 %
Extraction speed 7.4 X
Track quality 100.0 %
Test CRC 52BB42A3
Copy CRC 52BB42A3
Accurately ripped (confidence 10) [14DFC35C] (AR v2)
Copy OK

Track 6

Filename T:\EAC Rips\Decca - Wiener Philharmoniker Orchestral Edition\CD 1 - Haydn\06 - Symphony No.101 in D major, ''The Clock'' - II. Andante.wav

Pre-gap length 0:00:01.82

Peak level 62.8 %
Extraction speed 6.5 X
Track quality 99.9 %
Test CRC C5C9995F
Copy CRC C5C9995F
Accurately ripped (confidence 10) [B5B103D6] (AR v2)
Copy OK

Track 7

Filename T:\EAC Rips\Decca - Wiener Philharmoniker Orchestral Edition\CD 1 - Haydn\07 - Symphony No.101 in D major, ''The Clock'' - III. Menuetto e Trio- Allegretto.wav

Pre-gap length 0:00:01.42

Peak level 95.0 %
Extraction speed 8.2 X
Track quality 100.0 %
Test CRC 18F33648
Copy CRC 18F33648
Accurately ripped (confidence 10) [98B43910] (AR v2)
Copy OK

Track 8

Filename T:\EAC Rips\Decca - Wiener Philharmoniker Orchestral Edition\CD 1 - Haydn\08 - Symphony No.101 in D major, ''The Clock'' - IV. Finale- Vivace.wav

Peak level 98.8 %
Extraction speed 8.1 X
Track quality 100.0 %
Test CRC CA1CBD3E
Copy CRC CA1CBD3E
Accurately ripped (confidence 10) [32F8CE59] (AR v2)
Copy OK

Track 9

Filename T:\EAC Rips\Decca - Wiener Philharmoniker Orchestral Edition\CD 1 - Haydn\09 - Symphony No.104 in D major, ''London'' (H. von Karajan conducts) - I. Adagio - Allegro.wav

Pre-gap length 0:00:05.76

Peak level 98.8 %
Extraction speed 9.0 X
Track quality 100.0 %
Test CRC DC9A84E8
Copy CRC DC9A84E8
Accurately ripped (confidence 10) [C7F30FC2] (AR v2)
Copy OK

Track 10

Filename T:\EAC Rips\Decca - Wiener Philharmoniker Orchestral Edition\CD 1 - Haydn\10 - Symphony No.104 in D major, ''London'' (H. von Karajan conducts) - II. Andante.wav

Pre-gap length 0:00:04.36

Peak level 75.1 %
Extraction speed 8.3 X
Track quality 99.9 %
Test CRC 6C05C5D4
Copy CRC 6C05C5D4
Accurately ripped (confidence 10) [C9BE1BBF] (AR v2)
Copy OK

Track 11

Filename T:\EAC Rips\Decca - Wiener Philharmoniker Orchestral Edition\CD 1 - Haydn\11 - Symphony No.104 in D major, ''London'' (H. von Karajan conducts) - III. Menuetto e Trio- Allegretto.wav

Pre-gap length 0:00:03.25

Peak level 98.8 %
Extraction speed 9.1 X
Track quality 100.0 %
Test CRC 6F63E4B7
Copy CRC 6F63E4B7
Accurately ripped (confidence 10) [89FDF3CF] (AR v2)
Copy OK

Track 12

Filename T:\EAC Rips\Decca - Wiener Philharmoniker Orchestral Edition\CD 1 - Haydn\12 - Symphony No.104 in D major, ''London'' (H. von Karajan conducts) - IV. Finale- Spiritoso.wav

Pre-gap length 0:00:03.92

Peak level 93.3 %
Extraction speed 5.5 X
Track quality 99.9 %
Test CRC DE52C151
Copy CRC DE52C151
Accurately ripped (confidence 10) [5902B560] (AR v2)
Copy OK


All tracks accurately ripped

No errors occurred

End of status report

–– CUETools DB Plugin V2.1.6

[CTDB TOCID: 7aZgMzPkgBMSbCvL0HQKs7SN160-] found
Submit result: 7aZgMzPkgBMSbCvL0HQKs7SN160- has been confirmed
Track | CTDB Status
1 | (17/17) Accurately ripped
2 | (17/17) Accurately ripped
3 | (17/17) Accurately ripped
4 | (17/17) Accurately ripped
5 | (17/17) Accurately ripped
6 | (17/17) Accurately ripped
7 | (17/17) Accurately ripped
8 | (16/17) Accurately ripped
9 | (17/17) Accurately ripped
10 | (17/17) Accurately ripped
11 | (17/17) Accurately ripped
12 | (17/17) Accurately ripped


==== Log checksum 39B3375DC767A060A7B6ACCFAC57CAD8277D4021F24236BF62469A4A17A80F4E ====
========================================
Exact Audio Copy V1.1 from 23. June 2015

EAC extraction logfile from 14. October 2015, 12:46

Karl Münchinger & Wiener Philharmoniker / Decca - Wiener Philharmoniker Orchestral Edition - CD 2: Haydn

Used drive : hp CDDVDW SH-216BB Adapter: 1 ID: 1

Read mode : Secure
Utilize accurate stream : Yes
Defeat audio cache : Yes
Make use of C2 pointers : No

Read offset correction : 6
Overread into Lead-In and Lead-Out : No
Fill up missing offset samples with silence : Yes
Delete leading and trailing silent blocks : No
Null samples used in CRC calculations : Yes
Used interface : Native Win32 interface for Win NT & 2000
Gap handling : Appended to previous track

Used output format : User Defined Encoder
Selected bitrate : 1024 kBit/s
Quality : High
Add ID3 tag : No
Command line compressor : P:\Program Files (x86)\Exact Audio Copy\Flac\flac.exe
Additional command line options : -8 -V -T "ARTIST=%artist%" -T "TITLE=%title%" -T "ALBUM=%albumtitle%" -T "DATE=%year%" -T "TRACKNUMBER=%tracknr%" -T "GENRE=%genre%" -T "PERFORMER=%albuminterpret%" -T "COMPOSER=%composer%" %haslyrics%–tag-from-file=LYRICS="%lyricsfile%"%haslyrics% -T "ALBUMARTIST=%albumartist%" -T "DISCNUMBER=%cdnumber%" -T "TOTALDISCS=%totalcds%" -T "TOTALTRACKS=%numtracks%" -T "COMMENT=%comment%" %source% -o %dest%


TOC of the extracted CD

Track | Start | Length | Start sector | End sector
––––––––––––––––––––––––––––-
1 | 0:00.33 | 2:32.00 | 33 | 11432
2 | 2:32.33 | 1:02.65 | 11433 | 16147
3 | 3:35.23 | 3:27.47 | 16148 | 31719
4 | 7:02.70 | 1:09.13 | 31720 | 36907
5 | 8:12.08 | 4:45.12 | 36908 | 58294
6 | 12:57.20 | 3:47.38 | 58295 | 75357
7 | 16:44.58 | 6:15.05 | 75358 | 103487
8 | 22:59.63 | 2:50.60 | 103488 | 116297
9 | 25:50.48 | 3:49.72 | 116298 | 133544
10 | 29:40.45 | 4:06.40 | 133545 | 152034
11 | 33:47.10 | 4:45.15 | 152035 | 173424
12 | 38:32.25 | 5:44.58 | 173425 | 199282
13 | 44:17.08 | 2:33.37 | 199283 | 210794
14 | 46:50.45 | 3:40.00 | 210795 | 227294
15 | 50:30.45 | 4:31.63 | 227295 | 247682


Track 1

Filename T:\EAC Rips\Decca - Wiener Philharmoniker Orchestral Edition\CD 2 - Haydn\01 - Mass No.7 in B flat major, Hob.XXII-7 ''Missa Brevis Sancti Joanis de Deo'' - Kyrie.wav

Pre-gap length 0:00:02.44

Peak level 77.2 %
Extraction speed 1.9 X
Track quality 100.0 %
Test CRC 48011F39
Copy CRC 48011F39
Accurately ripped (confidence 9) [02C725EF] (AR v2)
Copy OK

Track 2

Filename T:\EAC Rips\Decca - Wiener Philharmoniker Orchestral Edition\CD 2 - Haydn\02 - Mass No.7 in B flat major, Hob.XXII-7 ''Missa Brevis Sancti Joanis de Deo'' - Gloria.wav

Peak level 81.0 %
Extraction speed 1.4 X
Track quality 100.0 %
Test CRC B85B7CE8
Copy CRC B85B7CE8
Accurately ripped (confidence 9) [6A1940A9] (AR v2)
Copy OK

Track 3

Filename T:\EAC Rips\Decca - Wiener Philharmoniker Orchestral Edition\CD 2 - Haydn\03 - Mass No.7 in B flat major, Hob.XXII-7 ''Missa Brevis Sancti Joanis de Deo'' - Credo.wav

Peak level 70.9 %
Extraction speed 2.0 X
Track quality 100.0 %
Test CRC CA7F2CAC
Copy CRC CA7F2CAC
Accurately ripped (confidence 9) [81AD66F3] (AR v2)
Copy OK

Track 4

Filename T:\EAC Rips\Decca - Wiener Philharmoniker Orchestral Edition\CD 2 - Haydn\04 - Mass No.7 in B flat major, Hob.XXII-7 ''Missa Brevis Sancti Joanis de Deo'' - Sanctus.wav

Peak level 93.5 %
Extraction speed 1.5 X
Track quality 100.0 %
Test CRC A8C41387
Copy CRC A8C41387
Accurately ripped (confidence 9) [A4D882F0] (AR v2)
Copy OK

Track 5

Filename T:\EAC Rips\Decca - Wiener Philharmoniker Orchestral Edition\CD 2 - Haydn\05 - Mass No.7 in B flat major, Hob.XXII-7 ''Missa Brevis Sancti Joanis de Deo'' - Benedictus.wav

Peak level 57.7 %
Extraction speed 1.9 X
Track quality 99.9 %
Test CRC 5181C1FF
Copy CRC 5181C1FF
Accurately ripped (confidence 9) [B528B046] (AR v2)
Copy OK

Track 6

Filename T:\EAC Rips\Decca - Wiener Philharmoniker Orchestral Edition\CD 2 - Haydn\06 - Mass No.7 in B flat major, Hob.XXII-7 ''Missa Brevis Sancti Joanis de Deo'' - Agnus Dei.wav

Peak level 75.7 %
Extraction speed 2.0 X
Track quality 100.0 %
Test CRC B692D39C
Copy CRC B692D39C
Accurately ripped (confidence 9) [9B54EEC9] (AR v2)
Copy OK

Track 7

Filename T:\EAC Rips\Decca - Wiener Philharmoniker Orchestral Edition\CD 2 - Haydn\07 - Die Schöpfung - Part I - Orchestral Prelude- The Representation of Chaos.wav

Pre-gap length 0:00:12.33

Peak level 75.7 %
Extraction speed 2.1 X
Track quality 100.0 %
Test CRC 493A924F
Copy CRC 493A924F
Accurately ripped (confidence 9) [79EAD085] (AR v2)
Copy OK

Track 8

Filename T:\EAC Rips\Decca - Wiener Philharmoniker Orchestral Edition\CD 2 - Haydn\08 - Die Schöpfung - Part I - ''Im Anfange Schuf Gott Himmel und Erde''.wav

Peak level 85.8 %
Extraction speed 1.9 X
Track quality 100.0 %
Test CRC 4B0DB794
Copy CRC 4B0DB794
Accurately ripped (confidence 9) [C1A48F6B] (AR v2)
Copy OK

Track 9

Filename T:\EAC Rips\Decca - Wiener Philharmoniker Orchestral Edition\CD 2 - Haydn\09 - Die Schöpfung - Part I - ''Nun Schwanden vor dem heiligen Strahle''.wav

Peak level 75.0 %
Extraction speed 2.0 X
Track quality 100.0 %
Test CRC E2B104A6
Copy CRC E2B104A6
Accurately ripped (confidence 9) [EA24ED91] (AR v2)
Copy OK

Track 10

Filename T:\EAC Rips\Decca - Wiener Philharmoniker Orchestral Edition\CD 2 - Haydn\10 - Die Schöpfung - Part I - ''Und Gott machte das Firmament…''.wav

Peak level 72.1 %
Extraction speed 2.0 X
Track quality 100.0 %
Test CRC EC73293E
Copy CRC EC73293E
Accurately ripped (confidence 9) [FEE86E65] (AR v2)
Copy OK

Track 11

Filename T:\EAC Rips\Decca - Wiener Philharmoniker Orchestral Edition\CD 2 - Haydn\11 - Die Schöpfung - Part I - ''Und Gott sprach…''.wav

Peak level 59.1 %
Extraction speed 1.8 X
Track quality 99.9 %
Test CRC 21C22ED8
Copy CRC 21C22ED8
Accurately ripped (confidence 9) [F5235052] (AR v2)
Copy OK

Track 12

Filename T:\EAC Rips\Decca - Wiener Philharmoniker Orchestral Edition\CD 2 - Haydn\12 - Die Schöpfung - Part I - ''Und Gott sprach…''.wav

Peak level 58.8 %
Extraction speed 2.1 X
Track quality 100.0 %
Test CRC 35D8DD51
Copy CRC 35D8DD51
Accurately ripped (confidence 9) [12DBA039] (AR v2)
Copy OK

Track 13

Filename T:\EAC Rips\Decca - Wiener Philharmoniker Orchestral Edition\CD 2 - Haydn\13 - Die Schöpfung - Part I - ''Und die himmlischen Heerscharen…''.wav

Peak level 81.0 %
Extraction speed 1.8 X
Track quality 100.0 %
Test CRC BEC3CCDA
Copy CRC BEC3CCDA
Accurately ripped (confidence 9) [1C6E4348] (AR v2)
Copy OK

Track 14

Filename T:\EAC Rips\Decca - Wiener Philharmoniker Orchestral Edition\CD 2 - Haydn\14 - Die Schöpfung - Part I - ''Und Gott sprach…''.wav

Peak level 78.6 %
Extraction speed 2.0 X
Track quality 100.0 %
Test CRC 7BB64BD2
Copy CRC 7BB64BD2
Accurately ripped (confidence 9) [B93406ED] (AR v2)
Copy OK

Track 15

Filename T:\EAC Rips\Decca - Wiener Philharmoniker Orchestral Edition\CD 2 - Haydn\15 - Die Schöpfung - Part I - ''Die Himmel erzählen die Ehre Gottes''.wav

Peak level 77.2 %
Extraction speed 2.0 X
Track quality 100.0 %
Test CRC FA797043
Copy CRC FA797043
Accurately ripped (confidence 9) [57D596D9] (AR v2)
Copy OK


All tracks accurately ripped

No errors occurred

End of status report

–– CUETools DB Plugin V2.1.6

[CTDB TOCID: mIVvdximJiy8z0VcFJQZCnQGPsY-] found
Submit result: mIVvdximJiy8z0VcFJQZCnQGPsY- has been confirmed
Track | CTDB Status
1 | (12/12) Accurately ripped
2 | (12/12) Accurately ripped
3 | (12/12) Accurately ripped
4 | (12/12) Accurately ripped
5 | (12/12) Accurately ripped
6 | (12/12) Accurately ripped
7 | (12/12) Accurately ripped
8 | (12/12) Accurately ripped
9 | (12/12) Accurately ripped
10 | (12/12) Accurately ripped
11 | (12/12) Accurately ripped
12 | (12/12) Accurately ripped
13 | (12/12) Accurately ripped
14 | (12/12) Accurately ripped
15 | (12/12) Accurately ripped


==== Log checksum 82535777B69256C6D30B4855376A3CB6CAC20F1EBB83C0DE0AEF7128C5D785D8 ====
========================================
Exact Audio Copy V1.1 from 23. June 2015

EAC extraction logfile from 14. October 2015, 14:37

Karl Münchinger & Wiener Philharmoniker / Decca - Wiener Philharmoniker Orchestral Edition - CD 3: Haydn

Used drive : hp CDDVDW SH-216BB Adapter: 1 ID: 1

Read mode : Secure
Utilize accurate stream : Yes
Defeat audio cache : Yes
Make use of C2 pointers : No

Read offset correction : 6
Overread into Lead-In and Lead-Out : No
Fill up missing offset samples with silence : Yes
Delete leading and trailing silent blocks : No
Null samples used in CRC calculations : Yes
Used interface : Native Win32 interface for Win NT & 2000
Gap handling : Appended to previous track

Used output format : User Defined Encoder
Selected bitrate : 1024 kBit/s
Quality : High
Add ID3 tag : No
Command line compressor : P:\Program Files (x86)\Exact Audio Copy\Flac\flac.exe
Additional command line options : -8 -V -T "ARTIST=%artist%" -T "TITLE=%title%" -T "ALBUM=%albumtitle%" -T "DATE=%year%" -T "TRACKNUMBER=%tracknr%" -T "GENRE=%genre%" -T "PERFORMER=%albuminterpret%" -T "COMPOSER=%composer%" %haslyrics%–tag-from-file=LYRICS="%lyricsfile%"%haslyrics% -T "ALBUMARTIST=%albumartist%" -T "DISCNUMBER=%cdnumber%" -T "TOTALDISCS=%totalcds%" -T "TOTALTRACKS=%numtracks%" -T "COMMENT=%comment%" %source% -o %dest%


TOC of the extracted CD

Track | Start | Length | Start sector | End sector
––––––––––––––––––––––––––––-
1 | 0:00.33 | 7:51.62 | 33 | 35419
2 | 7:52.20 | 2:11.28 | 35420 | 45272
3 | 10:03.48 | 7:50.35 | 45273 | 80557
4 | 17:54.08 | 3:46.62 | 80558 | 97569
5 | 21:40.70 | 3:49.00 | 97570 | 114744
6 | 25:29.70 | 4:44.38 | 114745 | 136082
7 | 30:14.33 | 9:50.62 | 136083 | 180394
8 | 40:05.20 | 4:48.70 | 180395 | 202064
9 | 44:54.15 | 9:37.68 | 202065 | 245407
10 | 54:32.08 | 2:29.25 | 245408 | 256607
11 | 57:01.33 | 8:33.50 | 256608 | 295132
12 | 65:35.08 | 4:25.00 | 295133 | 315007


Track 1

Filename T:\EAC Rips\Decca - Wiener Philharmoniker Orchestral Edition\CD 3 - Haydn\01 - Die Schöpfung - Part II - ''Und Gott sprach…''.wav

Pre-gap length 0:00:02.44

Peak level 65.3 %
Extraction speed 2.2 X
Track quality 100.0 %
Test CRC 9044A613
Copy CRC 9044A613
Accurately ripped (confidence 8) [CBF0CBC1] (AR v2)
Copy OK

Track 2

Filename T:\EAC Rips\Decca - Wiener Philharmoniker Orchestral Edition\CD 3 - Haydn\02 - Die Schöpfung - Part II - ''Und Gott schuf grosse Walfische''.wav

Peak level 52.9 %
Extraction speed 1.8 X
Track quality 100.0 %
Test CRC BCD112CB
Copy CRC BCD112CB
Accurately ripped (confidence 8) [EC793C9C] (AR v2)
Copy OK

Track 3

Filename T:\EAC Rips\Decca - Wiener Philharmoniker Orchestral Edition\CD 3 - Haydn\03 - Die Schöpfung - Part II - ''Und die Engel rührten…''.wav

Peak level 85.0 %
Extraction speed 2.0 X
Track quality 99.9 %
Test CRC F6DEF289
Copy CRC F6DEF289
Accurately ripped (confidence 8) [3F3D846D] (AR v2)
Copy OK

Track 4

Filename T:\EAC Rips\Decca - Wiener Philharmoniker Orchestral Edition\CD 3 - Haydn\04 - Die Schöpfung - Part II - ''Und Gott sprach…''.wav

Peak level 73.1 %
Extraction speed 2.0 X
Track quality 100.0 %
Test CRC AFD267EF
Copy CRC AFD267EF
Accurately ripped (confidence 8) [6FA279A6] (AR v2)
Copy OK

Track 5

Filename T:\EAC Rips\Decca - Wiener Philharmoniker Orchestral Edition\CD 3 - Haydn\05 - Die Schöpfung - Part II - ''Nun scheint in vollem Glanze der Himmel''.wav

Peak level 62.3 %
Extraction speed 2.0 X
Track quality 100.0 %
Test CRC 8C01DB2E
Copy CRC 8C01DB2E
Accurately ripped (confidence 8) [74D9CC2F] (AR v2)
Copy OK

Track 6

Filename T:\EAC Rips\Decca - Wiener Philharmoniker Orchestral Edition\CD 3 - Haydn\06 - Die Schöpfung - Part II - ''Und Gott schuf dem Menschen…''.wav

Peak level 45.8 %
Extraction speed 1.8 X
Track quality 99.9 %
Test CRC 5822D06D
Copy CRC 5822D06D
Accurately ripped (confidence 8) [2396C7DF] (AR v2)
Copy OK

Track 7

Filename T:\EAC Rips\Decca - Wiener Philharmoniker Orchestral Edition\CD 3 - Haydn\07 - Die Schöpfung - Part II - ''Und Gott sah jedes Ding…''.wav

Peak level 77.6 %
Extraction speed 2.2 X
Track quality 100.0 %
Test CRC 89605007
Copy CRC 89605007
Accurately ripped (confidence 8) [B0A58C33] (AR v2)
Copy OK

Track 8

Filename T:\EAC Rips\Decca - Wiener Philharmoniker Orchestral Edition\CD 3 - Haydn\08 - Die Schöpfung - Part III - ''Aus Rosenwolken bricht''.wav

Pre-gap length 0:00:06.00

Peak level 36.6 %
Extraction speed 2.1 X
Track quality 100.0 %
Test CRC 294EB2CE
Copy CRC 294EB2CE
Accurately ripped (confidence 8) [11EB60B9] (AR v2)
Copy OK

Track 9

Filename T:\EAC Rips\Decca - Wiener Philharmoniker Orchestral Edition\CD 3 - Haydn\09 - Die Schöpfung - Part III - ''Von deiner Güt', o Herr und Gott''.wav

Peak level 72.9 %
Extraction speed 2.2 X
Track quality 100.0 %
Test CRC 7733B74D
Copy CRC 7733B74D
Accurately ripped (confidence 9) [EB0FC46A] (AR v2)
Copy OK

Track 10

Filename T:\EAC Rips\Decca - Wiener Philharmoniker Orchestral Edition\CD 3 - Haydn\10 - Die Schöpfung - Part III - ''Nun ist die erste Pflicht erfüllt''.wav

Peak level 46.8 %
Extraction speed 1.8 X
Track quality 100.0 %
Test CRC 12C790A3
Copy CRC 12C790A3
Accurately ripped (confidence 9) [94E283C9] (AR v2)
Copy OK

Track 11

Filename T:\EAC Rips\Decca - Wiener Philharmoniker Orchestral Edition\CD 3 - Haydn\11 - Die Schöpfung - Part III - ''Holde Gattin!''.wav

Peak level 75.9 %
Extraction speed 2.2 X
Track quality 100.0 %
Test CRC 1596F6B3
Copy CRC 1596F6B3
Accurately ripped (confidence 9) [6D4BB263] (AR v2)
Copy OK

Track 12

Filename T:\EAC Rips\Decca - Wiener Philharmoniker Orchestral Edition\CD 3 - Haydn\12 - Die Schöpfung - Part III - ''O glücklich Paar…''.wav

Peak level 93.4 %
Extraction speed 2.0 X
Track quality 100.0 %
Test CRC DF25AC00
Copy CRC DF25AC00
Accurately ripped (confidence 9) [850BB3D6] (AR v2)
Copy OK


All tracks accurately ripped

No errors occurred

End of status report

–– CUETools DB Plugin V2.1.6

[CTDB TOCID: stnFqTZBOaIgqA7gqP0y7OG6IDc-] found
Submit result: stnFqTZBOaIgqA7gqP0y7OG6IDc- has been confirmed
Track | CTDB Status
1 | (10/10) Accurately ripped
2 | (10/10) Accurately ripped
3 | (10/10) Accurately ripped
4 | (10/10) Accurately ripped
5 | (10/10) Accurately ripped
6 | (10/10) Accurately ripped
7 | (10/10) Accurately ripped
8 | (10/10) Accurately ripped
9 | (10/10) Accurately ripped
10 | (10/10) Accurately ripped
11 | (10/10) Accurately ripped
12 | (10/10) Accurately ripped


==== Log checksum 40C2B0D4C69397BC1024E8132D88F77249F4832C6A771F8A647F893937F42BAF ====


All 20 log files included…