Tags
Language
Tags

V.A. - Time Life - The Folk Years (8CD Box Set, 2002)

Posted By:
V.A. - Time Life - The Folk Years (8CD Box Set, 2002)

V.A. - Time Life - The Folk Years (8CD Box Set, 2002)
EAC Rip | FLAC (*tracks + .cue,log) | Run Time: 05:48:35 | 1,89 Gb
Genre: Folk, Folk-Rock, Folk-Pop | Label: Time Life Entertainment

This collection of 8 discs may be the most comprehensive collection of its type. There are a total of 120 songs from almost as many artists. There are a few artists represented more than once, with The Kingston Trio represented by 9 songs, every one memorable. The era represented by these songs spans about ten years. The earliest songs in this collection date back to the late 1950's. The latest songs date to about 1968.
The list of groups singing these songs is a who's who of folk music. Pete Seeger, The Mamas and the Papas, The Cyrkle, The Byrds, Chad and Jeremy and many, many more. The songs are just as memorable, if not more so. The song that may be the definitive song from the era, "Turn, Turn, Turn." Scott McKenzie's phenomenal song "San Francisco." Jose Feliciano's version of "Light My Fire." Roger Miller, whose music transcended genres, is represented in this collection by "King of the Road" and "England Swings;" sad to say (or glad, maybe), I remember when both of these songs were playing on the radio in the mid-1960's.
This collection is full of well-remembered music and less remembered music. This music paralleled the success of rock and roll, and sometimes was considered part of that success, but this music is distinct from rock and roll and remains a unique part of a musical heritage that belongs largely to the United States.
For a little while folk music could be heard everywhere; on AM radio, in record stores, and every place there was a television set. There was an era when this music was king. This music is dated, but with an open mind and a feel for the era, this music is still fresh and new. Though there is much more music that remains to be discovered from the folk era, this collection is an incredible start. Enjoy!
V.A. - Time Life - The Folk Years (8CD Box Set, 2002)

V.A. - Time Life - The Folk Years (8CD Box Set, 2002)

Vol.1 - Blowin' In The Wind (2002)
Folk, Folk-Rock, Folk-Pop | MP3 CBR 320 kbps | 207 Mb
Label: Time Life | Release Year: 2002


Tracklist:

1. Where Have All The Flowers Gone - The Kingston Trio
2. You Were On My Mind - We Five
3. All My Trials - Paul
4. Don't Let The Rain Come Down - The Serendipity Singers
5. Greenfields - The Brothers Four
6. Both Sides Now - Judy Collins
7. If I Were A Carpenter - Bobby Darin
8. Abraham, Martin And John - Dion
9. Lemon Tree - Trini Lopez
10. Kisses Sweeter Than Wine - Jimmie Rodgers
11. Jamaica Farewell - Harry Belafonte
12. Green, Green - The New Christy Minstrels
13. California Dreamin' - The Mamas And The Papas
14. Different Drum - Stone Poneys
15. A Summer Song - Chad
16. Turn Turn Turn (To Everything There Is A Season) - The Byrds
17. Blowin In The Wind - The Kingston Trio
18. Love Minus Zero No Limit - Joan Baez
19. Dont Think Twice Its Alright - Johnny Cash
20. Baby The Rain Must Fall - Glenn Yarbrough
21. Guantanamera - Pete Seeger
22. Get Together - The Youngbloods
23. Did You Ever Have To Make Up Your Mind - The Lovin Spoonful
24. Baby Dont Go - Sonny And Cher
25. The Last Thing On My Mind - Tom Paxton
26. The Marvelous Toy - The Chad Mitchell Trio
27. The 59th Street Bridge Song (Feelin Groovy) - Harpers Bizarr
28. Silver Threads And Golden Needles - The Springfields
29. Well Sing In The Sunshine - Gale Garnett
30. (Sittin On) The Dock Of The Bay - Otis Redding

V.A. - Time Life - The Folk Years (8CD Box Set, 2002)

Vol.2 - Yesterday's Gone (2002)
Folk, Folk-Rock, Folk-Pop | MP3 CBR 320 kbps | 205 Mb
Label: Time Life | Release Year: 2002


Tracklist:

1. Trini Lopez - If I Had A Hammer
2. The Kingston Trio - This Land Is Your Land
3. Cher - All I Really Want To Do
4. The Limeliters - There's A Meetin' Here Tonight
5. The Rooftop Singers - Walk Right In
6. Chad And Jeremy - Yesterday's Gone
7. The Seekers - I'll Never Find Another You
8. The Byrds - Mr. Tambourine Man
9. Glen Campbell - Gentle On My Mind
10. The Lovin' Spoonful - Daydream
11. Gordon Lightfoot - For Lovin' Me
12. The Beach Boys - Sloop John B
13. Harry Belafonte - Banana Boat (Day-O)
14. Vocal By Rich Dehr - Marianne
15. The Kingston Trio - Tijuana Jail
16. The Kingston Trio - Tom Dooley
17. The Band - I Shall Be Released
18. The Turtles - It Ain't Me Babe
19. Joan Baez - There But for Fortune
20. Burl Ives - A Little Bitty Tear
21. The Chad Mitchell Trio - Lizzie Borden
22. The Journeymen - 500 Miles
23. Irish Rovers - The Unicorn
24. The Mamas and the Papas - Monday, Monday
25. Harry Nilsson - Everybody's Talkin'
26. Bobbie Gentry - Ode To Billie Joe
27. Bob Lind - Elusive Butterfly
28. Judy Collins - Someday Soon
29. The Kingston Trio - Raspberries, Strawberries
30. The Smothers Brothers - My Old Man [Live]

V.A. - Time Life - The Folk Years (8CD Box Set, 2002)

Vol.3 - Reason To Believe (2002)
Folk, Folk-Rock, Folk-Pop | MP3 CBR 320 kbps | 197 Mb
Label: Time Life | Release Year: 2002


Tracklist:

1. Worried Man, A - The Kingston Trio
2. Georgy Girl - The Seekers
3. You've Got to Hide Your Love Away - The Silkie
4. Turn Down Day - The Cyrkle
5. Do You Believe in Magic - The Lovin' Spoonful
6. Saturday Night - New Christy Minstrels
7. Mama Don't Allow - The Rooftop Singers
8. Pretoria - The Smothers Brothers
9. Motorcycle Song, The - Arlo Guthrie
10. King of the Road - Roger Miller
11. Abilene - George Hamilton IV
12. Funny Way of Laughing - Burl Ives
13. Dominique - The Singing Nun
14. Society's Child (Baby I've Been Thinking) - Janis Ian
15. Eve of Destruction - Barry McGuire
16. My Back Pages - The Byrds
17. Reason to Believe - Tim Hardin
18. Ruby, Don't Take Your Love to Town - Kenny Rogers & The First Edition
19. Like to Get to Know You - Spanky & Our Gang
20. Creeque Alley - The Mamas & The Papas
21. Universal Soldier - Glen Campbell
22. Reverend Mr. Black, The - The Kingston Trio
23. Whiskey on a Sunday (The Puppet Song) - The Irish Rovers
24. Winkin', Blinkin' and Nod - The Simon Sisters
25. Beans in My Ears - Serendipity Singers
26 Come Saturday Morning - The Sandpipers
27. First Time Ever I Saw Your Face - Chad Mitchell Trio
28. Time - Pozo-Seco Singers
29. Walkin' My Cat Named Dog - Norma Tanega
30. In My Life - Judy Collins

V.A. - Time Life - The Folk Years (8CD Box Set, 2002)

Vol.4 - Simple Song Of Freedom (2002)
Folk, Folk-Rock, Folk-Pop | MP3 CBR 320 kbps | 217 Mb
Label: Time Life | Release Year: 2002


Tracklist:

01. Bob Dylan - Boots Of Spanish Leather
02. The Band - Long Black Veil
03. Joan Baez - Love Is Just A Four Letter Word
04. The Byrds - The Times They Are A Changin'
05. Donovan - Colours
06. Tim Hardin - Simple Song Of Freedom
07. Judy Collins - Early Morning Rain
08. The Kingston Trio - Greenback Dollar
09. Trini Lopez - La Bamba
10. Jose Feliciano - Light My Fire
11. The Cyrkle - Red Rubber Ball
12. Harry Belafonte - The Midnight Special
13. Billy Grammer - Gotta Travel On
14. The Brothers Four - Scarlett Ribbons (For Her Hair)
15. The Chad Mitchell Trio - Leaving On A Jet Plane
16. The New Christy Minstrels - Today
17. The Rooftop Singers - Tom Cat
18. The Sandpipers - Kumbaya
19. The Brothers Four - Blue Water Line
20. The Kingston Trio - M.T.A.
21. The Clancy Brothers & Tommy Makem - The Whistling Gypsy
22. Chad And Jeremy - Willow Weep For Me
23. The Seekers - A World Of Our Own
24. Pozo-Seco Singers - I Can Make It With You
25. Jerry Jeff Walker - Mr. Bojangles
26. Kris Kristofferson - Me And Bobby Mcgee
27. Roger Miller - England Swings
28. Van Morrison - Brown Eyed Girl
29. The Mojo Men - Sit Down, I Think I Love You
30. Scott Mckenzie - San Francisco (Be Sure To Wear Flowers In Your Hair)

Exact Audio Copy V0.99 prebeta 3 from 28. July 2007

EAC extraction logfile from 10. January 2008, 21:58

Various / the_folk_years,_album_1_blowin'_in_the_wind-disc_1

Used drive : SONY DVD RW DRU-720A Adapter: 0 ID: 0

Read mode : Secure
Utilize accurate stream : Yes
Defeat audio cache : Yes
Make use of C2 pointers : Yes

Read offset correction : 12
Overread into Lead-In and Lead-Out : No
Fill up missing offset samples with silence : Yes
Delete leading and trailing silent blocks : No
Null samples used in CRC calculations : Yes
Used interface : Native Win32 interface for Win NT & 2000
Gap handling : Appended to previous track

Used output format : User Defined Encoder
Selected bitrate : 128 kBit/s
Quality : High
Add ID3 tag : No
Command line compressor : C:\Program Files\Exact Audio Copy\Flac\flac.exe
Additional command line options : -V -8 -T "artist=%a" -T "title=%t" -T "album=%g" -T "date=%y" -T "tracknumber=%n" -T "genre=%m" %s


TOC of the extracted CD

Track | Start | Length | Start sector | End sector
––––––––––––––––––––––––––––-
1 | 0:00.00 | 3:03.00 | 0 | 13724
2 | 3:03.00 | 2:35.46 | 13725 | 25395
3 | 5:38.46 | 3:15.46 | 25396 | 40066
4 | 8:54.17 | 2:45.16 | 40067 | 52457
5 | 11:39.33 | 3:03.13 | 52458 | 66195
6 | 14:42.46 | 3:15.64 | 66196 | 80884
7 | 17:58.35 | 2:22.07 | 80885 | 91541
8 | 20:20.42 | 3:20.33 | 91542 | 106574
9 | 23:41.00 | 2:53.42 | 106575 | 119591
10 | 26:34.42 | 2:19.04 | 119592 | 130020
11 | 28:53.46 | 2:48.55 | 130021 | 142675
12 | 31:42.26 | 2:09.35 | 142676 | 152385
13 | 33:51.61 | 2:40.60 | 152386 | 164445
14 | 36:32.46 | 2:38.54 | 164446 | 176349
15 | 39:11.25 | 2:37.16 | 176350 | 188140


Track 1

Filename C:\Documents and Settings\Administrator.MIDGAR\Desktop\Folk Temp Dir\wavs\01-The_Kingston_Trio-Where_Have_All_The_Flowers_Gone.wav

Pre-gap length 0:00:02.00

Peak level 86.4 %
Track quality 100.0 %
Test CRC 10851A62
Copy CRC 10851A62
Cannot be verified as accurate (confidence 3) [484FEE5C], AccurateRip returned [7A6EFAF0]
Copy OK

Track 2

Filename C:\Documents and Settings\Administrator.MIDGAR\Desktop\Folk Temp Dir\wavs\02-We_Five-You_Were_On_My_MInd.wav

Peak level 71.6 %
Track quality 100.0 %
Test CRC E66106A0
Copy CRC E66106A0
Cannot be verified as accurate (confidence 3) [14342B05], AccurateRip returned [04980D33]
Copy OK

Track 3

Filename C:\Documents and Settings\Administrator.MIDGAR\Desktop\Folk Temp Dir\wavs\03-Peter,_Paul_&_Mary-All_My_Trials.wav

Peak level 69.2 %
Track quality 100.0 %
Test CRC 4C67DD64
Copy CRC 4C67DD64
Cannot be verified as accurate (confidence 3) [7D44A9BB], AccurateRip returned [82C3FA05]
Copy OK

Track 4

Filename C:\Documents and Settings\Administrator.MIDGAR\Desktop\Folk Temp Dir\wavs\04-The_Serendipity_Singers-Don't_Let_The_Rain_Come_Down.wav

Peak level 85.3 %
Track quality 100.0 %
Test CRC BACEF771
Copy CRC BACEF771
Cannot be verified as accurate (confidence 3) [6BAD7355], AccurateRip returned [36155549]
Copy OK

Track 5

Filename C:\Documents and Settings\Administrator.MIDGAR\Desktop\Folk Temp Dir\wavs\05-The_Brothers_Four-Greenfields.wav

Peak level 43.6 %
Track quality 100.0 %
Test CRC 82F545B7
Copy CRC 82F545B7
Cannot be verified as accurate (confidence 3) [A45B8175], AccurateRip returned [BB935417]
Copy OK

Track 6

Filename C:\Documents and Settings\Administrator.MIDGAR\Desktop\Folk Temp Dir\wavs\06-Judy_Collins-Both_Sides_Now.wav

Peak level 75.1 %
Track quality 100.0 %
Test CRC 5256CEDD
Copy CRC 5256CEDD
Cannot be verified as accurate (confidence 3) [91181321], AccurateRip returned [363300DF]
Copy OK

Track 7

Filename C:\Documents and Settings\Administrator.MIDGAR\Desktop\Folk Temp Dir\wavs\07-Bobby_Darin-If_I_Were_A_Carpenter.wav

Peak level 85.6 %
Track quality 100.0 %
Test CRC 0953D679
Copy CRC 0953D679
Cannot be verified as accurate (confidence 3) [ED58DEAF], AccurateRip returned [ED71E1F1]
Copy OK

Track 8

Filename C:\Documents and Settings\Administrator.MIDGAR\Desktop\Folk Temp Dir\wavs\08-Dion-Abraham,_Martin_And_John.wav

Peak level 87.3 %
Track quality 100.0 %
Test CRC 933D60AD
Copy CRC 933D60AD
Cannot be verified as accurate (confidence 3) [D44CB4D9], AccurateRip returned [EB292EA1]
Copy OK

Track 9

Filename C:\Documents and Settings\Administrator.MIDGAR\Desktop\Folk Temp Dir\wavs\09-Trini_Lopez-Lemon_Tree.wav

Peak level 64.3 %
Track quality 100.0 %
Test CRC FE2B9139
Copy CRC FE2B9139
Cannot be verified as accurate (confidence 3) [3B958167], AccurateRip returned [A8AEEEF2]
Copy OK

Track 10

Filename C:\Documents and Settings\Administrator.MIDGAR\Desktop\Folk Temp Dir\wavs\10-Jimmie_Rodgers-Kisses_Sweeter_Than_Wine.wav

Peak level 71.2 %
Track quality 100.0 %
Test CRC 9EA9F5E5
Copy CRC 9EA9F5E5
Cannot be verified as accurate (confidence 3) [FE393EDA], AccurateRip returned [27336823]
Copy OK

Track 11

Filename C:\Documents and Settings\Administrator.MIDGAR\Desktop\Folk Temp Dir\wavs\11-Harry_Belafonte-Jamaica_Farewell.wav

Peak level 64.3 %
Track quality 100.0 %
Test CRC 56F62F05
Copy CRC 56F62F05
Cannot be verified as accurate (confidence 3) [D6B3E77F], AccurateRip returned [E04A5DC3]
Copy OK

Track 12

Filename C:\Documents and Settings\Administrator.MIDGAR\Desktop\Folk Temp Dir\wavs\12-The_New_Christy_Minstrels-Green,_Green.wav

Peak level 47.7 %
Track quality 100.0 %
Test CRC 390EA06C
Copy CRC 390EA06C
Cannot be verified as accurate (confidence 3) [597E202D], AccurateRip returned [91D21948]
Copy OK

Track 13

Filename C:\Documents and Settings\Administrator.MIDGAR\Desktop\Folk Temp Dir\wavs\13-The_Mamas_&_The_Papas-California_Dreamin'.wav

Peak level 77.4 %
Track quality 100.0 %
Test CRC 4B17B7CC
Copy CRC 4B17B7CC
Cannot be verified as accurate (confidence 3) [82E344B2], AccurateRip returned [0AB86B62]
Copy OK

Track 14

Filename C:\Documents and Settings\Administrator.MIDGAR\Desktop\Folk Temp Dir\wavs\14-Stone_Poneys_Featuring_Linda_Ronstadt-Different_Drum.wav

Peak level 70.4 %
Track quality 99.8 %
Test CRC 0EEBD06E
Copy CRC 0EEBD06E
Cannot be verified as accurate (confidence 2) [EB4DBE85], AccurateRip returned [3BA661F2]
Copy OK

Track 15

Filename C:\Documents and Settings\Administrator.MIDGAR\Desktop\Folk Temp Dir\wavs\15-Chad_&_Jeremy-A_Summer_Song.wav

Peak level 69.9 %
Track quality 100.0 %
Test CRC 5EE0FD38
Copy CRC 5EE0FD38
Cannot be verified as accurate (confidence 3) [A6760C6C], AccurateRip returned [CF3BD9F9]
Copy OK


No tracks could be verified as accurate
You may have a different pressing from the one(s) in the database

No errors occurred

End of status report

===============================================================

Exact Audio Copy V0.99 prebeta 3 from 28. July 2007

EAC extraction logfile from 10. January 2008, 23:36

Various / the_folk_years,_album_1_blowin'_in_the_wind-disc_2

Used drive : SONY DVD RW DRU-720A Adapter: 0 ID: 0

Read mode : Secure
Utilize accurate stream : Yes
Defeat audio cache : Yes
Make use of C2 pointers : Yes

Read offset correction : 12
Overread into Lead-In and Lead-Out : No
Fill up missing offset samples with silence : Yes
Delete leading and trailing silent blocks : No
Null samples used in CRC calculations : Yes
Used interface : Native Win32 interface for Win NT & 2000
Gap handling : Appended to previous track

Used output format : User Defined Encoder
Selected bitrate : 128 kBit/s
Quality : High
Add ID3 tag : No
Command line compressor : C:\Program Files\Exact Audio Copy\Flac\flac.exe
Additional command line options : -V -8 -T "artist=%a" -T "title=%t" -T "album=%g" -T "date=%y" -T "tracknumber=%n" -T "genre=%m" %s


TOC of the extracted CD

Track | Start | Length | Start sector | End sector
––––––––––––––––––––––––––––-
1 | 0:00.00 | 3:55.21 | 0 | 17645
2 | 3:55.21 | 2:46.58 | 17646 | 30153
3 | 6:42.04 | 2:43.12 | 30154 | 42390
4 | 9:25.16 | 2:57.04 | 42391 | 55669
5 | 12:22.20 | 2:20.60 | 55670 | 66229
6 | 14:43.05 | 4:39.41 | 66230 | 87195
7 | 19:22.46 | 4:37.55 | 87196 | 108025
8 | 24:00.26 | 1:59.42 | 108026 | 116992
9 | 25:59.68 | 3:10.47 | 116993 | 131289
10 | 29:10.40 | 3:06.67 | 131290 | 145306
11 | 32:17.32 | 2:47.10 | 145307 | 157841
12 | 35:04.42 | 2:35.52 | 157842 | 169518
13 | 37:40.19 | 2:14.48 | 169519 | 179616
14 | 39:54.67 | 2:58.49 | 179617 | 193015
15 | 42:53.41 | 2:43.45 | 193016 | 205285


Track 1

Filename C:\Documents and Settings\Administrator.MIDGAR\Desktop\Folk Temp Dir\01-The_Byrds-Turn,_Turn,_Turn_(To_Everything_There_Is_A_Season).wav

Pre-gap length 0:00:02.00

Peak level 100.0 %
Track quality 100.0 %
Test CRC 9ECC683A
Copy CRC 9ECC683A
Cannot be verified as accurate (confidence 3) [8B284FFD], AccurateRip returned [760A3FD0]
Copy OK

Track 2

Filename C:\Documents and Settings\Administrator.MIDGAR\Desktop\Folk Temp Dir\02-The_Kingston_Trio-Blowin'_In_The_Wind.wav

Peak level 100.0 %
Track quality 100.0 %
Test CRC E8225FDF
Copy CRC E8225FDF
Cannot be verified as accurate (confidence 3) [F07B2A3A], AccurateRip returned [7B6AC710]
Copy OK

Track 3

Filename C:\Documents and Settings\Administrator.MIDGAR\Desktop\Folk Temp Dir\03-Joan_Baez-Love_Minus_Zero,No_Limit.wav

Peak level 78.1 %
Track quality 100.0 %
Test CRC 3C37DBA0
Copy CRC 3C37DBA0
Cannot be verified as accurate (confidence 3) [FB5699AC], AccurateRip returned [5F5BD5E8]
Copy OK

Track 4

Filename C:\Documents and Settings\Administrator.MIDGAR\Desktop\Folk Temp Dir\04-Johnny_Cash-Don't_Think_Twice,_It's_Alright.wav

Peak level 64.8 %
Track quality 100.0 %
Test CRC E34676DC
Copy CRC E34676DC
Cannot be verified as accurate (confidence 3) [71337788], AccurateRip returned [1D3636CD]
Copy OK

Track 5

Filename C:\Documents and Settings\Administrator.MIDGAR\Desktop\Folk Temp Dir\05-Glenn_Yarbrough-Baby_The_Rain_Must_Fall.wav

Peak level 60.0 %
Track quality 100.0 %
Test CRC FF485FF0
Copy CRC FF485FF0
Cannot be verified as accurate (confidence 3) [B12D209F], AccurateRip returned [A6D0BAB7]
Copy OK

Track 6

Filename C:\Documents and Settings\Administrator.MIDGAR\Desktop\Folk Temp Dir\06-Pete_Seeger-Guantanamera.wav

Peak level 74.9 %
Track quality 99.9 %
Test CRC AD05B9CC
Copy CRC AD05B9CC
Cannot be verified as accurate (confidence 3) [BC3BD07D], AccurateRip returned [B8447FF4]
Copy OK

Track 7

Filename C:\Documents and Settings\Administrator.MIDGAR\Desktop\Folk Temp Dir\07-The_Youngbloods-Get_Together.wav

Peak level 70.7 %
Track quality 100.0 %
Test CRC 6877EF85
Copy CRC 6877EF85
Cannot be verified as accurate (confidence 3) [12C71E90], AccurateRip returned [1DFD3572]
Copy OK

Track 8

Filename C:\Documents and Settings\Administrator.MIDGAR\Desktop\Folk Temp Dir\08-The_Lovin'_Spoonful-Did_You_Ever_Have_To_Make_Up_Your_Mind.wav

Peak level 76.0 %
Track quality 100.0 %
Test CRC C2413817
Copy CRC C2413817
Cannot be verified as accurate (confidence 3) [AA2BD211], AccurateRip returned [16176C9E]
Copy OK

Track 9

Filename C:\Documents and Settings\Administrator.MIDGAR\Desktop\Folk Temp Dir\09-Sonny_&_Cher-Baby_Don't_Go.wav

Peak level 55.9 %
Track quality 100.0 %
Test CRC BD16AA1A
Copy CRC BD16AA1A
Cannot be verified as accurate (confidence 3) [FA61DD3A], AccurateRip returned [A5C47033]
Copy OK

Track 10

Filename C:\Documents and Settings\Administrator.MIDGAR\Desktop\Folk Temp Dir\10-Tom_Paxton-The_Last_Thing_On_My_Mind.wav

Peak level 74.7 %
Track quality 100.0 %
Test CRC 614BC05A
Copy CRC 614BC05A
Cannot be verified as accurate (confidence 3) [B0726EC7], AccurateRip returned [3D7100F9]
Copy OK

Track 11

Filename C:\Documents and Settings\Administrator.MIDGAR\Desktop\Folk Temp Dir\11-The_Chad_Mitchell_Trio-The_Marvelous_Toy.wav

Peak level 55.8 %
Track quality 100.0 %
Test CRC CD2696AD
Copy CRC CD2696AD
Cannot be verified as accurate (confidence 3) [319F9574], AccurateRip returned [8DE49180]
Copy OK

Track 12

Filename C:\Documents and Settings\Administrator.MIDGAR\Desktop\Folk Temp Dir\12-Harpers_Bizarre-The_59th_Street_Bridge_Song_(Feelin'_Groovy).wav

Peak level 74.7 %
Track quality 100.0 %
Test CRC 2DE7428E
Copy CRC 2DE7428E
Cannot be verified as accurate (confidence 3) [8F6A7FC0], AccurateRip returned [E31DD98F]
Copy OK

Track 13

Filename C:\Documents and Settings\Administrator.MIDGAR\Desktop\Folk Temp Dir\13-The_Springfields-Silver_Threads_And_Golden_Needles.wav

Peak level 53.9 %
Track quality 100.0 %
Test CRC 1B5DBADC
Copy CRC 1B5DBADC
Cannot be verified as accurate (confidence 3) [566B3AD3], AccurateRip returned [0BD2A4D1]
Copy OK

Track 14

Filename C:\Documents and Settings\Administrator.MIDGAR\Desktop\Folk Temp Dir\14-Gale_Garnett-We'll_Sing_In_The_Sunshine.wav

Peak level 56.6 %
Track quality 100.0 %
Test CRC 3DD5C151
Copy CRC 3DD5C151
Cannot be verified as accurate (confidence 3) [B5CFF09A], AccurateRip returned [5B9A817F]
Copy OK

Track 15

Filename C:\Documents and Settings\Administrator.MIDGAR\Desktop\Folk Temp Dir\15-Otis_Redding-(Sittin'_On)_The_Dock_Of_The_Bay.wav

Peak level 90.1 %
Track quality 100.0 %
Test CRC FE5BA8F6
Copy CRC FE5BA8F6
Cannot be verified as accurate (confidence 3) [4271C8CB], AccurateRip returned [020DB5AD]
Copy OK


No tracks could be verified as accurate
You may have a different pressing from the one(s) in the database

No errors occurred

End of status report

============================================================

Exact Audio Copy V0.99 prebeta 3 from 28. July 2007

EAC extraction logfile from 9. January 2008, 17:00

Various Artists / The Folk Years, Album 2: Yesterday's Gone - Disc 1

Used drive : SONY DVD RW DRU-720A Adapter: 0 ID: 0

Read mode : Secure
Utilize accurate stream : Yes
Defeat audio cache : Yes
Make use of C2 pointers : Yes

Read offset correction : 12
Overread into Lead-In and Lead-Out : No
Fill up missing offset samples with silence : Yes
Delete leading and trailing silent blocks : No
Null samples used in CRC calculations : Yes
Used interface : Native Win32 interface for Win NT & 2000
Gap handling : Appended to previous track

Used output format : User Defined Encoder
Selected bitrate : 128 kBit/s
Quality : High
Add ID3 tag : No
Command line compressor : C:\Program Files\Exact Audio Copy\Flac\flac.exe
Additional command line options : -V -8 -T "artist=%a" -T "title=%t" -T "album=%g" -T "date=%y" -T "tracknumber=%n" -T "genre=%m" %s


TOC of the extracted CD

Track | Start | Length | Start sector | End sector
––––––––––––––––––––––––––––-
1 | 0:00.00 | 2:58.73 | 0 | 13422
2 | 2:58.73 | 3:12.22 | 13423 | 27844
3 | 6:11.20 | 2:56.67 | 27845 | 41111
4 | 9:08.12 | 2:16.65 | 41112 | 51376
5 | 11:25.02 | 2:36.19 | 51377 | 63095
6 | 14:01.21 | 2:31.09 | 63096 | 74429
7 | 16:32.30 | 2:44.15 | 74430 | 86744
8 | 19:16.45 | 2:20.15 | 86745 | 97259
9 | 21:36.60 | 2:57.05 | 97260 | 110539
10 | 24:33.65 | 2:20.63 | 110540 | 121102
11 | 26:54.53 | 2:26.36 | 121103 | 132088
12 | 29:21.14 | 2:57.61 | 132089 | 145424
13 | 32:19.00 | 3:04.26 | 145425 | 159250
14 | 35:23.26 | 2:23.36 | 159251 | 170011
15 | 37:46.62 | 2:49.68 | 170012 | 182754


Track 1

Filename C:\Documents and Settings\Administrator.MIDGAR\Desktop\The Folk Years, Album 2 Yesterday's Gone - Disc 1\Various ArtistsThe Folk Years, Album 2- Yesterday's Gone - Disc 101 - If I Had a Hammer - Trini Lopez.wav

Pre-gap length 0:00:02.00

Peak level 96.0 %
Track quality 100.0 %
Test CRC D68E2D36
Copy CRC D68E2D36
Accurately ripped (confidence 3) [6BBBA610]
Copy OK

Track 2

Filename C:\Documents and Settings\Administrator.MIDGAR\Desktop\The Folk Years, Album 2 Yesterday's Gone - Disc 1\Various ArtistsThe Folk Years, Album 2- Yesterday's Gone - Disc 102 - This Land Is Your Land - The Kingston Trio.wav

Peak level 89.1 %
Track quality 100.0 %
Test CRC F9966C7B
Copy CRC F9966C7B
Accurately ripped (confidence 3) [D9DB3F01]
Copy OK

Track 3

Filename C:\Documents and Settings\Administrator.MIDGAR\Desktop\The Folk Years, Album 2 Yesterday's Gone - Disc 1\Various ArtistsThe Folk Years, Album 2- Yesterday's Gone - Disc 103 - All I Really Want to Do - Cher.wav

Peak level 83.8 %
Track quality 99.8 %
Test CRC 2660220E
Copy CRC 2660220E
Accurately ripped (confidence 3) [F85E7D71]
Copy OK

Track 4

Filename C:\Documents and Settings\Administrator.MIDGAR\Desktop\The Folk Years, Album 2 Yesterday's Gone - Disc 1\Various ArtistsThe Folk Years, Album 2- Yesterday's Gone - Disc 104 - There's a Meetin' Here Tonight - The Limeliters.wav

Peak level 81.9 %
Track quality 100.0 %
Test CRC A779553E
Copy CRC A779553E
Accurately ripped (confidence 3) [2320BF3E]
Copy OK

Track 5

Filename C:\Documents and Settings\Administrator.MIDGAR\Desktop\The Folk Years, Album 2 Yesterday's Gone - Disc 1\Various ArtistsThe Folk Years, Album 2- Yesterday's Gone - Disc 105 - Walk Right In - The Rooftop Singers.wav

Peak level 70.2 %
Track quality 100.0 %
Test CRC A64E50A5
Copy CRC A64E50A5
Accurately ripped (confidence 3) [55B74A93]
Copy OK

Track 6

Filename C:\Documents and Settings\Administrator.MIDGAR\Desktop\The Folk Years, Album 2 Yesterday's Gone - Disc 1\Various ArtistsThe Folk Years, Album 2- Yesterday's Gone - Disc 106 - Yesterday's Gone - Chad and Jeremy.wav

Peak level 87.4 %
Track quality 100.0 %
Test CRC 1174D830
Copy CRC 1174D830
Accurately ripped (confidence 3) [3E1EFB1E]
Copy OK

Track 7

Filename C:\Documents and Settings\Administrator.MIDGAR\Desktop\The Folk Years, Album 2 Yesterday's Gone - Disc 1\Various ArtistsThe Folk Years, Album 2- Yesterday's Gone - Disc 107 - I'll Never Find Another You - The Seekers.wav

Peak level 76.8 %
Track quality 100.0 %
Test CRC F03BAC66
Copy CRC F03BAC66
Accurately ripped (confidence 3) [9442CBFE]
Copy OK

Track 8

Filename C:\Documents and Settings\Administrator.MIDGAR\Desktop\The Folk Years, Album 2 Yesterday's Gone - Disc 1\Various ArtistsThe Folk Years, Album 2- Yesterday's Gone - Disc 108 - Mr. Tambourine Man - The Byrds.wav

Peak level 81.9 %
Track quality 100.0 %
Test CRC 41C5E342
Copy CRC 41C5E342
Accurately ripped (confidence 3) [DABD3360]
Copy OK

Track 9

Filename C:\Documents and Settings\Administrator.MIDGAR\Desktop\The Folk Years, Album 2 Yesterday's Gone - Disc 1\Various ArtistsThe Folk Years, Album 2- Yesterday's Gone - Disc 109 - Gentle on My Mind - Glen Campbell.wav

Peak level 80.2 %
Track quality 100.0 %
Test CRC 16C79D64
Copy CRC 16C79D64
Accurately ripped (confidence 3) [A6F6C4CE]
Copy OK

Track 10

Filename C:\Documents and Settings\Administrator.MIDGAR\Desktop\The Folk Years, Album 2 Yesterday's Gone - Disc 1\Various ArtistsThe Folk Years, Album 2- Yesterday's Gone - Disc 110 - Daydream - The Lovin' Spoonful.wav

Peak level 67.0 %
Track quality 100.0 %
Test CRC 0A9EF04F
Copy CRC 0A9EF04F
Accurately ripped (confidence 3) [3DA560E6]
Copy OK

Track 11

Filename C:\Documents and Settings\Administrator.MIDGAR\Desktop\The Folk Years, Album 2 Yesterday's Gone - Disc 1\Various ArtistsThe Folk Years, Album 2- Yesterday's Gone - Disc 111 - For Lovin' Me - Gordon Lightfoot.wav

Peak level 90.3 %
Track quality 100.0 %
Test CRC F26EE995
Copy CRC F26EE995
Accurately ripped (confidence 3) [7C1608B0]
Copy OK

Track 12

Filename C:\Documents and Settings\Administrator.MIDGAR\Desktop\The Folk Years, Album 2 Yesterday's Gone - Disc 1\Various ArtistsThe Folk Years, Album 2- Yesterday's Gone - Disc 112 - Sloop John B - The Beach Boys.wav

Peak level 96.7 %
Track quality 100.0 %
Test CRC 788FBD67
Copy CRC 788FBD67
Accurately ripped (confidence 3) [2A2714CD]
Copy OK

Track 13

Filename C:\Documents and Settings\Administrator.MIDGAR\Desktop\The Folk Years, Album 2 Yesterday's Gone - Disc 1\Various ArtistsThe Folk Years, Album 2- Yesterday's Gone - Disc 113 - Banana Boat (Day-O) - Harry Belafonte.wav

Peak level 91.3 %
Track quality 100.0 %
Test CRC 70D8BCCD
Copy CRC 70D8BCCD
Accurately ripped (confidence 3) [6071D21B]
Copy OK

Track 14

Filename C:\Documents and Settings\Administrator.MIDGAR\Desktop\The Folk Years, Album 2 Yesterday's Gone - Disc 1\Various ArtistsThe Folk Years, Album 2- Yesterday's Gone - Disc 114 - Marianne - Terry Gilkyson & The Easy Riders; vocal by Rich Dehr.w

Peak level 72.8 %
Track quality 100.0 %
Test CRC 29F3F647
Copy CRC 29F3F647
Accurately ripped (confidence 3) [B546F4F9]
Copy OK

Track 15

Filename C:\Documents and Settings\Administrator.MIDGAR\Desktop\The Folk Years, Album 2 Yesterday's Gone - Disc 1\Various ArtistsThe Folk Years, Album 2- Yesterday's Gone - Disc 115 - Tijuana Jail - The Kingston Trio.wav

Peak level 100.0 %
Track quality 99.8 %
Test CRC AACC5DCD
Copy CRC AACC5DCD
Accurately ripped (confidence 3) [354B98CE]
Copy OK


All tracks accurately ripped

No errors occurred

End of status report

=======================================================