Subcategories

V.A. - Vanity Box (1978-1981) (11CD Box Set, 2019)

Posted By: Discograf_man
V.A. - Vanity Box (1978-1981) (11CD Box Set, 2019)

V.A. - Vanity Box (1978-1981) (11CD Box Set, 2019)
EAC Rip | FLAC (*tracks+.cue+log, covers) | Run Time: 06:58:40 | 2,19 Gb
Genre: Experimental, Minimal Synth, Ambient, Post-punk | Label: Kyou Records/Vanity Records

VANITY BOX - Vanity Records / music is up and down is a 11 CD box set that compiles all full length albums and 7 inches singles that were originally released by Vanity Records from 1978 to 1981. All material included in this box set was sourced from the original master tapes and has been digitally remastered.
1. Digitally remastered from Original Master Tapes
2. Contains 13 titles originally released on Vanity Records which are included in 11 CDs (paper sleeve)
3. Limited edition of 500 sets (250 sets in pink box, 250 sets in yellow box)
4. Each CD artwork is a replica of the original album jacket
5. Original Box Size (195 mm x 140 mm x 43 mm)
6. Includes Vanity Records logo sticker
7. 32-page booklet full of never seen archival material
V.A. - Vanity Box (1978-1981) (11CD Box Set, 2019)

Contains CDs:

CD 1 - Tolerance - Anonym
CD 2 - Tolerance - Divin
CD 3 - Normal Brain - Lady Maid
CD 4 - Sympathy Nervous - Sympathy Nervous
CD 5 - Various Artists - 7インチ・シングル
CD 6 - R.N.A. Organism - R.N.A.O Meets P.O.P.O
CD 7 - BGM - Back Ground Music
CD 8 - あがた森魚 - 乗物図鑑
CD 9 - Aunt Sally - Aunt Sally
CD 10 - Sab - Crystallization
CD 11 - Dada - 浄

CD 1 - Tolerance - Anonym

01 Two Owls 3:32
02 I Wanna Be A Homicide 2:50
03 Osteo-Tomy 3:51
04 JUIN-Irénée 4:39
05 Anonym 5:30
06 Laughiñ In The Shadows 4:59
07 Through The Glass 5:16
08 Tecno-Room 2:54
09 Voyage Au Bout De La Nuit 6:54

CD 2 - Tolerance - Divin

01 Pulse Static (Tranqillia) 10:30
02 1 F Yuragi 8:42
03 Misa (Gig's Tapes In "C") 3:23
04 Sound Round 3:40
05 Boku Wa Zurui Robot (Stolen From Kad) 5:07
06 Sacrifice 2:11
07 Motor Fan 4:54
08 Tiez Rekcuz 5:52

CD 3 - Normal Brain - Lady Maid

01 M-U-S-I-C 4:19
02 Frottage "One Way" 3:32
03 You Are Busy, I Am Easy 2:29
04 KE-300 7:30
05 Frottage “SW” 2:01
06 Fragment 19:51

CD 4 - Sympathy Nervous - Sympathy Nervous

01 A Worm 5:24
02 Go On And Off 5:34
03 Temperament 6:22
04 Deaf Picture 3:20
05 Automatic Type 4:49
06 Quick Starttype 3:13
07 Inverted Type 3:25
08 Sympathetic Nerves 9:52

CD 5 - Various Artists - 7インチ・シングル

01 - Sympathy Nervous - Polaroid 3:50
02 - Sympathy Nervous - Polyester 35 Micron 2:22
03 - Sympathy Nervous - d·b·TV 4:36
04 - Mad Tea Party - Hide and Seek 3:46
05 - Mad Tea Party - Modern Time's Pop 2:15
06 - Mad Tea Party - In a Tea-Bag 4:25
07 - Perfect Mother - Dark-Disco-Da·Da·Da·Da·Run 3:14
08 - Perfect Mother - Youll No So Wit 4:16
09 - Perfect Mother - Ephemeral Pieces 3:31

CD 6 - R.N.A. Organism - R.N.A.O Meets P.O.P.O

01 Weimar 22 4:11
02 Howareyou · Whyou 4:39
03 After 2:42
04 Bring To Naught 4:15
05 Nativity 3:26
06 Yes, Every Africa Must Be Free Eternally 3:08
07 Say It Loud I'm Dilettante I'm Proud 7:16
08 Matrix 5:58

CD 7 - BGM - Back Ground Music

01 Mix 7:07
02 Neo Dancer 4:35
03 Repeat 5:04
04 And 4:39
05 Member Ship Card 5:06
06 In Put 5:03
07 Abstract 1:38
08 Romantic Romance 4:44
09 Recovery Room 2:57

CD 8 - あがた森魚 - 乗物図鑑

01 恋のラジオ・シティ
02 ブリキ・ロックンロール
03 サブマリン
04 エアプレイン
05 コックテイル・マシーン
06 黄昏ワルツ
07 Rの解答
08 連続香水瓶

CD 9 - Aunt Sally - Aunt Sally

01 アーント・サリー 6:31
02 かがみ 1:53
03 醒めた火事場で 3:14
04 日が朽ちて 1:55
05 すべて売り物 2:05
06 Essey 4:35
07 I Was Chosen 1:33
08 転機 0:52
09 フランクに 1:48
10 夢遊の少年 1:05
11 ローレライ 6:30

CD 10 - Sab - Crystallization

01 Yume-No-Ishi 19:59
02 Marble 9:30
03 Menou 4:45
04 Agate 7:16

CD 11 - Dada - 浄

01 Yuuen Inraku Gaki 遊宴 妊楽 餓鬼 5:33
02 Udonbara 鬱雲鉢 10:30
03 Rokujinzuu 六神通 8:02
04 Seijyo No Chi, Mizu 清浄の地 水 12:50


V.A. - Vanity Box (1978-1981) (11CD Box Set, 2019)


Exact Audio Copy V1.1 from 23. June 2015

EAC extraction logfile from 17. November 2019, 14:39

Tolerance / Anonym

Used drive : PLDS DVD-RW DH16AESH Adapter: 1 ID: 0

Read mode : Secure
Utilize accurate stream : Yes
Defeat audio cache : Yes
Make use of C2 pointers : No

Read offset correction : 6
Overread into Lead-In and Lead-Out : No
Fill up missing offset samples with silence : Yes
Delete leading and trailing silent blocks : No
Null samples used in CRC calculations : Yes
Used interface : Native Win32 interface for Win NT & 2000
Gap handling : Appended to previous track

Used output format : User Defined Encoder
Selected bitrate : 1024 kBit/s
Quality : High
Add ID3 tag : No
Command line compressor : C:\Program Files (x86)\Exact Audio Copy\Flac\flac.exe
Additional command line options : -8 -e -V -T "ARTIST=%artist%" -T "TITLE=%title%" -T "ALBUM=%albumtitle%" -T "DATE=%year%" -T "TRACKNUMBER=%tracknr%" -T "GENRE=%genre%" -T "PERFORMER=%albuminterpret%" -T "COMPOSER=%composer%" %haslyrics%–tag-from-file=LYRICS="%lyricsfile%"%haslyrics% -T "ALBUMARTIST=%albumartist%" -T "DISCNUMBER=%cdnumber%" -T "TOTALDISCS=%totalcds%" -T "TOTALTRACKS=%numtracks%" -T "COMMENT=%comment%" %source% -o %dest%


TOC of the extracted CD

Track | Start | Length | Start sector | End sector
––––––––––––––––––––––––––––-
1 | 0:00.00 | 3:32.08 | 0 | 15907
2 | 3:32.08 | 2:50.03 | 15908 | 28660
3 | 6:22.11 | 3:51.37 | 28661 | 46022
4 | 10:13.48 | 4:39.16 | 46023 | 66963
5 | 14:52.64 | 5:29.40 | 66964 | 91678
6 | 20:22.29 | 4:59.27 | 91679 | 114130
7 | 25:21.56 | 5:16.12 | 114131 | 137842
8 | 30:37.68 | 2:54.28 | 137843 | 150920
9 | 33:32.21 | 6:53.44 | 150921 | 181939


Track 1

Filename C:\EAC\Various Artists - 2019 - Vanity Box\CD 1 - Tolerance - Anonym\01 - Tolerance - Two owls.wav

Pre-gap length 0:00:02.00

Peak level 98.6 %
Extraction speed 3.6 X
Track quality 100.0 %
Test CRC B8120C37
Copy CRC B8120C37
Track not present in AccurateRip database
Copy OK

Track 2

Filename C:\EAC\Various Artists - 2019 - Vanity Box\CD 1 - Tolerance - Anonym\02 - Tolerance - I wanna be a homicide.wav

Pre-gap length 0:00:02.00

Peak level 99.1 %
Extraction speed 3.8 X
Track quality 100.0 %
Test CRC E89A3F7A
Copy CRC E89A3F7A
Track not present in AccurateRip database
Copy OK

Track 3

Filename C:\EAC\Various Artists - 2019 - Vanity Box\CD 1 - Tolerance - Anonym\03 - Tolerance - osteo-tomy.wav

Pre-gap length 0:00:02.01

Peak level 97.7 %
Extraction speed 4.3 X
Track quality 100.0 %
Test CRC A418DDD6
Copy CRC A418DDD6
Track not present in AccurateRip database
Copy OK

Track 4

Filename C:\EAC\Various Artists - 2019 - Vanity Box\CD 1 - Tolerance - Anonym\04 - Tolerance - JUIN-Irénée.wav

Pre-gap length 0:00:02.00

Peak level 99.0 %
Extraction speed 3.9 X
Track quality 99.9 %
Test CRC FE2C4B14
Copy CRC FE2C4B14
Track not present in AccurateRip database
Copy OK

Track 5

Filename C:\EAC\Various Artists - 2019 - Vanity Box\CD 1 - Tolerance - Anonym\05 - Tolerance - anonym.wav

Pre-gap length 0:00:02.00

Peak level 99.1 %
Extraction speed 5.2 X
Track quality 100.0 %
Test CRC 21038008
Copy CRC 21038008
Track not present in AccurateRip database
Copy OK

Track 6

Filename C:\EAC\Various Artists - 2019 - Vanity Box\CD 1 - Tolerance - Anonym\06 - Tolerance - laughiñ in the shadows.wav

Pre-gap length 0:00:02.00

Peak level 98.7 %
Extraction speed 5.5 X
Track quality 100.0 %
Test CRC 0FBC9BDF
Copy CRC 0FBC9BDF
Track not present in AccurateRip database
Copy OK

Track 7

Filename C:\EAC\Various Artists - 2019 - Vanity Box\CD 1 - Tolerance - Anonym\07 - Tolerance - through the glass.wav

Pre-gap length 0:00:02.00

Peak level 99.9 %
Extraction speed 5.9 X
Track quality 100.0 %
Test CRC 2441830C
Copy CRC 2441830C
Track not present in AccurateRip database
Copy OK

Track 8

Filename C:\EAC\Various Artists - 2019 - Vanity Box\CD 1 - Tolerance - Anonym\08 - Tolerance - tecno-room.wav

Pre-gap length 0:00:02.00

Peak level 99.9 %
Extraction speed 5.6 X
Track quality 100.0 %
Test CRC 35C9B2ED
Copy CRC 35C9B2ED
Track not present in AccurateRip database
Copy OK

Track 9

Filename C:\EAC\Various Artists - 2019 - Vanity Box\CD 1 - Tolerance - Anonym\09 - Tolerance - Voyage au bout de la nuit.wav

Pre-gap length 0:00:02.00

Peak level 99.6 %
Extraction speed 6.5 X
Track quality 100.0 %
Test CRC 410A9B55
Copy CRC 410A9B55
Track not present in AccurateRip database
Copy OK


None of the tracks are present in the AccurateRip database

No errors occurred

End of status report

–– CUETools DB Plugin V2.1.6

[CTDB TOCID: XE.enp1U1Dm0Rtl_pKrdO1WoNnY-] found
Submit result: XE.enp1U1Dm0Rtl_pKrdO1WoNnY- has been confirmed
Track | CTDB Status
1 | (3/3) Accurately ripped
2 | (3/3) Accurately ripped
3 | (3/3) Accurately ripped
4 | (3/3) Accurately ripped
5 | (3/3) Accurately ripped
6 | (3/3) Accurately ripped
7 | (3/3) Accurately ripped
8 | (3/3) Accurately ripped
9 | (3/3) Accurately ripped


==== Log checksum 5EA6CE020DF6512C04F85FF75E0345521C7EEB179EF49AB6FAFFF6AF18A9102E ====

=============================================================================================

Exact Audio Copy V1.1 from 23. June 2015

EAC extraction logfile from 17. November 2019, 15:27

Tolerance / Divin

Used drive : PLDS DVD-RW DH16AESH Adapter: 1 ID: 0

Read mode : Secure
Utilize accurate stream : Yes
Defeat audio cache : Yes
Make use of C2 pointers : No

Read offset correction : 6
Overread into Lead-In and Lead-Out : No
Fill up missing offset samples with silence : Yes
Delete leading and trailing silent blocks : No
Null samples used in CRC calculations : Yes
Used interface : Native Win32 interface for Win NT & 2000
Gap handling : Appended to previous track

Used output format : User Defined Encoder
Selected bitrate : 1024 kBit/s
Quality : High
Add ID3 tag : No
Command line compressor : C:\Program Files (x86)\Exact Audio Copy\Flac\flac.exe
Additional command line options : -8 -e -V -T "ARTIST=%artist%" -T "TITLE=%title%" -T "ALBUM=%albumtitle%" -T "DATE=%year%" -T "TRACKNUMBER=%tracknr%" -T "GENRE=%genre%" -T "PERFORMER=%albuminterpret%" -T "COMPOSER=%composer%" %haslyrics%–tag-from-file=LYRICS="%lyricsfile%"%haslyrics% -T "ALBUMARTIST=%albumartist%" -T "DISCNUMBER=%cdnumber%" -T "TOTALDISCS=%totalcds%" -T "TOTALTRACKS=%numtracks%" -T "COMMENT=%comment%" %source% -o %dest%


TOC of the extracted CD

Track | Start | Length | Start sector | End sector
––––––––––––––––––––––––––––-
1 | 0:00.00 | 10:30.02 | 0 | 47251
2 | 10:30.02 | 8:41.44 | 47252 | 86370
3 | 19:11.46 | 3:23.18 | 86371 | 101613
4 | 22:34.64 | 3:39.67 | 101614 | 118105
5 | 26:14.56 | 5:06.48 | 118106 | 141103
6 | 31:21.29 | 2:11.11 | 141104 | 150939
7 | 33:32.40 | 4:54.10 | 150940 | 172999
8 | 38:26.50 | 5:51.68 | 173000 | 199392


Track 1

Filename C:\EAC\Various Artists - 2019 - Vanity Box\CD 2 - Tolerance - Divin\01 - Tolerance - PULSE STATIC xTRANQILLIA.wav

Pre-gap length 0:00:02.00

Peak level 98.8 %
Extraction speed 2.3 X
Track quality 100.0 %
Test CRC EA431D27
Copy CRC EA431D27
Track not present in AccurateRip database
Copy OK

Track 2

Filename C:\EAC\Various Artists - 2019 - Vanity Box\CD 2 - Tolerance - Divin\02 - Tolerance - 1,F° ユラギ.wav

Pre-gap length 0:00:02.00

Peak level 98.8 %
Extraction speed 2.4 X
Track quality 99.9 %
Test CRC BB528D08
Copy CRC BB528D08
Track not present in AccurateRip database
Copy OK

Track 3

Filename C:\EAC\Various Artists - 2019 - Vanity Box\CD 2 - Tolerance - Divin\03 - Tolerance - xxGIG'S TAPES IN''C''.wav

Pre-gap length 0:00:01.74

Peak level 98.8 %
Extraction speed 2.7 X
Track quality 100.0 %
Test CRC EC20B9EC
Copy CRC EC20B9EC
Track not present in AccurateRip database
Copy OK

Track 4

Filename C:\EAC\Various Artists - 2019 - Vanity Box\CD 2 - Tolerance - Divin\04 - Tolerance - SOUND ROUND.wav

Pre-gap length 0:00:02.00

Peak level 98.8 %
Extraction speed 2.9 X
Track quality 100.0 %
Test CRC 146D3C4E
Copy CRC 146D3C4E
Track not present in AccurateRip database
Copy OK

Track 5

Filename C:\EAC\Various Artists - 2019 - Vanity Box\CD 2 - Tolerance - Divin\05 - Tolerance - BOKW WA ZURUI ROBOT xSTOLEN FROM KADx.wav

Pre-gap length 0:00:02.00

Peak level 98.8 %
Extraction speed 3.2 X
Track quality 100.0 %
Test CRC 9E71A879
Copy CRC 9E71A879
Track not present in AccurateRip database
Copy OK

Track 6

Filename C:\EAC\Various Artists - 2019 - Vanity Box\CD 2 - Tolerance - Divin\06 - Tolerance - SACRIFICE.wav

Pre-gap length 0:00:02.00

Peak level 98.8 %
Extraction speed 1.8 X
Track quality 99.9 %
Test CRC D165C915
Copy CRC D165C915
Track not present in AccurateRip database
Copy OK

Track 7

Filename C:\EAC\Various Artists - 2019 - Vanity Box\CD 2 - Tolerance - Divin\07 - Tolerance - MOTOR FAN.wav

Pre-gap length 0:00:02.00

Peak level 98.8 %
Extraction speed 2.6 X
Track quality 99.9 %
Test CRC 2506FD23
Copy CRC 2506FD23
Track not present in AccurateRip database
Copy OK

Track 8

Filename C:\EAC\Various Artists - 2019 - Vanity Box\CD 2 - Tolerance - Divin\08 - Tolerance - TIEZ REKCUZ.wav

Pre-gap length 0:00:02.00

Peak level 98.8 %
Extraction speed 2.9 X
Track quality 99.9 %
Test CRC 47519EE3
Copy CRC 47519EE3
Track not present in AccurateRip database
Copy OK


None of the tracks are present in the AccurateRip database

No errors occurred

End of status report

–– CUETools DB Plugin V2.1.6

[CTDB TOCID: m8ENQCANdBRTzxNWwO6Mwe01aOE-] found
Submit result: m8ENQCANdBRTzxNWwO6Mwe01aOE- has been confirmed
Track | CTDB Status
1 | (2/2) Accurately ripped
2 | (2/2) Accurately ripped
3 | (2/2) Accurately ripped
4 | (2/2) Accurately ripped
5 | (2/2) Accurately ripped
6 | (2/2) Accurately ripped
7 | (2/2) Accurately ripped
8 | (2/2) Accurately ripped


==== Log checksum B6D65149F0F442EFA28E267C2302A7F331797D6B9FB2934D6FF5218E76D78EA4 ====

==========================================================================================

Exact Audio Copy V1.1 from 23. June 2015

EAC extraction logfile from 19. November 2019, 15:06

Normal Brain / Lady Maid

Used drive : PLDS DVD-RW DH16AESH Adapter: 1 ID: 0

Read mode : Secure
Utilize accurate stream : Yes
Defeat audio cache : Yes
Make use of C2 pointers : No

Read offset correction : 6
Overread into Lead-In and Lead-Out : No
Fill up missing offset samples with silence : Yes
Delete leading and trailing silent blocks : No
Null samples used in CRC calculations : Yes
Used interface : Native Win32 interface for Win NT & 2000
Gap handling : Appended to previous track

Used output format : User Defined Encoder
Selected bitrate : 1024 kBit/s
Quality : High
Add ID3 tag : No
Command line compressor : C:\Program Files (x86)\Exact Audio Copy\Flac\flac.exe
Additional command line options : -8 -e -V -T "ARTIST=%artist%" -T "TITLE=%title%" -T "ALBUM=%albumtitle%" -T "DATE=%year%" -T "TRACKNUMBER=%tracknr%" -T "GENRE=%genre%" -T "PERFORMER=%albuminterpret%" -T "COMPOSER=%composer%" %haslyrics%–tag-from-file=LYRICS="%lyricsfile%"%haslyrics% -T "ALBUMARTIST=%albumartist%" -T "DISCNUMBER=%cdnumber%" -T "TOTALDISCS=%totalcds%" -T "TOTALTRACKS=%numtracks%" -T "COMMENT=%comment%" %source% -o %dest%


TOC of the extracted CD

Track | Start | Length | Start sector | End sector
––––––––––––––––––––––––––––-
1 | 0:00.00 | 4:19.17 | 0 | 19441
2 | 4:19.17 | 3:32.34 | 19442 | 35375
3 | 7:51.51 | 2:29.19 | 35376 | 46569
4 | 10:20.70 | 7:29.50 | 46570 | 80294
5 | 17:50.45 | 2:01.30 | 80295 | 89399
6 | 19:52.00 | 19:50.46 | 89400 | 178695


Track 1

Filename C:\EAC\Various Artists - 2019 - Vanity Box\CD 3 - Normal Brain - Lady Maid\01 - Normal Brain - M-U-S-I-C.wav

Pre-gap length 0:00:02.00

Peak level 99.9 %
Extraction speed 3.8 X
Track quality 100.0 %
Test CRC D22DE89C
Copy CRC D22DE89C
Track not present in AccurateRip database
Copy OK

Track 2

Filename C:\EAC\Various Artists - 2019 - Vanity Box\CD 3 - Normal Brain - Lady Maid\02 - Normal Brain - FROTTAGE ''ONE WAY''.wav

Pre-gap length 0:00:02.00

Peak level 98.7 %
Extraction speed 3.2 X
Track quality 99.9 %
Test CRC B1EAC58D
Copy CRC B1EAC58D
Track not present in AccurateRip database
Copy OK

Track 3

Filename C:\EAC\Various Artists - 2019 - Vanity Box\CD 3 - Normal Brain - Lady Maid\03 - Normal Brain - YOU ARE BUSY, I AM EASY.wav

Pre-gap length 0:00:02.00

Peak level 96.4 %
Extraction speed 4.0 X
Track quality 100.0 %
Test CRC 82A96F1A
Copy CRC 82A96F1A
Track not present in AccurateRip database
Copy OK

Track 4

Filename C:\EAC\Various Artists - 2019 - Vanity Box\CD 3 - Normal Brain - Lady Maid\04 - Normal Brain - KE-300.wav

Pre-gap length 0:00:02.00

Peak level 100.0 %
Extraction speed 4.9 X
Track quality 100.0 %
Test CRC 7FBA7793
Copy CRC 7FBA7793
Track not present in AccurateRip database
Copy OK

Track 5

Filename C:\EAC\Various Artists - 2019 - Vanity Box\CD 3 - Normal Brain - Lady Maid\05 - Normal Brain - FROTTAGE ''SW''.wav

Pre-gap length 0:00:02.00

Peak level 99.9 %
Extraction speed 4.3 X
Track quality 100.0 %
Test CRC DB7FF714
Copy CRC DB7FF714
Track not present in AccurateRip database
Copy OK

Track 6

Filename C:\EAC\Various Artists - 2019 - Vanity Box\CD 3 - Normal Brain - Lady Maid\06 - Normal Brain - FRAGMENT.wav

Pre-gap length 0:00:02.00

Peak level 99.9 %
Extraction speed 6.0 X
Track quality 100.0 %
Test CRC C62CE48F
Copy CRC C62CE48F
Track not present in AccurateRip database
Copy OK


None of the tracks are present in the AccurateRip database

No errors occurred

End of status report

–– CUETools DB Plugin V2.1.6

[CTDB TOCID: Y0oMn6_lCfa6mI1sg7bSOxFuXiY-] found
Submit result: Y0oMn6_lCfa6mI1sg7bSOxFuXiY- has been confirmed
Track | CTDB Status
1 | (2/2) Accurately ripped
2 | (2/2) Accurately ripped
3 | (2/2) Accurately ripped
4 | (2/2) Accurately ripped
5 | (2/2) Accurately ripped
6 | (2/2) Accurately ripped


==== Log checksum C24A76DB0F3FDDE5A756084486DD3D0E9A575B316D1164671D9538BDA2830797 ====

============================================================


All 11 files included…