Tags
Language
Tags

Valerie June - The Order of Time (2017)

Posted By: Pisulik
Valerie June - The Order of Time (2017)

Valerie June - The Order of Time (2017)
EAC Rip | FLAC (Tracks) +cue, log - 253 MB | 00:43:28
Folk, Blues, Alt-Country | Label: Concord Records | Release Year: 2017

Valerie June's eagerly awaited second album, The Order of Time, set for release in January 2017, justifies the immense promise she exhibited on her acclaimed debut, Pushin' Against A Stone. Unfolding like a novella, June sketches detailed, three-dimensional portraits of real people struggling with dreams, defeat, hope and life, in this 12-track song cycle. Musically, the genre-defying singer, songwriter and multi-instrumentalist has redefined herself again, infusing inspirations like Tom Waits, Nina Simone, Leonard Cohen and Fela Kuti into her unique blend of folk, blues, gospel and soul. As in life, a harrowing bite of bitterness can surely be felt in many of these songs and on others; June's ethereal soundscapes prove the perfect setting for her honeyed, childlike voice as she pleas for simplicity and a better world.

TRACKLIST

01. Long Lonely Road
02. Love You Once Made
03. Shakedown
04. If And
05. Man Done Wrong
06. The Front Door
07. Astral Plane
08. Just In Time
09. With You
10. Slip Slide On By
11. Two Hearts
12. Got Soul

Exact Audio Copy V1.0 beta 4 from 7. December 2014

EAC extraction logfile from 13. March 2017, 19:58

Valerie June / The Order of Time

Used drive : PIONEER DVD-RW DVR-116D Adapter: 1 ID: 0

Read mode : Secure
Utilize accurate stream : Yes
Defeat audio cache : Yes
Make use of C2 pointers : No

Read offset correction : 96
Overread into Lead-In and Lead-Out : No
Fill up missing offset samples with silence : Yes
Delete leading and trailing silent blocks : No
Null samples used in CRC calculations : Yes
Used interface : Native Win32 interface for Win NT & 2000
Gap handling : Appended to previous track

Used output format : User Defined Encoder
Selected bitrate : 1024 kBit/s
Quality : High
Add ID3 tag : No
Command line compressor : C:\Program Files (x86)\Exact Audio Copy\Flac\flac.exe
Additional command line options : -8 -V -T "ARTIST=%artist%" -T "TITLE=%title%" -T "ALBUM=%albumtitle%" -T "DATE=%year%" -T "TRACKNUMBER=%tracknr%" -T "GENRE=%genre%" -T "PERFORMER=%albuminterpret%" -T "COMPOSER=%composer%" %haslyrics%–tag-from-file=LYRICS="%lyricsfile%"%haslyrics% -T "ALBUMARTIST=%albumartist%" -T "DISCNUMBER=%cdnumber%" -T "TOTALDISCS=%totalcds%" -T "TOTALTRACKS=%numtracks%" -T "COMMENT=%comment%" %source% -o %dest%


TOC of the extracted CD

Track | Start | Length | Start sector | End sector
––––––––––––––––––––––––––––-
1 | 0:00.00 | 3:56.35 | 0 | 17734
2 | 3:56.35 | 3:37.02 | 17735 | 34011
3 | 7:33.37 | 2:46.33 | 34012 | 46494
4 | 10:19.70 | 3:30.39 | 46495 | 62283
5 | 13:50.34 | 3:06.58 | 62284 | 76291
6 | 16:57.17 | 4:14.65 | 76292 | 95406
7 | 21:12.07 | 3:38.48 | 95407 | 111804
8 | 24:50.55 | 3:50.48 | 111805 | 129102
9 | 28:41.28 | 2:42.71 | 129103 | 141323
10 | 31:24.24 | 4:04.11 | 141324 | 159634
11 | 35:28.35 | 3:53.30 | 159635 | 177139
12 | 39:21.65 | 4:12.40 | 177140 | 196079


Track 1

Filename C:\new flac rips\Valerie June - 2017 - The Order of Time\01 Long Lonely Road.wav

Pre-gap length 0:00:02.00

Peak level 99.4 %
Extraction speed 4.5 X
Track quality 100.0 %
Test CRC 3FD07FC6
Copy CRC 3FD07FC6
Track not present in AccurateRip database
Copy OK

Track 2

Filename C:\new flac rips\Valerie June - 2017 - The Order of Time\02 Love You Once Mad.wav

Peak level 99.0 %
Extraction speed 4.9 X
Track quality 100.0 %
Test CRC C55E30A9
Copy CRC C55E30A9
Track not present in AccurateRip database
Copy OK

Track 3

Filename C:\new flac rips\Valerie June - 2017 - The Order of Time\03 Shakedown.wav

Peak level 98.9 %
Extraction speed 4.9 X
Track quality 100.0 %
Test CRC 4323AF79
Copy CRC 4323AF79
Track not present in AccurateRip database
Copy OK

Track 4

Filename C:\new flac rips\Valerie June - 2017 - The Order of Time\04 If And.wav

Peak level 98.4 %
Extraction speed 5.4 X
Track quality 100.0 %
Test CRC B9CB7CB6
Copy CRC B9CB7CB6
Track not present in AccurateRip database
Copy OK

Track 5

Filename C:\new flac rips\Valerie June - 2017 - The Order of Time\05 Man Done Wrong.wav

Peak level 99.0 %
Extraction speed 5.5 X
Track quality 100.0 %
Test CRC 4F1AADA7
Copy CRC 4F1AADA7
Track not present in AccurateRip database
Copy OK

Track 6

Filename C:\new flac rips\Valerie June - 2017 - The Order of Time\06 The Front Door.wav

Peak level 99.0 %
Extraction speed 6.0 X
Track quality 100.0 %
Test CRC 70C4614B
Copy CRC 70C4614B
Track not present in AccurateRip database
Copy OK

Track 7

Filename C:\new flac rips\Valerie June - 2017 - The Order of Time\07 Astral Plane.wav

Peak level 98.1 %
Extraction speed 6.2 X
Track quality 100.0 %
Test CRC 02198B07
Copy CRC 02198B07
Track not present in AccurateRip database
Copy OK

Track 8

Filename C:\new flac rips\Valerie June - 2017 - The Order of Time\08 Just In Time.wav

Peak level 97.8 %
Extraction speed 6.5 X
Track quality 100.0 %
Test CRC 92A734BD
Copy CRC 92A734BD
Track not present in AccurateRip database
Copy OK

Track 9

Filename C:\new flac rips\Valerie June - 2017 - The Order of Time\09 With You.wav

Peak level 97.8 %
Extraction speed 6.3 X
Track quality 100.0 %
Test CRC 981EA10E
Copy CRC 981EA10E
Track not present in AccurateRip database
Copy OK

Track 10

Filename C:\new flac rips\Valerie June - 2017 - The Order of Time\10 Slip Slide On By.wav

Peak level 98.6 %
Extraction speed 5.2 X
Track quality 100.0 %
Test CRC 5B08B1D7
Copy CRC 5B08B1D7
Track not present in AccurateRip database
Copy OK

Track 11

Filename C:\new flac rips\Valerie June - 2017 - The Order of Time\11 Two Hearts.wav

Peak level 98.0 %
Extraction speed 6.1 X
Track quality 99.9 %
Test CRC 39DED37F
Copy CRC 39DED37F
Track not present in AccurateRip database
Copy OK

Track 12

Filename C:\new flac rips\Valerie June - 2017 - The Order of Time\12 Got Soul.wav

Peak level 99.0 %
Extraction speed 7.2 X
Track quality 100.0 %
Test CRC B51EDCE0
Copy CRC B51EDCE0
Track not present in AccurateRip database
Copy OK


None of the tracks are present in the AccurateRip database

No errors occurred

End of status report

–– CUETools DB Plugin V2.1.4

[CTDB TOCID: maygSPEfWjTkHsanpWRcwwaCIOQ-] found
Submit result: already submitted
Track | CTDB Status
1 | (5/5) Accurately ripped
2 | (5/5) Accurately ripped
3 | (5/5) Accurately ripped
4 | (5/5) Accurately ripped
5 | (5/5) Accurately ripped
6 | (5/5) Accurately ripped
7 | (5/5) Accurately ripped
8 | (5/5) Accurately ripped
9 | (5/5) Accurately ripped
10 | (5/5) Accurately ripped
11 | (5/5) Accurately ripped
12 | (5/5) Accurately ripped


==== Log checksum 22E94A4B8FFF209879B74AE23146E0862046CF542CC5E180DB4AEF77223B416E ====


All thanks go to the original releaser