Tags
Language
Tags

Valery Gergiev, Vienna Philharmonic Orchestra - Berlioz: Benvenuto Cellini (2011) [Blu-Ray]

Posted By: Vilboa
Valery Gergiev, Vienna Philharmonic Orchestra - Berlioz: Benvenuto Cellini (2011) [Blu-Ray]

Valery Gergiev, Vienna Philharmonic Orchestra - Berlioz: Benvenuto Cellini (2011) [Blu-Ray]
BluRay | BDMV | MPEG-4 AVC Video / 24967 kbps / 1080i / 29,970 fps | 163 min | 35,2 Gb
Audio1: Français / LPCM Audio / 2.0 / 16-bit | Audio2: DTS-HD Master Audio / 5.1 / 48 kHz / 2141 kbps / 16-bit

BluRay-rip | AVC | MKV 1920x1080 / 6215 kbps / 29,970 fps | 163 min | 8,83 Gb
Audio: Français / DTS / 6ch / 48.0 KHz / 16 bits
Classical | Naxos | Sub.: English, French, German,Spanish

‘A mix of futurism à la Metropolis, fantasy à la Batman and quotes from Piranesi’s Carceri, juxtaposed in the form of photo montages, enhanced with…robots, a helicopter, a shark and the winged vehicle of a pop star Pope’, was how the Neue Zürcher Zeitung described this astonishing Salzburg Festival production of Berlioz’s Benvenuto Cellini. The high-calibre cast, headed by Burkhard Fritz as the temperamental Renaissance artist and the 26-year-old Latvian soprano Maija Kovalevska as Teresa, the woman with whom he tries to elope, is conducted by Valery Gergiev who ‘pulled out all the stops. He whips the Vienna Philharmonic into a delirium similar to that which possibly took hold of the composer’. (Der Standard) This is French grand opera at its fast-paced and spectacularly-staged best.

Cast:
Benvenuto Cellini – Burkhard Fritz
Teresa – Maija Kovalevska
Fieramosca – Laurent Naouri
Giacomo Balducci – Brindley Sherratt
Pope Clemens VII – Mikhail Petrenko
Ascanio – Kate Aldrich
Francesco – Xavier Mas
Bernardino – Roberto Tagliavini
Pompeo – Adam Plachetka
Innkeeper – Sung-Keun Park
Vienna State Opera Chorus
Vienna Philharmonic Orchestra
Conductor - Valery Gergiev


Disc Title: BENVENUTO CELLINI
Disc Size: 37 893 200 870 bytes
Protection: AACS
BD-Java: Yes
Playlist: 00001.MPLS
Size: 37 527 926 784 bytes
Length: 2:43:42.045
Total Bitrate: 30,57 Mbps
Video: MPEG-2 Video / 24967 kbps / 1080i / 29,970 fps / 16:9
Audio: Undetermined / LPCM Audio / 2.0 / 48 kHz / 1536 kbps / 16-bit
Audio: Undetermined / DTS-HD Master Audio / 5.1 / 48 kHz / 2141 kbps / 16-bit (DTS Core: 5.1 / 48 kHz / 1509 kbps / 16-bit)
Subtitle: English / 20,308 kbps
Subtitle: French / 22,218 kbps
Subtitle: German / 22,213 kbps
Subtitle: Spanish / 23,057 kbps


General
Unique ID : 212598470564986528462192974515581932269 (0x9FF0F9DF041661579900B5BAA66ED2ED)
Complete name : C:\Benvenuto_Cellini.mkv
Format : Matroska
Format version : Version 2
File size : 8.84 GiB
Duration : 2h 43mn
Overall bit rate : 7 730 Kbps
Movie name : Benvenuto_Cellini
Encoded date : UTC 2018-10-04 08:25:17
Writing application : DVDFab 9.1.6.8
Writing library : libebml v0.7.8 + libmatroska v0.8.1

Video
ID : 1
Format : AVC
Format/Info : Advanced Video Codec
Format profile : High@L4.1
Format settings, CABAC : Yes
Format settings, ReFrames : 2 frames
Codec ID : V_MPEG4/ISO/AVC
Duration : 2h 43mn
Bit rate : 6 215 Kbps
Width : 1 920 pixels
Height : 1 080 pixels
Display aspect ratio : 16:9
Frame rate mode : Constant
Frame rate : 29.970 fps
Color space : YUV
Chroma subsampling : 4:2:0
Bit depth : 8 bits
Scan type : Progressive
Bits/(Pixel*Frame) : 0.100
Stream size : 6.94 GiB (78%)
Writing library : x264 core 142
Encoding settings : cabac=1 / ref=1 / deblock=1:-1:-1 / analyse=0x3:0 / me=hex / subme=5 / psy=0 / mixed_ref=0 / me_range=16 / chroma_me=1 / trellis=0 / 8x8dct=1 / cqm=0 / deadzone=21,11 / fast_pskip=1 / chroma_qp_offset=0 / threads=8 / lookahead_threads=2 / sliced_threads=0 / nr=0 / decimate=1 / interlaced=0 / bluray_compat=0 / constrained_intra=0 / bframes=2 / b_pyramid=0 / b_adapt=1 / b_bias=0 / direct=1 / weightb=1 / open_gop=0 / weightp=0 / keyint=24 / keyint_min=13 / scenecut=40 / intra_refresh=0 / rc=abr / mbtree=0 / bitrate=6215 / ratetol=1.0 / qcomp=0.60 / qpmin=0 / qpmax=69 / qpstep=4 / ip_ratio=1.40 / pb_ratio=1.30 / aq=1:1.00
Default : Yes
Forced : No
Color primaries : BT.709
Transfer characteristics : BT.709
Matrix coefficients : BT.709
Color range : Limited

Audio
ID : 2
Format : DTS
Format/Info : Digital Theater Systems
Mode : 16
Format settings, Endianness : Big
Codec ID : A_DTS
Duration : 2h 43mn
Bit rate mode : Constant
Bit rate : 1 509 Kbps
Channel(s) : 6 channels
Channel positions : Front: L C R, Side: L R, LFE
Sampling rate : 48.0 KHz
Bit depth : 16 bits
Compression mode : Lossy
Stream size : 1.73 GiB (20%)
Default : Yes
Forced : No

Text #1
ID : 3
Format : VobSub
Codec ID : S_VOBSUB
Codec ID/Info : The same subtitle format used on DVDs
Language : English
Default : Yes
Forced : No

Text #2
ID : 4
Format : VobSub
Codec ID : S_VOBSUB
Codec ID/Info : The same subtitle format used on DVDs
Language : French
Default : No
Forced : No

Text #3
ID : 5
Format : VobSub
Codec ID : S_VOBSUB
Codec ID/Info : The same subtitle format used on DVDs
Language : German
Default : No
Forced : No

Text #4
ID : 6
Format : VobSub
Codec ID : S_VOBSUB
Codec ID/Info : The same subtitle format used on DVDs
Language : Spanish
Default : No
Forced : No

Menu
00:00:00.000 : en:Chapter 01
00:01:38.998 : en:Chapter 02
00:10:58.557 : en:Chapter 03
00:12:42.161 : en:Chapter 04
00:17:19.838 : en:Chapter 05
00:27:03.755 : en:Chapter 06
00:33:25.670 : en:Chapter 07
00:39:08.779 : en:Chapter 08
00:42:23.507 : en:Chapter 09
00:44:29.700 : en:Chapter 10
00:50:00.630 : en:Chapter 11
00:53:32.475 : en:Chapter 12
00:59:50.653 : en:Chapter 13
01:02:26.843 : en:Chapter 14
01:06:00.623 : en:Chapter 15
01:13:08.617 : en:Chapter 16
01:15:14.142 : en:Chapter 17
01:20:28.156 : en:Chapter 18
01:23:39.447 : en:Chapter 19
01:27:52.567 : en:Chapter 20
01:35:07.768 : en:Chapter 21
01:42:34.815 : en:Chapter 22
01:44:09.243 : en:Chapter 23
01:50:50.710 : en:Chapter 24
01:55:46.205 : en:Chapter 25
02:01:24.210 : en:Chapter 26
02:09:29.294 : en:Chapter 27
02:11:56.541 : en:Chapter 28
02:17:03.081 : en:Chapter 29
02:20:06.798 : en:Chapter 30
02:25:24.382 : en:Chapter 31
02:27:21.265 : en:Chapter 32
02:33:47.651 : en:Chapter 33
02:37:04.948 : en:Chapter 34

All screenshots taken from BDRip

Valery Gergiev, Vienna Philharmonic Orchestra - Berlioz: Benvenuto Cellini (2011) [Blu-Ray]