Subcategories

Various Artists - Euro Jazz 2004 (2004) [Jazz & Tzaz No. 134]

Posted By: Designol
Various Artists - Euro Jazz 2004 (2004) [Jazz & Tzaz No. 134]

VA - Euro Jazz 2004 (2004) [Jazz & Tzaz No. 134]
EAC | FLAC | Tracks (Cue&Log) ~ 473 Mb | Mp3 (CBR320) ~ 206 Mb
Label: Jazz & Τζαζ | # 0040-2 | Time: 01:11:32 | Scans included
Post-Bop, Contemporary Jazz, Free Jazz, Latin Jazz

This is the third consecutive "Euro-Jazz" CD compilation produced by Jazz & Tzaz Magazine (Greece), featuring a large proportion of the groups and musicians that will participate in this year’s concerts of the 4th European Jazz Festival in Athens. Creative music and musicians from all over Europe give an integral scope of a special kind and variety, and a special feeling of contemporary jazz in Europe. This year’s festival is enriched by the participation of the new European Union members from Central and Eastern Europe. Jazz & Τζαζ Magazine would like to thank all European Embassies and Cultural Institutes (plus the Municipality of Athens) for their kind and helpful collaboration in making this CD, as well as all the musicians and record labels involved. Athens, May 2004

Various Artists - Euro Jazz 2004 (2004) [Jazz & Tzaz No. 134]



Tracklist:

01. Dasa Libiakova - Corcovado (06:46)
02. Mode Plagal - A Night In Karpenisia (06:13)
03. Klarisa M. Jovanovic & Trio Bahur - Σαράντα Μέρες (Forty Days) (05:48)
04. Marco Castelli Quartet - Un Giorno Doppo L'Altro (03:51)
05. Marian Petrescu Trio Featuring Antti Heermann - Calypso (05:46)
06. Drum Freaks - Lana (Live) (08:04)
07. Karlheinz Miklin Trio - Straight Or Not (04:57)
08. Latvian Blues Band - Sittin' On Top Of The World (Demo) (07:38)
09. Lithuanian Jazz Trio - Night And Day (07:39)
10. Off Course - Expectation (05:19)
11. Weekend Guitar Trio - 005 In Africa (04:29)
12. Perico Sambeat Quartet - Defuss (04:57)


Exact Audio Copy V1.0 beta 4 from 7. December 2014

EAC extraction logfile from 4. October 2016, 20:16

Various Artists / Euro Jazz 2004 (Jazz & Tzaz 134)

Used drive : TSSTcorpCDDVDW SH-224DB Adapter: 1 ID: 0

Read mode : Secure
Utilize accurate stream : Yes
Defeat audio cache : Yes
Make use of C2 pointers : No

Read offset correction : 6
Overread into Lead-In and Lead-Out : No
Fill up missing offset samples with silence : Yes
Delete leading and trailing silent blocks : No
Null samples used in CRC calculations : Yes
Used interface : Native Win32 interface for Win NT & 2000
Gap handling : Appended to previous track

Used output format : User Defined Encoder
Selected bitrate : 896 kBit/s
Quality : High
Add ID3 tag : No
Command line compressor : C:\Program Files\Exact Audio Copy\Flac\flac.exe
Additional command line options : -6 -V -T "ARTIST=%artist%" -T "TITLE=%title%" -T "ALBUM=%albumtitle%" -T "DATE=%year%" -T "TRACKNUMBER=%tracknr%" -T "GENRE=%genre%" -T "COMMENT=%comment%" %source% -o %dest%


TOC of the extracted CD

Track | Start | Length | Start sector | End sector
––––––––––––––––––––––––––––-
1 | 0:00.00 | 6:46.40 | 0 | 30489
2 | 6:46.40 | 6:13.52 | 30490 | 58516
3 | 13:00.17 | 5:48.15 | 58517 | 84631
4 | 18:48.32 | 3:51.23 | 84632 | 101979
5 | 22:39.55 | 5:46.30 | 101980 | 127959
6 | 28:26.10 | 8:04.27 | 127960 | 164286
7 | 36:30.37 | 4:57.10 | 164287 | 186571
8 | 41:27.47 | 7:38.20 | 186572 | 220941
9 | 49:05.67 | 7:39.53 | 220942 | 255419
10 | 56:45.45 | 5:19.10 | 255420 | 279354
11 | 62:04.55 | 4:29.47 | 279355 | 299576
12 | 66:34.27 | 4:57.25 | 299577 | 321876


Track 1

Filename C:\New Folder\01 - Dasa Libiakova - Corcovado.wav

Pre-gap length 0:00:02.00

Peak level 98.8 %
Extraction speed 4.8 X
Track quality 100.0 %
Test CRC B422461B
Copy CRC B422461B
Accurately ripped (confidence 1) [FFAA4580] (AR v1)
Copy OK

Track 2

Filename C:\New Folder\02 - Mode Plagal - A Night In Karpenisia.wav

Pre-gap length 0:00:01.43

Peak level 99.9 %
Extraction speed 5.4 X
Track quality 100.0 %
Test CRC 88D8A770
Copy CRC 88D8A770
Accurately ripped (confidence 1) [2205525E] (AR v1)
Copy OK

Track 3

Filename C:\New Folder\03 - Klarisa M. Jovanovic & Trio Bahur - Forty Days.wav

Pre-gap length 0:00:01.42

Peak level 96.5 %
Extraction speed 5.9 X
Track quality 100.0 %
Test CRC 2047B530
Copy CRC 2047B530
Accurately ripped (confidence 1) [BED2CAE2] (AR v1)
Copy OK

Track 4

Filename C:\New Folder\04 - Marco Castelli Quartet - Un Giorno Doppo L'Altro.wav

Pre-gap length 0:00:01.42

Peak level 99.9 %
Extraction speed 6.0 X
Track quality 100.0 %
Test CRC EF556985
Copy CRC EF556985
Accurately ripped (confidence 1) [5311BFB4] (AR v1)
Copy OK

Track 5

Filename C:\New Folder\05 - Marian Petrescu Trio Featuring Antti Heermann - Calypso.wav

Pre-gap length 0:00:01.43

Peak level 98.4 %
Extraction speed 6.7 X
Track quality 100.0 %
Test CRC 86ED299A
Copy CRC 86ED299A
Accurately ripped (confidence 1) [7DDD9FC7] (AR v1)
Copy OK

Track 6

Filename C:\New Folder\06 - Drum Freaks - Lana (Live).wav

Pre-gap length 0:00:01.43

Peak level 70.7 %
Extraction speed 6.5 X
Track quality 99.9 %
Test CRC 3CF87BC7
Copy CRC 3CF87BC7
Accurately ripped (confidence 1) [6EEAB5EB] (AR v1)
Copy OK

Track 7

Filename C:\New Folder\07 - Karlheinz Miklin Trio - Straight Or Not.wav

Pre-gap length 0:00:01.42

Peak level 99.9 %
Extraction speed 6.0 X
Track quality 99.9 %
Test CRC DFA18014
Copy CRC DFA18014
Accurately ripped (confidence 1) [F6B5C678] (AR v1)
Copy OK

Track 8

Filename C:\New Folder\08 - Latvian Blues Band - Sittin' On Top Of The World (Demo).wav

Pre-gap length 0:00:01.42

Peak level 79.4 %
Extraction speed 8.1 X
Track quality 100.0 %
Test CRC E802BC4A
Copy CRC E802BC4A
Accurately ripped (confidence 1) [144A1742] (AR v1)
Copy OK

Track 9

Filename C:\New Folder\09 - Lithuanian Jazz Trio - Night And Day.wav

Pre-gap length 0:00:01.42

Peak level 100.0 %
Extraction speed 8.3 X
Track quality 100.0 %
Test CRC 47237358
Copy CRC 47237358
Accurately ripped (confidence 1) [4821A098] (AR v1)
Copy OK

Track 10

Filename C:\New Folder\10 - Off Course - Expectation.wav

Pre-gap length 0:00:01.43

Peak level 98.8 %
Extraction speed 8.5 X
Track quality 100.0 %
Test CRC BAF38392
Copy CRC BAF38392
Accurately ripped (confidence 1) [AF5CEC72] (AR v1)
Copy OK

Track 11

Filename C:\New Folder\11 - Weekend Guitar Trio - 005 In Africa.wav

Pre-gap length 0:00:01.43

Peak level 97.3 %
Extraction speed 8.6 X
Track quality 100.0 %
Test CRC 722BFB42
Copy CRC 722BFB42
Accurately ripped (confidence 1) [D88AFFAE] (AR v1)
Copy OK

Track 12

Filename C:\New Folder\12 - Perico Sambeat Quartet - Defuss.wav

Pre-gap length 0:00:01.42

Peak level 96.5 %
Extraction speed 8.9 X
Track quality 100.0 %
Test CRC 2361174C
Copy CRC 2361174C
Accurately ripped (confidence 1) [566E944F] (AR v1)
Copy OK


All tracks accurately ripped

No errors occurred

End of status report

–– CUETools DB Plugin V2.1.4

[CTDB TOCID: u8uJn16DmByVYiB8YBIStoVURsQ-] found
Submit result: already submitted
Track | CTDB Status
1 | (1/1) Accurately ripped
2 | (1/1) Accurately ripped
3 | (1/1) Accurately ripped
4 | (1/1) Accurately ripped
5 | (1/1) Accurately ripped
6 | (1/1) Accurately ripped
7 | (1/1) Accurately ripped
8 | (1/1) Accurately ripped
9 | (1/1) Accurately ripped
10 | (1/1) Accurately ripped
11 | (1/1) Accurately ripped
12 | (1/1) Accurately ripped


==== Log checksum A8C4BB3308A38DC8A2A1A85C959762250B35F5D24B56F4C237FE768C1812D7CF ====

foobar2000 1.2 / Dynamic Range Meter 1.1.1
log date: 2016-12-12 16:04:09

––––––––––––––––––––––––––––––––––––––––
Analyzed: Dasa Libiakova / Euro Jazz 2004 (Jazz & Tzaz 134) (1)
Drum Freaks / Euro Jazz 2004 (Jazz & Tzaz 134) (2)
Karlheinz Miklin Trio / Euro Jazz 2004 (Jazz & Tzaz 134) (3)
Klarisa M. Jovanovic & Trio Bahur / Euro Jazz 2004 (Jazz & Tzaz 134) (4)
Latvian Blues Band / Euro Jazz 2004 (Jazz & Tzaz 134) (5)
Lithuanian Jazz Trio / Euro Jazz 2004 (Jazz & Tzaz 134) (6)
Marco Castelli Quartet / Euro Jazz 2004 (Jazz & Tzaz 134) (7)
Marian Petrescu Trio Featuring Antti Heermann / Euro Jazz 2004 (Jazz & Tzaz 134) (8)
Mode Plagal / Euro Jazz 2004 (Jazz & Tzaz 134) (9)
Off Course / Euro Jazz 2004 (Jazz & Tzaz 134) (10)
Perico Sambeat Quartet / Euro Jazz 2004 (Jazz & Tzaz 134) (11)
Weekend Guitar Trio / Euro Jazz 2004 (Jazz & Tzaz 134) (12)
––––––––––––––––––––––––––––––––––––––––

DR Peak RMS Duration Track
––––––––––––––––––––––––––––––––––––––––
DR9 -0.10 dB -12.31 dB 6:47 01-Corcovado
DR6 -3.00 dB -10.74 dB 8:04 06-Lana (Live)
DR16 0.00 dB -20.06 dB 4:57 07-Straight Or Not
DR10 -0.30 dB -12.96 dB 5:48 03-Forty Days
DR8 -2.00 dB -13.02 dB 7:38 08-Sittin' On Top Of The World (Demo)
DR13 0.00 dB -15.85 dB 7:40 09-Night And Day
DR10 0.00 dB -13.26 dB 3:51 04-Un Giorno Doppo L'Altro
DR14 -0.13 dB -16.34 dB 5:46 05-Calypso
DR8 -0.01 dB -9.71 dB 6:14 02-A Night In Karpenisia
DR9 -0.10 dB -11.19 dB 5:19 10-Expectation
DR10 -0.30 dB -11.89 dB 4:57 12-Defuss
DR10 -0.24 dB -11.56 dB 4:30 11-005 In Africa
––––––––––––––––––––––––––––––––––––––––

Number of tracks: 12
Official DR value: DR10

Samplerate: 44100 Hz
Channels: 2
Bits per sample: 16
Bitrate: 661 kbps
Codec: FLAC
================================================================================

Various Artists - Euro Jazz 2004 (2004) [Jazz & Tzaz No. 134]

All thanks to original releaser - alekow

More interesting music in My Blog