Tags
Language
Tags

Various Artists - Grease (The Original Motion Picture Soundtrack) (1978) [2010, Deluxe Edition, Japanese 2 SHM-CDs]

Posted By: BlondStyle
Various Artists - Grease (The Original Motion Picture Soundtrack) (1978) [2010, Deluxe Edition, Japanese 2 SHM-CDs]

VA - Grease (The Original Motion Picture Soundtrack) (1978) [2010, Deluxe Edition, Japanese 2 SHM-CDs]
Pop/Rock, Stage & Screen | XLD Rip | FLAC, Tracks+CUE+LOG+Scans (PNG) | 01:42:52 | 2,13 Gb
Label: Polydor/Universal Music LLC (Japan) | Cat.# UICY-94719/20 | Released: 2010-10-13 (1978-04-14)
Various Artists - Grease (The Original Motion Picture Soundtrack) (1978) [2010, Deluxe Edition, Japanese 2 SHM-CDs]

"Grease" is the original motion picture soundtrack for the 1978 film Grease originally released by RSO Records. The song "You're the One That I Want" was a US and UK #1 for stars John Travolta and Olivia Newton-John. To date, it has sold over 30 million copies worldwide, becoming one of the best-selling soundtrack albums of all time. The soundtrack was released in April 14, 1978, two months ahead of the film's release. The cover gives credit to, and prominently features, the two stars of the film - John Travolta and Olivia Newton-John - although they only appear on seven of the 24 tracks. The remainder of the album is sung by various cast members and Sha Na Na, a group who performed many of the 1950s numbers in the film. The title track was recorded by Frankie Valli, who had no other connection with the film. The most successful songs from the soundtrack were written specifically for the film. They included the Billboard number-one hits "Grease", "You're the One That I Want" and the number-three, Academy Award-nominated "Hopelessly Devoted to You". In the UK, the album proved even more successful where "You're the One That I Want" and "Summer Nights" reached #1 for nine and seven weeks respectively, while "Grease", "Hopelessly Devoted to You" and "Sandy" all became top three hits. The soundtrack album hit the top of the charts in the U.S. during the summer of 1978, replacing The Rolling Stones' Some Girls. In the UK, it remained at the top of the charts for 13 consecutive weeks. As of 2011, "You're the One That I Want" and "Summer Nights" are still among the 20 best-selling singles of all time in the UK (at #6 and #19 respectively). Two of the bass players who recorded on the Grease soundtrack were (at different times) members of Toto. One of these, David Hungate, also performed on Olivia Newton-John's album Totally Hot with Toto guitarist Steve Lukather. Other musicians here have previously worked with Elton John, Steely Dan, Bee Gees and others. The album has sold over 6 million copies in the US in the SoundScan era (beginning 1991) in addition to the 8 million shipped in the years 1978-1984.
~Wikipedia

Various Artists - Grease (The Original Motion Picture Soundtrack) (1978) [2010, Deluxe Edition, Japanese 2 SHM-CDs]

Grease was a huge success as a Broadway musical prior to hitting the big screen in 1978. That was the version that transformed Grease into a phenomenon - it was a runaway box office success, and then became a TV, cable, and video favorite. The soundtrack rivaled its film counterpart as a pop culture perennial, and it's not hard to see why - its good-natured pastiche of doo wop and early rock & roll is infectious and charming, due in no small part to John Travolta and Olivia Newton-John's charismatic, engaging performances. They sing the majority of the originals - "Summer Nights," "Hopelessly Devoted to You," "You're the One That I Want," "Sandy," "Greased Lightnin'" - which were the reason why the film and soundtrack became blockbusters. The fact that the originals hold up better than the '50s tunes is largely due to Sha Na Na's workmanlike performances, but the originals are so giddily enjoyable - not only the quintet mentioned above, but also Frankie Avalon's "Beauty School Dropout," Stockard Channing's "Look at Me, I'm Sandra Dee," and Frankie Valli's title track - that everything works. Some listeners may prefer the Broadway cast recording, but the fact of the matter is, the sleek pop production the movie's soundtrack boasts and the cast's enthusiastic performances go a long way in making this Grease the definitive Grease.
~Review by Stephen Thomas Erlewine

Various Artists - Grease (The Original Motion Picture Soundtrack) (1978) [2010, Deluxe Edition, Japanese 2 SHM-CDs]

Various Artists - Grease (The Original Motion Picture Soundtrack) (1978) [2010, Deluxe Edition, Japanese 2 SHM-CDs]

Various Artists - Grease (The Original Motion Picture Soundtrack) (1978) [2010, Deluxe Edition, Japanese 2 SHM-CDs]




Release of this album: 1978, April, 14 [LP RSO, Cat.# RS-2-4002, USA]
Release of this CD-Set: 2010, October, 13 [CDs Universal Music (Japan), Cat.# UICY-94719/20 / EAN: 4988005632821]
This Compilation ℗&© 2003 Universal International Music B.V.
The copyright in this sound recording and artwork is owned by Polydor Ltd (UK). A Universal Music Company.
Universal International, A UNIVERSAL MUSIC COMPANY.
Marketed & Distributed by UNIVERSAL MUSIC LLC.
Made in Japan


Notes: Cardboard sleeve (mini LP) reissue featuring the high-fidelity SHM-CD format (compatible with standard CD players) and 2010 DSD remastering, a cardboard sleeve replicas of the original UK LP artwork. Includes a 28-page booklet for UK CD, and Japanese OBI.

Various Artists - Grease (The Original Motion Picture Soundtrack) (1978) [2010, Deluxe Edition, Japanese 2 SHM-CDs]

Credits:

Musicians:

Drums: Olle Brown, Carlos Vega, Cubby O'Brien, Ron Ziegler
Bass: Mike Porcaro, David Hungate, Max Bennett, David Allen Ryan, Wm. J. Bodine, Dean Cortez, Harold Cowart
Guitar: John Farrar, Tim May ("Born to Hand Jive"), Jay Graydon, Lee Ritenour, Dan Sawyer, Bob Rose, Dennis Budimir, Thomas Tedesco, Cliff Morris, Joey Murcia, Peter Frampton ("Grease")
Keyboards: Louis St. Louis, Greg Mathieson, Mike Land, Lincoln Majorca, Thomas Garvin, Ben Lanzarone, George Bitzer
Saxophone: Ray Pizzi ("We Go Together" & "Greased Lightnin'"), Ernie Watts ("There Are Worse Things I Could Do" and "Alone At A Drive-In Movie"), Jerome Richardson, John Kelson, Jr.
Trumpet: Albert Aarons, Robert Bryant
Trombone: Lloyd Ulyate
Percussion: Eddie "Bongo" Brown, Larry Bunker, Victor Feldman, Antoine Dearborn
Harp: Dorothy Remsen, Gayle Levant
Concertmaster: James Getzoff
Contractor: Carl Fortina
Copyist: Bob Borenstein

Production:

All selections except "Grease" arranged by: John Farrar, Michael Gibson, Louis St. Louis
Strings on "Summer Nights" arranged by Ben Lanzarone
Horns and Strings on "Greased Lightnin'" and "Born to Hand Jive" arranged by Michael Melvoin
Karl Richardson – engineer ("Grease")
Recorded at: Filmways/Wally Heider Recording Studios, Hollywood
United Western Studios, Hollywood
Hollywood Sound Recorders, Hollywood
Engineered by: David J. Holman, Jay Lewis, EirBilly Joel Wangberg, Michael Carneval, Karl Richardson ("Grease")
All selections mixed and re-mixed by David J. Holman at Filmways/Wally Heider Recording Studios, Hollywood [Except "Grease"]
Produced by: Louis St. Louis and John Farrar; Barry Gibb, Albhy Galuten and Karl Richardson ("Grease")
Album mastered at A&M Records by Bernie Grundman
Art direction: Glenn Ross
Album design: Tim Bryant/George Corsillo
Photography: Alan Pappe/Lee Gross Assoc., Inc.
Background photos: Ron Slenzak


Various Artists - Grease (The Original Motion Picture Soundtrack) (1978) [2010, Deluxe Edition, Japanese 2 SHM-CDs]

Tracklist:

Disc 1: Grease Remastered

01. Grease – 3:25
(Written by Barry Gibb)
Performed by Frankie Valli
(Produced by Barry Gibb, Albhy Galuten and Karl Richardson)
02. Summer Nights – 3:36
(Written by Jim Jacobs & Warren Casey)
Performed by John Travolta/Olivia Newton-John & Cast
03. Hopelessly Devoted to You – 3:06
(Written and Produced by John Farrar)
Performed by Olivia Newton-John
04. You’re The One That I Want – 2:50
(Written and Produced by John Farrar)
Performed by John Travolta/Olivia Newton-John
05. Sandy – 2:33
(Written by Louis St. Louis and Scott Simon)
Performed by John Travolta
Produced by John Farrar
06. Beauty School Dropout – 4:01
(Written by Jim Jacobs & Warren Casey)
Performed by Frankie Avalon
07. Look At Me, I’m Sandra Dee – 1:41
(Written by Jim Jacobs & Warren Casey)
Performed by Stockard Channing
08. Greased Lightnin' - 3:14
(Written by Jim Jacobs & Warren Casey)
Performed by John Travolta & Jeff Conaway
09. It’s Raining on Prom Night – 2:52
(Written by Jim Jacobs & Warren Casey)
Performed by Cindy Bullens
10. Alone at a Drive-In Movie (instrumental) – 2:26
(Written by Jim Jacobs & Warren Casey)
Produced by John Farrar
11. Blue Moon – 2:21
(Written by Richard Rodgers and Lorenz Hart)
Performed by Sha Na Na
12. Rock n' Roll is Here to Stay – 2:04
(Written by Dave White)
Performed by Sha Na Na
13. Those Magic Changes – 2:19
(Written by Jim Jacobs & Warren Casey)
Performed by Sha Na Na
14. Hound Dog – 1:25
(Written by Jerry Leiber and Mike Stoller)
Performed by Sha Na Na
15. Born To Hand Jive – 4:37
(Written by Jim Jacobs & Warren Casey)
Performed by Sha Na Na
16. Tears on My Pillow – 2:04
(Written by Sylvester Bradford and Al Lewis)
Performed by Sha Na Na
17. Mooning – 2:16
(Written by Jim Jacobs & Warren Casey)
Performed by Louis St. Louis and Cindy Bullens
18. Freddy, My Love – 2:48
(Written by Jim Jacobs & Warren Casey)
Performed by Cindy Bullens
19. Rock n' Roll Party Queen – 2:12
(Written by Jim Jacobs & Warren Casey)
Performed by Louis St. Louis
20. There are Worse Things I Could Do – 2:23
(Written by Jim Jacobs & Warren Casey)
Performed by Stockard Channing
21. Look At Me, I’m Sandra Dee (Reprise) – 1:30
(Written by Jim Jacobs & Warren Casey)
Performed by Olivia Newton-John
Produced by John Farrar
22. We Go Together – 3:00
(Written by Jim Jacobs & Warren Casey)
Performed by John Travolta/Olivia Newton-John & Cast
23. Love Is a Many-Splendored Thing (Instrumental) – 1:23
(Written by Sammy Fain and Paul Francis Webster)
24. Grease (Reprise) – 3:25
(Written by Barry Gibb)
Performed by Frankie Valli
(Produced by Barry Gibb, Albhy Galuten and Karl Richardson)

Disc 2: Grease Bonus Disc

01. Grease (Instrumental Version) – 3:25
Performed by Gary Brown (Saxophone)
02. Summer Nights (Sing-A-Long Version) – 3:37
(Instrumental)
03. Hopelessly Devoted To You (Sing-A-Long Version) – 3:04
(Instrumental)
04. You’re The One That I Want (Sing-A-Long Version) – 2:34
(Instrumental)
05. Sandy (Sing-A-Long Version) – 2:32
(Instrumental)
06. Greased Lightnin' (Single Version) – 3:22
Performed by John Travolta
07. Rydell Fight Song (Previously Unreleased Instrumental) – 0:20
08. Greased Up And Ready To Go (Previously Unreleased Instrumental) - 4:50
09. Grease MegaMix – 4:49:
a) You’re The One That I Want
b) Greased Lightnin'
c) Summer Nights
Performed by John Travolta & Olivia Newton-John
10. Grease Dream Mix – 3:47:
a) Grease
b) Sandy
c) Hopelessly Devoted To You
Performed by Frankie Valli, John Travolta & Olivia Newton-John
11. Summer Nights (Martian Remix) – 3:38
Performed by Olivia Newton-John
12. You're The One That I Want (Martian Remix) – 3:25
Performed by John Travolta & Olivia Newton-John

X Lossless Decoder version 20101010 (123.3)

XLD extraction logfile from 2010-10-26 18:42:55 +0600

Различные исполнители / Grease 30th Anniversary Deluxe Edition [cd1]

Used drive : HL-DT-ST DVDRW GS23N (revision SB07)

Use cdparanoia mode : YES (CDParanoia III 10.2 engine)
Disable audio cache : OK for the drive with cache less than 2750KB
Make use of C2 pointers : NO
Read offset correction : 667
Max retry count : 100
Gap status : Analyzed, Appended

TOC of the extracted CD
Track | Start | Length | Start sector | End sector
––––––––––––––––––––––––––––-
1 | 00:00:00 | 03:25:32 | 0 | 15406
2 | 03:25:32 | 03:36:25 | 15407 | 31631
3 | 07:01:57 | 03:05:56 | 31632 | 45562
4 | 10:07:38 | 02:49:67 | 45563 | 58304
5 | 12:57:30 | 02:32:58 | 58305 | 69762
6 | 15:30:13 | 04:01:00 | 69763 | 87837
7 | 19:31:13 | 01:40:60 | 87838 | 95397
8 | 21:11:73 | 03:14:13 | 95398 | 109960
9 | 24:26:11 | 02:52:30 | 109961 | 122890
10 | 27:18:41 | 02:25:45 | 122891 | 133810
11 | 29:44:11 | 02:21:00 | 133811 | 144385
12 | 32:05:11 | 02:03:50 | 144386 | 153660
13 | 34:08:61 | 02:19:00 | 153661 | 164085
14 | 36:27:61 | 01:25:05 | 164086 | 170465
15 | 37:52:66 | 04:37:33 | 170466 | 191273
16 | 42:30:24 | 02:03:50 | 191274 | 200548
17 | 44:33:74 | 02:15:60 | 200549 | 210733
18 | 46:49:59 | 02:48:02 | 210734 | 223335
19 | 49:37:61 | 02:12:04 | 223336 | 233239
20 | 51:49:65 | 02:22:71 | 233240 | 243960
21 | 54:12:61 | 01:29:63 | 243961 | 250698
22 | 55:42:49 | 02:59:46 | 250699 | 264169
23 | 58:42:20 | 01:23:09 | 264170 | 270403
24 | 60:05:29 | 03:24:46 | 270404 | 285749

List of alternate offset correction values
# | Absolute | Relative | Confidence
–––––––––––––––––––––
1 | 725 | 58 | 16

All Tracks
Album gain : -7.41 dB
Peak : 1.000000

Track 01
Filename : /Users/gubarenko/Desktop/Compilations - Grease 30th Anniversary Deluxe Edition [cd1]/01 - Grease.flac
Pre-gap length : 00:02:00

Track gain : -6.40 dB
Peak : 0.930786
CRC32 hash (test run) : F8BCAAA8
CRC32 hash : F8BCAAA8
CRC32 hash (skip zero) : 008C0697
AccurateRip signature : C108344F
->Accurately ripped! (confidence 12)
Statistics
Read error : 0
Skipped (treated as error) : 0
Edge jitter error (maybe fixed) : 0
Atom jitter error (maybe fixed) : 0
Drift error (maybe fixed) : 0
Dropped bytes error (maybe fixed) : 0
Duplicated bytes error (maybe fixed) : 0
Inconsistency in error sectors : 0

Track 02
Filename : /Users/gubarenko/Desktop/Compilations - Grease 30th Anniversary Deluxe Edition [cd1]/02 - Summer Nights.flac
Pre-gap length : 00:01:06

Track gain : -9.51 dB
Peak : 0.935638
CRC32 hash (test run) : 4AB3D016
CRC32 hash : 4AB3D016
CRC32 hash (skip zero) : 2424CB3C
AccurateRip signature : CD15497B
->Accurately ripped! (confidence 13)
Statistics
Read error : 0
Skipped (treated as error) : 0
Edge jitter error (maybe fixed) : 0
Atom jitter error (maybe fixed) : 0
Drift error (maybe fixed) : 0
Dropped bytes error (maybe fixed) : 0
Duplicated bytes error (maybe fixed) : 0
Inconsistency in error sectors : 0

Track 03
Filename : /Users/gubarenko/Desktop/Compilations - Grease 30th Anniversary Deluxe Edition [cd1]/03 - Hopelessly Devoted to You.flac
Pre-gap length : 00:01:31

Track gain : -6.26 dB
Peak : 0.999939
CRC32 hash (test run) : 8BB70942
CRC32 hash : 8BB70942
CRC32 hash (skip zero) : F916E403
AccurateRip signature : 6771BA9D
->Accurately ripped! (confidence 13)
Statistics
Read error : 0
Skipped (treated as error) : 0
Edge jitter error (maybe fixed) : 0
Atom jitter error (maybe fixed) : 0
Drift error (maybe fixed) : 0
Dropped bytes error (maybe fixed) : 0
Duplicated bytes error (maybe fixed) : 0
Inconsistency in error sectors : 0

Track 04
Filename : /Users/gubarenko/Desktop/Compilations - Grease 30th Anniversary Deluxe Edition [cd1]/04 - You're the One that I Want.flac
Pre-gap length : 00:01:38

Track gain : -7.12 dB
Peak : 0.991364
CRC32 hash (test run) : 623750A9
CRC32 hash : 623750A9
CRC32 hash (skip zero) : 97EBE8BF
AccurateRip signature : C8160A1A
->Accurately ripped! (confidence 13)
Statistics
Read error : 0
Skipped (treated as error) : 0
Edge jitter error (maybe fixed) : 0
Atom jitter error (maybe fixed) : 0
Drift error (maybe fixed) : 0
Dropped bytes error (maybe fixed) : 0
Duplicated bytes error (maybe fixed) : 0
Inconsistency in error sectors : 0

Track 05
Filename : /Users/gubarenko/Desktop/Compilations - Grease 30th Anniversary Deluxe Edition [cd1]/05 - Sandy.flac
Pre-gap length : 00:01:32

Track gain : -7.89 dB
Peak : 0.995453
CRC32 hash (test run) : 7F887456
CRC32 hash : 7F887456
CRC32 hash (skip zero) : 9E8154A5
AccurateRip signature : 08997BA3
->Accurately ripped! (confidence 13)
Statistics
Read error : 0
Skipped (treated as error) : 0
Edge jitter error (maybe fixed) : 0
Atom jitter error (maybe fixed) : 0
Drift error (maybe fixed) : 0
Dropped bytes error (maybe fixed) : 0
Duplicated bytes error (maybe fixed) : 0
Inconsistency in error sectors : 0

Track 06
Filename : /Users/gubarenko/Desktop/Compilations - Grease 30th Anniversary Deluxe Edition [cd1]/06 - Beauty School Dropout.flac
Pre-gap length : 00:01:40

Track gain : -6.64 dB
Peak : 0.981079
CRC32 hash (test run) : D3FB78D5
CRC32 hash : D3FB78D5
CRC32 hash (skip zero) : D7F9D598
AccurateRip signature : 22AF48BE
->Accurately ripped! (confidence 13)
Statistics
Read error : 0
Skipped (treated as error) : 0
Edge jitter error (maybe fixed) : 0
Atom jitter error (maybe fixed) : 0
Drift error (maybe fixed) : 0
Dropped bytes error (maybe fixed) : 0
Duplicated bytes error (maybe fixed) : 0
Inconsistency in error sectors : 0

Track 07
Filename : /Users/gubarenko/Desktop/Compilations - Grease 30th Anniversary Deluxe Edition [cd1]/07 - Look at Me I'm Sandra Dee.flac
Pre-gap length : 00:01:74

Track gain : -7.93 dB
Peak : 1.000000
CRC32 hash (test run) : 7A4ADE00
CRC32 hash : 7A4ADE00
CRC32 hash (skip zero) : 2AD1DA36
AccurateRip signature : 3D0BAE8C
->Accurately ripped! (confidence 13)
Statistics
Read error : 0
Skipped (treated as error) : 0
Edge jitter error (maybe fixed) : 0
Atom jitter error (maybe fixed) : 0
Drift error (maybe fixed) : 0
Dropped bytes error (maybe fixed) : 0
Duplicated bytes error (maybe fixed) : 0
Inconsistency in error sectors : 0

Track 08
Filename : /Users/gubarenko/Desktop/Compilations - Grease 30th Anniversary Deluxe Edition [cd1]/08 - Greased Lightnin'.flac
Pre-gap length : 00:01:06

Track gain : -6.65 dB
Peak : 0.988464
CRC32 hash (test run) : A1953E04
CRC32 hash : A1953E04
CRC32 hash (skip zero) : 5EFC9C5D
AccurateRip signature : 3A1E0BB5
->Accurately ripped! (confidence 12)
Statistics
Read error : 0
Skipped (treated as error) : 0
Edge jitter error (maybe fixed) : 0
Atom jitter error (maybe fixed) : 0
Drift error (maybe fixed) : 0
Dropped bytes error (maybe fixed) : 0
Duplicated bytes error (maybe fixed) : 0
Inconsistency in error sectors : 0

Track 09
Filename : /Users/gubarenko/Desktop/Compilations - Grease 30th Anniversary Deluxe Edition [cd1]/09 - It's Raining on Prom Night.flac
Pre-gap length : 00:01:08

Track gain : -5.50 dB
Peak : 0.979462
CRC32 hash (test run) : 7FD66934
CRC32 hash : 7FD66934
CRC32 hash (skip zero) : 9EC1CEDB
AccurateRip signature : 8DD68C64
->Accurately ripped! (confidence 11)
Statistics
Read error : 0
Skipped (treated as error) : 0
Edge jitter error (maybe fixed) : 0
Atom jitter error (maybe fixed) : 0
Drift error (maybe fixed) : 0
Dropped bytes error (maybe fixed) : 0
Duplicated bytes error (maybe fixed) : 0
Inconsistency in error sectors : 0

Track 10
Filename : /Users/gubarenko/Desktop/Compilations - Grease 30th Anniversary Deluxe Edition [cd1]/10 - Alone at A Drive in Movie.flac
Pre-gap length : 00:01:04

Track gain : -6.73 dB
Peak : 0.999969
CRC32 hash (test run) : FA549D0F
CRC32 hash : FA549D0F
CRC32 hash (skip zero) : 48871CEE
AccurateRip signature : C020C634
->Accurately ripped! (confidence 13)
Statistics
Read error : 0
Skipped (treated as error) : 0
Edge jitter error (maybe fixed) : 0
Atom jitter error (maybe fixed) : 0
Drift error (maybe fixed) : 0
Dropped bytes error (maybe fixed) : 0
Duplicated bytes error (maybe fixed) : 0
Inconsistency in error sectors : 0

Track 11
Filename : /Users/gubarenko/Desktop/Compilations - Grease 30th Anniversary Deluxe Edition [cd1]/11 - Blue Moon.flac
Pre-gap length : 00:01:35

Track gain : -6.07 dB
Peak : 0.979095
CRC32 hash (test run) : B0D28696
CRC32 hash : B0D28696
CRC32 hash (skip zero) : 86D23B0F
AccurateRip signature : CC1E2985
->Accurately ripped! (confidence 13)
Statistics
Read error : 0
Skipped (treated as error) : 0
Edge jitter error (maybe fixed) : 0
Atom jitter error (maybe fixed) : 0
Drift error (maybe fixed) : 0
Dropped bytes error (maybe fixed) : 0
Duplicated bytes error (maybe fixed) : 0
Inconsistency in error sectors : 0

Track 12
Filename : /Users/gubarenko/Desktop/Compilations - Grease 30th Anniversary Deluxe Edition [cd1]/12 - Rock N' Roll is Here to Stay.flac
Pre-gap length : 00:01:12

Track gain : -5.70 dB
Peak : 0.991699
CRC32 hash (test run) : 7A7CE6FA
CRC32 hash : 7A7CE6FA
CRC32 hash (skip zero) : BF860102
AccurateRip signature : 7A3DD94B
->Accurately ripped! (confidence 13)
Statistics
Read error : 0
Skipped (treated as error) : 0
Edge jitter error (maybe fixed) : 0
Atom jitter error (maybe fixed) : 0
Drift error (maybe fixed) : 0
Dropped bytes error (maybe fixed) : 0
Duplicated bytes error (maybe fixed) : 0
Inconsistency in error sectors : 0

Track 13
Filename : /Users/gubarenko/Desktop/Compilations - Grease 30th Anniversary Deluxe Edition [cd1]/13 - Those Magic Changes.flac
Pre-gap length : 00:01:04

Track gain : -6.93 dB
Peak : 0.965485
CRC32 hash (test run) : 493EB213
CRC32 hash : 493EB213
CRC32 hash (skip zero) : 722BCD66
AccurateRip signature : 0D349C88
->Accurately ripped! (confidence 13)
Statistics
Read error : 0
Skipped (treated as error) : 0
Edge jitter error (maybe fixed) : 0
Atom jitter error (maybe fixed) : 0
Drift error (maybe fixed) : 0
Dropped bytes error (maybe fixed) : 0
Duplicated bytes error (maybe fixed) : 0
Inconsistency in error sectors : 0

Track 14
Filename : /Users/gubarenko/Desktop/Compilations - Grease 30th Anniversary Deluxe Edition [cd1]/14 - Hound Dog.flac
Pre-gap length : 00:01:09

Track gain : -7.90 dB
Peak : 0.899750
CRC32 hash (test run) : 7BCD25D2
CRC32 hash : 7BCD25D2
CRC32 hash (skip zero) : AEDDF1C3
AccurateRip signature : DC835859
->Accurately ripped! (confidence 13)
Statistics
Read error : 0
Skipped (treated as error) : 0
Edge jitter error (maybe fixed) : 0
Atom jitter error (maybe fixed) : 0
Drift error (maybe fixed) : 0
Dropped bytes error (maybe fixed) : 0
Duplicated bytes error (maybe fixed) : 0
Inconsistency in error sectors : 0

Track 15
Filename : /Users/gubarenko/Desktop/Compilations - Grease 30th Anniversary Deluxe Edition [cd1]/15 - Born to Hand Jive.flac
Pre-gap length : 00:01:15

Track gain : -7.20 dB
Peak : 0.939423
CRC32 hash (test run) : 9FF85C91
CRC32 hash : 9FF85C91
CRC32 hash (skip zero) : 7104F37A
AccurateRip signature : 83557389
->Accurately ripped! (confidence 13)
Statistics
Read error : 0
Skipped (treated as error) : 0
Edge jitter error (maybe fixed) : 0
Atom jitter error (maybe fixed) : 0
Drift error (maybe fixed) : 0
Dropped bytes error (maybe fixed) : 0
Duplicated bytes error (maybe fixed) : 0
Inconsistency in error sectors : 0

Track 16
Filename : /Users/gubarenko/Desktop/Compilations - Grease 30th Anniversary Deluxe Edition [cd1]/16 - Tears on My Pillow.flac

Track gain : -8.05 dB
Peak : 0.999939
CRC32 hash (test run) : 430C68D1
CRC32 hash : 430C68D1
CRC32 hash (skip zero) : 750E8C39
AccurateRip signature : 97C371F7
->Accurately ripped! (confidence 13)
Statistics
Read error : 0
Skipped (treated as error) : 0
Edge jitter error (maybe fixed) : 0
Atom jitter error (maybe fixed) : 0
Drift error (maybe fixed) : 0
Dropped bytes error (maybe fixed) : 0
Duplicated bytes error (maybe fixed) : 0
Inconsistency in error sectors : 0

Track 17
Filename : /Users/gubarenko/Desktop/Compilations - Grease 30th Anniversary Deluxe Edition [cd1]/17 - Mooning.flac
Pre-gap length : 00:01:22

Track gain : -7.80 dB
Peak : 0.973480
CRC32 hash (test run) : B9B9F872
CRC32 hash : B9B9F872
CRC32 hash (skip zero) : 2049195E
AccurateRip signature : 01FA6196
->Accurately ripped! (confidence 13)
Statistics
Read error : 0
Skipped (treated as error) : 0
Edge jitter error (maybe fixed) : 0
Atom jitter error (maybe fixed) : 0
Drift error (maybe fixed) : 0
Dropped bytes error (maybe fixed) : 0
Duplicated bytes error (maybe fixed) : 0
Inconsistency in error sectors : 0

Track 18
Filename : /Users/gubarenko/Desktop/Compilations - Grease 30th Anniversary Deluxe Edition [cd1]/18 - Freddy My Love.flac
Pre-gap length : 00:01:20

Track gain : -7.71 dB
Peak : 0.999939
CRC32 hash (test run) : 4081ECE6
CRC32 hash : 4081ECE6
CRC32 hash (skip zero) : F00F01B5
AccurateRip signature : CC70CD77
->Accurately ripped! (confidence 13)
Statistics
Read error : 0
Skipped (treated as error) : 0
Edge jitter error (maybe fixed) : 0
Atom jitter error (maybe fixed) : 0
Drift error (maybe fixed) : 0
Dropped bytes error (maybe fixed) : 0
Duplicated bytes error (maybe fixed) : 0
Inconsistency in error sectors : 0

Track 19
Filename : /Users/gubarenko/Desktop/Compilations - Grease 30th Anniversary Deluxe Edition [cd1]/19 - Rock N' Roll Party Queen.flac
Pre-gap length : 00:01:03

Track gain : -8.04 dB
Peak : 0.956970
CRC32 hash (test run) : 2C94C8E3
CRC32 hash : 2C94C8E3
CRC32 hash (skip zero) : 8631DDF1
AccurateRip signature : 85C81B8E
->Accurately ripped! (confidence 13)
Statistics
Read error : 0
Skipped (treated as error) : 0
Edge jitter error (maybe fixed) : 0
Atom jitter error (maybe fixed) : 0
Drift error (maybe fixed) : 0
Dropped bytes error (maybe fixed) : 0
Duplicated bytes error (maybe fixed) : 0
Inconsistency in error sectors : 0

Track 20
Filename : /Users/gubarenko/Desktop/Compilations - Grease 30th Anniversary Deluxe Edition [cd1]/20 - There Are Worse Things I Could Do.flac
Pre-gap length : 00:01:01

Track gain : -7.64 dB
Peak : 0.960907
CRC32 hash (test run) : 23E6A097
CRC32 hash : 23E6A097
CRC32 hash (skip zero) : 45146D5C
AccurateRip signature : 1B287485
->Accurately ripped! (confidence 13)
Statistics
Read error : 0
Skipped (treated as error) : 0
Edge jitter error (maybe fixed) : 0
Atom jitter error (maybe fixed) : 0
Drift error (maybe fixed) : 0
Dropped bytes error (maybe fixed) : 0
Duplicated bytes error (maybe fixed) : 0
Inconsistency in error sectors : 0

Track 21
Filename : /Users/gubarenko/Desktop/Compilations - Grease 30th Anniversary Deluxe Edition [cd1]/21 - Look at Me I'm Sandra Dee.flac
Pre-gap length : 00:01:00

Track gain : -5.49 dB
Peak : 0.863068
CRC32 hash (test run) : 08CB7F2D
CRC32 hash : 08CB7F2D
CRC32 hash (skip zero) : 0390DBD5
AccurateRip signature : D36F6777
->Accurately ripped! (confidence 13)
Statistics
Read error : 0
Skipped (treated as error) : 0
Edge jitter error (maybe fixed) : 0
Atom jitter error (maybe fixed) : 0
Drift error (maybe fixed) : 0
Dropped bytes error (maybe fixed) : 0
Duplicated bytes error (maybe fixed) : 0
Inconsistency in error sectors : 0

Track 22
Filename : /Users/gubarenko/Desktop/Compilations - Grease 30th Anniversary Deluxe Edition [cd1]/22 - We Go Together.flac
Pre-gap length : 00:01:35

Track gain : -8.30 dB
Peak : 0.975250
CRC32 hash (test run) : 95405B30
CRC32 hash : 95405B30
CRC32 hash (skip zero) : 37E87511
AccurateRip signature : E26E0531
->Accurately ripped! (confidence 13)
Statistics
Read error : 0
Skipped (treated as error) : 0
Edge jitter error (maybe fixed) : 0
Atom jitter error (maybe fixed) : 0
Drift error (maybe fixed) : 0
Dropped bytes error (maybe fixed) : 0
Duplicated bytes error (maybe fixed) : 0
Inconsistency in error sectors : 0

Track 23
Filename : /Users/gubarenko/Desktop/Compilations - Grease 30th Anniversary Deluxe Edition [cd1]/23 - Love is A Many Splendored Thing.flac

Track gain : -8.08 dB
Peak : 0.930878
CRC32 hash (test run) : BCA3BD43
CRC32 hash : BCA3BD43
CRC32 hash (skip zero) : FEB8140B
AccurateRip signature : 8FB78B1A
->Accurately ripped! (confidence 13)
Statistics
Read error : 0
Skipped (treated as error) : 0
Edge jitter error (maybe fixed) : 0
Atom jitter error (maybe fixed) : 0
Drift error (maybe fixed) : 0
Dropped bytes error (maybe fixed) : 0
Duplicated bytes error (maybe fixed) : 0
Inconsistency in error sectors : 0

Track 24
Filename : /Users/gubarenko/Desktop/Compilations - Grease 30th Anniversary Deluxe Edition [cd1]/24 - Grease (Reprise).flac

Track gain : -5.98 dB
Peak : 0.980194
CRC32 hash (test run) : 4F0E0328
CRC32 hash : 4F0E0328
CRC32 hash (skip zero) : 62BE740E
AccurateRip signature : EAB1D8EF
->Accurately ripped! (confidence 12)
Statistics
Read error : 0
Skipped (treated as error) : 0
Edge jitter error (maybe fixed) : 0
Atom jitter error (maybe fixed) : 0
Drift error (maybe fixed) : 0
Dropped bytes error (maybe fixed) : 0
Duplicated bytes error (maybe fixed) : 0
Inconsistency in error sectors : 0

No errors occurred

End of status report

X Lossless Decoder version 20101010 (123.3)

XLD extraction logfile from 2010-10-26 19:32:55 +0600

Различные исполнители / Grease 30th Anniversary Deluxe Edition [cd2]

Used drive : HL-DT-ST DVDRW GS23N (revision SB07)

Use cdparanoia mode : YES (CDParanoia III 10.2 engine)
Disable audio cache : OK for the drive with cache less than 2750KB
Make use of C2 pointers : NO
Read offset correction : 667
Max retry count : 100
Gap status : Analyzed, Appended

TOC of the extracted CD
Track | Start | Length | Start sector | End sector
––––––––––––––––––––––––––––-
1 | 00:00:00 | 03:24:53 | 0 | 15352
2 | 03:24:53 | 03:36:61 | 15353 | 31613
3 | 07:01:39 | 03:04:26 | 31614 | 45439
4 | 10:05:65 | 02:34:00 | 45440 | 56989
5 | 12:39:65 | 02:31:60 | 56990 | 68374
6 | 15:11:50 | 03:21:50 | 68375 | 83499
7 | 18:33:25 | 00:19:41 | 83500 | 84965
8 | 18:52:66 | 04:50:13 | 84966 | 106728
9 | 23:43:04 | 04:49:22 | 106729 | 128425
10 | 28:32:26 | 03:47:00 | 128426 | 145450
11 | 32:19:26 | 03:38:00 | 145451 | 161800
12 | 35:57:26 | 03:24:73 | 161801 | 177173

List of alternate offset correction values
# | Absolute | Relative | Confidence
–––––––––––––––––––––
1 | 725 | 58 | 14

All Tracks
Album gain : -7.88 dB
Peak : 1.000000

Track 01
Filename : /Users/gubarenko/Desktop/Compilations - Grease 30th Anniversary Deluxe Edition [cd2]/01 - Grease (Instrumental Version).flac
Pre-gap length : 00:02:00

Track gain : -8.08 dB
Peak : 0.993958
CRC32 hash (test run) : 973E16FB
CRC32 hash : 973E16FB
CRC32 hash (skip zero) : 673CC064
AccurateRip signature : C82F60C1
->Accurately ripped! (confidence 10)
Statistics
Read error : 0
Skipped (treated as error) : 0
Edge jitter error (maybe fixed) : 0
Atom jitter error (maybe fixed) : 0
Drift error (maybe fixed) : 0
Dropped bytes error (maybe fixed) : 0
Duplicated bytes error (maybe fixed) : 0
Inconsistency in error sectors : 0

Track 02
Filename : /Users/gubarenko/Desktop/Compilations - Grease 30th Anniversary Deluxe Edition [cd2]/02 - Summer Nights (Sing A Long Version).flac
Pre-gap length : 00:01:27

Track gain : -9.40 dB
Peak : 0.847900
CRC32 hash (test run) : FB875FC4
CRC32 hash : FB875FC4
CRC32 hash (skip zero) : 7C18D0DA
AccurateRip signature : 3A4479D3
->Accurately ripped! (confidence 10)
Statistics
Read error : 0
Skipped (treated as error) : 0
Edge jitter error (maybe fixed) : 0
Atom jitter error (maybe fixed) : 0
Drift error (maybe fixed) : 0
Dropped bytes error (maybe fixed) : 0
Duplicated bytes error (maybe fixed) : 0
Inconsistency in error sectors : 0

Track 03
Filename : /Users/gubarenko/Desktop/Compilations - Grease 30th Anniversary Deluxe Edition [cd2]/03 - Hopelessly Devoted to You (Sing A Long Version).flac
Pre-gap length : 00:02:25

Track gain : -6.38 dB
Peak : 0.950378
CRC32 hash (test run) : 71D6AA5E
CRC32 hash : 71D6AA5E
CRC32 hash (skip zero) : 75FC6995
AccurateRip signature : AE04C065
->Accurately ripped! (confidence 10)
Statistics
Read error : 0
Skipped (treated as error) : 0
Edge jitter error (maybe fixed) : 0
Atom jitter error (maybe fixed) : 0
Drift error (maybe fixed) : 0
Dropped bytes error (maybe fixed) : 0
Duplicated bytes error (maybe fixed) : 0
Inconsistency in error sectors : 0

Track 04
Filename : /Users/gubarenko/Desktop/Compilations - Grease 30th Anniversary Deluxe Edition [cd2]/04 - You're the One that I Want (Sing A Long Version).flac
Pre-gap length : 00:01:34

Track gain : -8.36 dB
Peak : 0.847931
CRC32 hash (test run) : 5C177ADB
CRC32 hash : 5C177ADB
CRC32 hash (skip zero) : 99A2BD3E
AccurateRip signature : 8B5792BE
->Accurately ripped! (confidence 10)
Statistics
Read error : 0
Skipped (treated as error) : 0
Edge jitter error (maybe fixed) : 0
Atom jitter error (maybe fixed) : 0
Drift error (maybe fixed) : 0
Dropped bytes error (maybe fixed) : 0
Duplicated bytes error (maybe fixed) : 0
Inconsistency in error sectors : 0

Track 05
Filename : /Users/gubarenko/Desktop/Compilations - Grease 30th Anniversary Deluxe Edition [cd2]/05 - Sandy (Sing A Long Version).flac
Pre-gap length : 00:01:34

Track gain : -5.97 dB
Peak : 0.998566
CRC32 hash (test run) : 592C3EA5
CRC32 hash : 592C3EA5
CRC32 hash (skip zero) : E20E035B
AccurateRip signature : 8C928711
->Accurately ripped! (confidence 10)
Statistics
Read error : 0
Skipped (treated as error) : 0
Edge jitter error (maybe fixed) : 0
Atom jitter error (maybe fixed) : 0
Drift error (maybe fixed) : 0
Dropped bytes error (maybe fixed) : 0
Duplicated bytes error (maybe fixed) : 0
Inconsistency in error sectors : 0

Track 06
Filename : /Users/gubarenko/Desktop/Compilations - Grease 30th Anniversary Deluxe Edition [cd2]/06 - Greased Lightnin'(Single Version).flac
Pre-gap length : 00:01:32

Track gain : -9.13 dB
Peak : 0.960876
CRC32 hash (test run) : E0AABB2C
CRC32 hash : E0AABB2C
CRC32 hash (skip zero) : 19F5E907
AccurateRip signature : 7264E392
->Accurately ripped! (confidence 11)
Statistics
Read error : 0
Skipped (treated as error) : 0
Edge jitter error (maybe fixed) : 0
Atom jitter error (maybe fixed) : 0
Drift error (maybe fixed) : 0
Dropped bytes error (maybe fixed) : 0
Duplicated bytes error (maybe fixed) : 0
Inconsistency in error sectors : 0

Track 07
Filename : /Users/gubarenko/Desktop/Compilations - Grease 30th Anniversary Deluxe Edition [cd2]/07 - Rydell Fight Song (Previously Unreleased Instrumental).flac
Pre-gap length : 00:01:28

Track gain : -8.52 dB
Peak : 0.925842
CRC32 hash (test run) : 47CA8122
CRC32 hash : 47CA8122
CRC32 hash (skip zero) : 64A87AF7
AccurateRip signature : D164E7FC
->Accurately ripped! (confidence 10)
Statistics
Read error : 0
Skipped (treated as error) : 0
Edge jitter error (maybe fixed) : 0
Atom jitter error (maybe fixed) : 0
Drift error (maybe fixed) : 0
Dropped bytes error (maybe fixed) : 0
Duplicated bytes error (maybe fixed) : 0
Inconsistency in error sectors : 0

Track 08
Filename : /Users/gubarenko/Desktop/Compilations - Grease 30th Anniversary Deluxe Edition [cd2]/08 - Greased Up and Ready to Go (Previously Unreleased Instrumental).flac
Pre-gap length : 00:01:38

Track gain : -6.65 dB
Peak : 1.000000
CRC32 hash (test run) : 278710B7
CRC32 hash : 278710B7
CRC32 hash (skip zero) : 59E33FC9
AccurateRip signature : F4DA175F
->Accurately ripped! (confidence 10)
Statistics
Read error : 0
Skipped (treated as error) : 0
Edge jitter error (maybe fixed) : 0
Atom jitter error (maybe fixed) : 0
Drift error (maybe fixed) : 0
Dropped bytes error (maybe fixed) : 0
Duplicated bytes error (maybe fixed) : 0
Inconsistency in error sectors : 0

Track 09
Filename : /Users/gubarenko/Desktop/Compilations - Grease 30th Anniversary Deluxe Edition [cd2]/09 - The Grease Mega-Mix.flac
Pre-gap length : 00:01:44

Track gain : -7.72 dB
Peak : 0.907104
CRC32 hash (test run) : 1A332346
CRC32 hash : 1A332346
CRC32 hash (skip zero) : 3400F5FD
AccurateRip signature : 0A8BC90D
->Accurately ripped! (confidence 10)
Statistics
Read error : 0
Skipped (treated as error) : 0
Edge jitter error (maybe fixed) : 0
Atom jitter error (maybe fixed) : 0
Drift error (maybe fixed) : 0
Dropped bytes error (maybe fixed) : 0
Duplicated bytes error (maybe fixed) : 0
Inconsistency in error sectors : 0

Track 10
Filename : /Users/gubarenko/Desktop/Compilations - Grease 30th Anniversary Deluxe Edition [cd2]/10 - Grease Dream Mix.flac
Pre-gap length : 00:01:16

Track gain : -7.05 dB
Peak : 0.850189
CRC32 hash (test run) : 5A6B13CD
CRC32 hash : 5A6B13CD
CRC32 hash (skip zero) : FED3B848
AccurateRip signature : 25763B4A
->Accurately ripped! (confidence 10)
Statistics
Read error : 0
Skipped (treated as error) : 0
Edge jitter error (maybe fixed) : 0
Atom jitter error (maybe fixed) : 0
Drift error (maybe fixed) : 0
Dropped bytes error (maybe fixed) : 0
Duplicated bytes error (maybe fixed) : 0
Inconsistency in error sectors : 0

Track 11
Filename : /Users/gubarenko/Desktop/Compilations - Grease 30th Anniversary Deluxe Edition [cd2]/11 - Summer Nights (Martian Remix).flac
Pre-gap length : 00:01:16

Track gain : -5.91 dB
Peak : 0.910004
CRC32 hash (test run) : 291A6C2B
CRC32 hash : 291A6C2B
CRC32 hash (skip zero) : D300FCA2
AccurateRip signature : 0D6EDB19
->Accurately ripped! (confidence 10)
Statistics
Read error : 0
Skipped (treated as error) : 0
Edge jitter error (maybe fixed) : 0
Atom jitter error (maybe fixed) : 0
Drift error (maybe fixed) : 0
Dropped bytes error (maybe fixed) : 0
Duplicated bytes error (maybe fixed) : 0
Inconsistency in error sectors : 0

Track 12
Filename : /Users/gubarenko/Desktop/Compilations - Grease 30th Anniversary Deluxe Edition [cd2]/12 - You're the One that I Want (Martian Remix).flac
Pre-gap length : 00:01:15

Track gain : -5.93 dB
Peak : 0.907501
CRC32 hash (test run) : 19A0C660
CRC32 hash : 19A0C660
CRC32 hash (skip zero) : D74BEBAE
AccurateRip signature : 4BB43F64
->Accurately ripped! (confidence 10)
Statistics
Read error : 0
Skipped (treated as error) : 0
Edge jitter error (maybe fixed) : 0
Atom jitter error (maybe fixed) : 0
Drift error (maybe fixed) : 0
Dropped bytes error (maybe fixed) : 0
Duplicated bytes error (maybe fixed) : 0
Inconsistency in error sectors : 0

No errors occurred

End of status report

––––––––––––––––––––––––––––––––––––––––
Analyzed: Cindy Bullens / Grease 30th Anniversary Deluxe Edition [cd1] (1-2)
Frankie Avalon / Grease 30th Anniversary Deluxe Edition [cd1] (3)
Frankie Valli / Grease 30th Anniversary Deluxe Edition [cd1] (4-5)
John Travolta & Olivia Newton John / Grease 30th Anniversary Deluxe Edition [cd1] (6-8)
John Travolta / Grease 30th Anniversary Deluxe Edition [cd1] (9-10)
Louis St Louis & Cindy Bullens / Grease 30th Anniversary Deluxe Edition [cd1] (11)
Louis St Louis / Grease 30th Anniversary Deluxe Edition [cd1] (12)
Olivia Newton John / Grease 30th Anniversary Deluxe Edition [cd1] (13-14)
Sha Na Na / Grease 30th Anniversary Deluxe Edition [cd1] (15-20)
Stockard Channing / Grease 30th Anniversary Deluxe Edition [cd1] (21-22)
Unknown Artist / Grease 30th Anniversary Deluxe Edition [cd1] (23-24)
––––––––––––––––––––––––––––––––––––––––

DR Peak RMS Duration Track
––––––––––––––––––––––––––––––––––––––––
DR10 -0.18 dB -14.00 dB 2:52 09-It's Raining on Prom Night
DR9 0.00 dB -11.00 dB 2:48 18-Freddy My Love
DR10 -0.17 dB -13.39 dB 4:01 06-Beauty School Dropout
DR9 -0.62 dB -12.53 dB 3:25 01-Grease
DR10 -0.17 dB -12.94 dB 3:25 24-Grease (Reprise)
DR7 -0.58 dB -11.18 dB 3:36 02-Summer Nights
DR10 -0.08 dB -11.72 dB 2:50 04-You're the One that I Want
DR8 -0.22 dB -10.83 dB 3:00 22-We Go Together
DR9 -0.04 dB -12.29 dB 2:33 05-Sandy
DR10 -0.10 dB -11.96 dB 3:14 08-Greased Lightnin'
DR8 -0.23 dB -10.88 dB 2:16 17-Mooning
DR8 -0.38 dB -9.80 dB 2:12 19-Rock N' Roll Party Queen
DR10 0.00 dB -13.16 dB 3:06 03-Hopelessly Devoted to You
DR10 -1.28 dB -14.82 dB 1:30 21-Look at Me I'm Sandra Dee
DR9 -0.18 dB -11.30 dB 2:21 11-Blue Moon
DR10 -0.07 dB -10.99 dB 2:04 12-Rock N' Roll is Here to Stay
DR8 -0.31 dB -10.77 dB 2:19 13-Those Magic Changes
DR8 -0.92 dB -10.53 dB 1:25 14-Hound Dog
DR8 -0.54 dB -10.81 dB 4:37 15-Born to Hand Jive
DR8 0.00 dB -10.04 dB 2:04 16-Tears on My Pillow
DR9 0.00 dB -11.67 dB 1:41 07-Look at Me I'm Sandra Dee
DR9 -0.35 dB -12.18 dB 2:23 20-There Are Worse Things I Could Do
DR10 0.00 dB -13.12 dB 2:26 10-Alone at A Drive in Movie
DR7 -0.62 dB -11.28 dB 1:23 23-Love is A Many Splendored Thing
––––––––––––––––––––––––––––––––––––––––

Number of tracks: 24
Official DR value: DR9

Samplerate: 44100 Hz
Channels: 2
Bits per sample: 16
Bitrate: 868 kbps
Codec: FLAC
================================================================================

––––––––––––––––––––––––––––––––––––––––
Analyzed: Gary Brown / Grease 30th Anniversary Deluxe Edition [cd2] (1)
John Travolta & Olivia Newton John / Grease 30th Anniversary Deluxe Edition [cd2] (2-4)
John Travolta / Grease 30th Anniversary Deluxe Edition [cd2] (5)
Olivia Newton John / Grease 30th Anniversary Deluxe Edition [cd2] (6)
Unknown Artist / Grease 30th Anniversary Deluxe Edition [cd2] (7-12)
––––––––––––––––––––––––––––––––––––––––

DR Peak RMS Duration Track
––––––––––––––––––––––––––––––––––––––––
DR9 -0.05 dB -12.13 dB 3:25 01-Grease (Instrumental Version)
DR8 -0.85 dB -11.85 dB 4:49 09-The Grease Mega-Mix
DR8 -1.41 dB -12.08 dB 3:47 10-Grease Dream Mix
DR10 -0.84 dB -12.28 dB 3:25 12-You're the One that I Want (Martian Remix)
DR7 -0.35 dB -9.62 dB 3:22 06-Greased Lightnin'(Single Version)
DR9 -0.82 dB -13.08 dB 3:38 11-Summer Nights (Martian Remix)
DR6 -1.43 dB -11.04 dB 3:37 02-Summer Nights (Sing A Long Version)
DR9 -0.44 dB -12.38 dB 3:04 03-Hopelessly Devoted to You (Sing A Long Version)
DR6 -1.43 dB -10.39 dB 2:34 04-You're the One that I Want (Sing A Long Version)
DR10 -0.01 dB -12.69 dB 2:32 05-Sandy (Sing A Long Version)
DR8 -0.67 dB -10.69 dB 0:20 07-Rydell Fight Song (Previously Unreleased Instrumental)
DR9 0.00 dB -10.78 dB 4:50 08-Greased Up and Ready to Go (Previously Unreleased Instrumental)
––––––––––––––––––––––––––––––––––––––––

Number of tracks: 12
Official DR value: DR8

Samplerate: 44100 Hz
Channels: 2
Bits per sample: 16
Bitrate: 882 kbps
Codec: FLAC
================================================================================

Thanks to gubarenko

See also:
VA - Grease (Original Motion P...Digital Download 24bit/192kHz]

♫~Welcome To My Blog~♫

password: BlondStyle