Subcategories

Various Artists - The Real... Cuba (The Ultimate Collection) [3CD] (2017)

Posted By: BlondStyle
Various Artists - The Real... Cuba (The Ultimate Collection) [3CD] (2017)

Various Artists - The Real… Cuba (The Ultimate Collection) [3CD] (2017)
Pop/Rock, Latin, Cuban Traditions | EAC Rip | FLAC, Tracks+CUE+LOG+Scans (JPEG) | 03:15:35 h. | 1,19 Gb
Label: Sony Music Entertainment (EU) | Cat.# 88985474592 | Released: 2017-09-27

54 brilliant tracks across 3 CDs with a focus on 50s, 60s and 70s music and featuring icons such as Perez Prado, Beny Moré and Irakere. Packaged in an attractive fold out card digipack.

Various Artists - The Real... Cuba (The Ultimate Collection) [3CD] (2017)

Various Artists - The Real... Cuba (The Ultimate Collection) [3CD] (2017)


Release of this 3CD-Set: 2017, September, 27 [CDs Sony Music Entertainment (EU), Cat.# 88985474592 / UPC: 889854745929]
This compilation ℗© 2017 Sony Music Entertainment Espana S.L.
Distributed by Sony Music Entertainment
Made in the EU by Sony Music Entertainment International Services, GmbH, Germany


Tracklist:

Disc 1

01. Compay Segundo y Su Grupo: Chan Chan
02. Ruben Gonzalez y Orquesta America del 55: Los Marcianos
03. Ibrahim Ferrer: Un Son para el Guayabero
04. Celina Gonzalez y Conjunto Campo Alegre: Lagrimas Negras
05. Beny More: Bonito y Sabroso
06. Orquesta Aragon: El Bodeguero
07. Desi Arnaz and His Orchestra: Babalu
08. Eliades Ochoa Y El Cuarteto Patria: Adios Compay Gato
09. Trio Los Hidalgos: Ay Mama Ines
10. Trio Kaisse: Aquellos Ojos Verdes
11. Orquesta Riverside: El Amor de Mi Bohio
12. Celina Gonzalez: Yo Soy el Punto Cubano
13. Trio Los Embajadores: Toda una Vida
14. Voces Latinas: Amorosa Guajira
15. Hermanos Rigual: Cuando Calienta el Sol
16. Caridad Cuervo y Conjunto Caney: Yo Soy Carinosa
17. Sindo y Maria Elena con el Conjunto Caney: Quiereme Mucho
18. Chappottin y Sus Estrellas: Yo Si Como Candela

Disc 2

01. Joseito Fernandez: Guajira Guantanamera
02. Pacho Alonso con la Orquesta Egrem: El Manisero
03. Eliades Ochoa Y El Cuarteto Patria: Maria Cristina
04. Omara Portuondo: Nosotros
05. Orquesta Enrique Jorrin: La Guarapachanga
06. Irakere: Dile a Catalina
07. Los Modernistas: Siboney
08. Perez Prado: Mambo No. 5
09. Orquesta America: Me Lo Dijo Adela
10. Paulina Alvarez: Echale Salsita
11. Rita Gil: Tu Me Acostumbraste
12. Duo Los Compadres: Sarandonga
13. Bola de Nieve: Drume Negrita
14. Carlos Embale: El Diablo Tun Tun
15. Tanda de Guaracheros: Bilongo
16. Annia Linares: Contigo en la Distancia
17. Septeto Nacional de Ignacio Pineiro: Suavecito
18. Orquesta Riverside: Holguinera

Disc 3

01. Irakere: Iya
02. Conjunto Rumbavana: La Mujer de Antonio
03. Bebo Valdes: Special del Bebo
04. Emiliano Salvador y Pablo Milanes: Son de la Loma
05. Chucho Valdes y Su Combo: Mi Descarga Pa' Gozar
06. Orquesta Aragon: Mi Son Es un Vacilon
07. Chico O'Farrill y All Stars Cubano: Descarga No.2
08. Machito & His Afro-Cuban Orchestra: Mambo Mucho Mambo
09. Ruben Gonzalez: Date una Vueltecita
10. Orquesta Cubana de Musica Moderna: El Niche (Aja Bibi)
11. Peruchin: La Mulata Rumbera
12. Orquesta Enrique Jorrin: Rico Vacilon
13. Felo Bergaza: Evaconile
14. Frank Emilio Flynn: Indefinidamente
15. Orquesta America: La Enganadora
16. Grupo Cubano de Musica Moderna: Gandinga, Mondongo y Sandunga
17. Grupo de Experimentacion Sonora del ICAIC: Contradanza
18. Arturo Sandoval y Su Grupo: Para Empezar a Vivir

Exact Audio Copy V1.3 from 2. September 2016

EAC extraction logfile from 11. October 2017, 22:23

Various Artists / The Real… Cuba (CD1)

Used drive : TSSTcorpCDDVDW SE-208AB Adapter: 2 ID: 0

Read mode : Secure
Utilize accurate stream : Yes
Defeat audio cache : Yes
Make use of C2 pointers : No

Read offset correction : 6
Overread into Lead-In and Lead-Out : No
Fill up missing offset samples with silence : Yes
Delete leading and trailing silent blocks : No
Null samples used in CRC calculations : Yes
Used interface : Installed external ASPI interface
Gap handling : Appended to previous track

Used output format : User Defined Encoder
Selected bitrate : 768 kBit/s
Quality : High
Add ID3 tag : No
Command line compressor : C:\Program Files (x86)\Exact Audio Copy\Flac\flac.exe
Additional command line options : -8 -V -T "ARTIST=%artist%" -T "TITLE=%title%" -T "ALBUM=%albumtitle%" -T "DATE=%year%" -T "TRACKNUMBER=%tracknr%" -T "GENRE=%genre%" -T "COMMENT=%comment%" -T "BAND=%albuminterpret%" -T "ALBUMARTIST=%albuminterpret%" -T "COMPOSER=%composer%" %haslyrics%–tag-from-file=LYRICS="%lyricsfile%"%haslyrics% -T "DISCNUMBER=%cdnumber%" -T "TOTALDISCS=%totalcds%" -T "TOTALTRACKS=%numtracks%" %hascover%–picture="%coverfile%"%hascover% %source% -o %dest%


TOC of the extracted CD

Track | Start | Length | Start sector | End sector
––––––––––––––––––––––––––––-
1 | 0:00.00 | 4:29.11 | 0 | 20185
2 | 4:29.11 | 2:49.61 | 20186 | 32921
3 | 7:18.72 | 4:34.71 | 32922 | 53542
4 | 11:53.68 | 3:43.12 | 53543 | 70279
5 | 15:37.05 | 2:54.50 | 70280 | 83379
6 | 18:31.55 | 3:08.42 | 83380 | 97521
7 | 21:40.22 | 3:34.28 | 97522 | 113599
8 | 25:14.50 | 5:22.28 | 113600 | 137777
9 | 30:37.03 | 2:55.30 | 137778 | 150932
10 | 33:32.33 | 3:34.22 | 150933 | 167004
11 | 37:06.55 | 3:35.55 | 167005 | 183184
12 | 40:42.35 | 4:01.17 | 183185 | 201276
13 | 44:43.52 | 2:47.44 | 201277 | 213845
14 | 47:31.21 | 3:12.26 | 213846 | 228271
15 | 50:43.47 | 2:24.24 | 228272 | 239095
16 | 53:07.71 | 2:43.08 | 239096 | 251328
17 | 55:51.04 | 3:46.51 | 251329 | 268329
18 | 59:37.55 | 3:12.24 | 268330 | 282753


Track 1

Filename D:\Lietotājs\My Music\Flac\01. Chan Chan.wav

Pre-gap length 0:00:02.00

Peak level 98.9 %
Extraction speed 1.2 X
Track quality 100.0 %
Test CRC C5727438
Copy CRC C5727438
Track not present in AccurateRip database
Copy OK

Track 2

Filename D:\Lietotājs\My Music\Flac\02. Los Marcianos.wav

Pre-gap length 0:00:01.06

Peak level 98.9 %
Extraction speed 1.2 X
Track quality 100.0 %
Test CRC 9953839A
Copy CRC 9953839A
Track not present in AccurateRip database
Copy OK

Track 3

Filename D:\Lietotājs\My Music\Flac\03. Un Son para el Guayabero.wav

Pre-gap length 0:00:00.63

Peak level 98.8 %
Extraction speed 1.4 X
Track quality 100.0 %
Test CRC 09581CEF
Copy CRC 09581CEF
Track not present in AccurateRip database
Copy OK

Track 4

Filename D:\Lietotājs\My Music\Flac\04. Lagrimas Negras.wav

Pre-gap length 0:00:01.08

Peak level 98.9 %
Extraction speed 1.5 X
Track quality 100.0 %
Test CRC BE527C6C
Copy CRC BE527C6C
Track not present in AccurateRip database
Copy OK

Track 5

Filename D:\Lietotājs\My Music\Flac\05. Bonito y Sabroso.wav

Pre-gap length 0:00:01.36

Peak level 100.0 %
Extraction speed 1.5 X
Track quality 100.0 %
Test CRC C5BA0BBA
Copy CRC C5BA0BBA
Track not present in AccurateRip database
Copy OK

Track 6

Filename D:\Lietotājs\My Music\Flac\06. El Bodeguero.wav

Pre-gap length 0:00:01.28

Peak level 100.0 %
Extraction speed 1.3 X
Track quality 99.9 %
Test CRC B9423F48
Copy CRC B9423F48
Track not present in AccurateRip database
Copy OK

Track 7

Filename D:\Lietotājs\My Music\Flac\07. Babalu.wav

Pre-gap length 0:00:01.30

Peak level 83.4 %
Extraction speed 1.7 X
Track quality 100.0 %
Test CRC F4750430
Copy CRC F4750430
Track not present in AccurateRip database
Copy OK

Track 8

Filename D:\Lietotājs\My Music\Flac\08. Adios Compay Gato.wav

Pre-gap length 0:00:01.19

Peak level 81.2 %
Extraction speed 1.7 X
Track quality 99.9 %
Test CRC E11E793C
Copy CRC E11E793C
Track not present in AccurateRip database
Copy OK

Track 9

Filename D:\Lietotājs\My Music\Flac\09. Ay Mama Ines.wav

Pre-gap length 0:00:00.33

Peak level 97.6 %
Extraction speed 1.7 X
Track quality 100.0 %
Test CRC 2BA185E3
Copy CRC 2BA185E3
Track not present in AccurateRip database
Copy OK

Track 10

Filename D:\Lietotājs\My Music\Flac\10. Aquellos Ojos Verdes.wav

Pre-gap length 0:00:01.47

Peak level 79.4 %
Extraction speed 1.9 X
Track quality 100.0 %
Test CRC A24FCAD4
Copy CRC A24FCAD4
Track not present in AccurateRip database
Copy OK

Track 11

Filename D:\Lietotājs\My Music\Flac\11. El Amor de Mi Bohio.wav

Pre-gap length 0:00:01.23

Peak level 89.8 %
Extraction speed 1.9 X
Track quality 100.0 %
Test CRC EA5EED95
Copy CRC EA5EED95
Track not present in AccurateRip database
Copy OK

Track 12

Filename D:\Lietotājs\My Music\Flac\12. Yo Soy el Punto Cubano.wav

Pre-gap length 0:00:01.37

Peak level 98.6 %
Extraction speed 2.0 X
Track quality 100.0 %
Test CRC 1275B08B
Copy CRC 1275B08B
Track not present in AccurateRip database
Copy OK

Track 13

Filename D:\Lietotājs\My Music\Flac\13. Toda una Vida.wav

Pre-gap length 0:00:01.18

Peak level 93.3 %
Extraction speed 2.0 X
Track quality 100.0 %
Test CRC 575A1DF9
Copy CRC 575A1DF9
Track not present in AccurateRip database
Copy OK

Track 14

Filename D:\Lietotājs\My Music\Flac\14. Amorosa Guajira.wav

Pre-gap length 0:00:01.24

Peak level 93.2 %
Extraction speed 2.1 X
Track quality 100.0 %
Test CRC FD77E8CC
Copy CRC FD77E8CC
Track not present in AccurateRip database
Copy OK

Track 15

Filename D:\Lietotājs\My Music\Flac\15. Cuando Calienta el Sol.wav

Pre-gap length 0:00:01.21

Peak level 98.8 %
Extraction speed 2.0 X
Track quality 100.0 %
Test CRC A23DBCCD
Copy CRC A23DBCCD
Track not present in AccurateRip database
Copy OK

Track 16

Filename D:\Lietotājs\My Music\Flac\16. Yo Soy Carinosa.wav

Pre-gap length 0:00:01.70

Peak level 83.1 %
Extraction speed 2.1 X
Track quality 100.0 %
Test CRC EF1D8848
Copy CRC EF1D8848
Track not present in AccurateRip database
Copy OK

Track 17

Filename D:\Lietotājs\My Music\Flac\17. Quiereme Mucho.wav

Pre-gap length 0:00:01.30

Peak level 69.6 %
Extraction speed 2.3 X
Track quality 100.0 %
Test CRC 84EE0B91
Copy CRC 84EE0B91
Track not present in AccurateRip database
Copy OK

Track 18

Filename D:\Lietotājs\My Music\Flac\18. Yo Si Como Candela.wav

Pre-gap length 0:00:01.66

Peak level 81.0 %
Extraction speed 2.2 X
Track quality 100.0 %
Test CRC AB62FD41
Copy CRC AB62FD41
Track not present in AccurateRip database
Copy OK


None of the tracks are present in the AccurateRip database

No errors occurred

End of status report

–– CUETools DB Plugin V2.1.6

[CTDB TOCID: z8NCzTfknTl3yaE6QjMdMiyXqlc-] found
Submit result: z8NCzTfknTl3yaE6QjMdMiyXqlc- has been confirmed
Track | CTDB Status
1 | (1/1) Accurately ripped
2 | (1/1) Accurately ripped
3 | (1/1) Accurately ripped
4 | (1/1) Accurately ripped
5 | (1/1) Accurately ripped
6 | (1/1) Accurately ripped
7 | (1/1) Accurately ripped
8 | (1/1) Accurately ripped
9 | (1/1) Accurately ripped
10 | (1/1) Accurately ripped
11 | (1/1) Accurately ripped
12 | (1/1) Accurately ripped
13 | (1/1) Accurately ripped
14 | (1/1) Accurately ripped
15 | (1/1) Accurately ripped
16 | (1/1) Accurately ripped
17 | (1/1) Accurately ripped
18 | (1/1) Accurately ripped


==== Log checksum 20EA4BA0768A939CF8A090613C2FEE0EF03F2B36AB87077D989DAE502917173D ====

––––––––––––––––––––––––––––––––––––––––
Analyzed: Beny More / The Real… Cuba (CD1) (1)
Caridad Cuervo y Conjunto Caney / The Real… Cuba (CD1) (2)
Celina Gonzalez y Conjunto Campo Alegre / The Real… Cuba (CD1) (3)
Celina Gonzalez / The Real… Cuba (CD1) (4)
Chappottin y Sus Estrellas / The Real… Cuba (CD1) (5)
Compay Segundo y Su Grupo / The Real… Cuba (CD1) (6)
Desi Arnaz and His Orchestra / The Real… Cuba (CD1) (7)
Eliades Ochoa Y El Cuarteto Patria / The Real… Cuba (CD1) (8)
Hermanos Rigual / The Real… Cuba (CD1) (9)
Ibrahim Ferrer / The Real… Cuba (CD1) (10)
Orquesta Aragon / The Real… Cuba (CD1) (11)
Orquesta Riverside / The Real… Cuba (CD1) (12)
Ruben Gonzalez y Orquesta America del 55 / The Real… Cuba (CD1) (13)
Sindo y Maria Elena con el Conjunto Caney / The Real… Cuba (CD1) (14)
Trio Kaisse / The Real… Cuba (CD1) (15)
Trio Los Embajadores / The Real… Cuba (CD1) (16)
Trio Los Hidalgos / The Real… Cuba (CD1) (17)
Voces Latinas / The Real… Cuba (CD1) (18)
––––––––––––––––––––––––––––––––––––––––

DR Peak RMS Duration Track
––––––––––––––––––––––––––––––––––––––––
DR9 0.00 dB -10.05 dB 2:55 05-Bonito y Sabroso
DR7 -1.60 dB -9.96 dB 2:43 16-Yo Soy Carinosa
DR11 -0.09 dB -12.49 dB 3:43 04-Lagrimas Negras
DR10 -0.12 dB -12.70 dB 4:01 12-Yo Soy el Punto Cubano
DR9 -1.82 dB -12.48 dB 3:12 18-Yo Si Como Candela
DR9 -0.09 dB -10.95 dB 4:29 01-Chan Chan
DR7 -1.57 dB -10.03 dB 3:34 07-Babalu
DR9 -1.80 dB -12.99 dB 5:22 08-Adios Compay Gato
DR11 -0.10 dB -12.10 dB 2:24 15-Cuando Calienta el Sol
DR10 -0.10 dB -12.03 dB 4:35 03-Un Son para el Guayabero
DR10 0.00 dB -11.60 dB 3:09 06-El Bodeguero
DR8 -0.93 dB -10.37 dB 3:36 11-El Amor de Mi Bohio
DR8 -0.09 dB -10.41 dB 2:50 02-Los Marcianos
DR7 -3.15 dB -11.58 dB 3:47 17-Quiereme Mucho
DR7 -2.00 dB -11.41 dB 3:34 10-Aquellos Ojos Verdes
DR8 -0.60 dB -10.82 dB 2:48 13-Toda una Vida
DR10 -0.20 dB -11.77 dB 2:55 09-Ay Mama Ines
DR7 -0.61 dB -9.78 dB 3:12 14-Amorosa Guajira
––––––––––––––––––––––––––––––––––––––––

Number of tracks: 18
Official DR value: DR9

Samplerate: 44100 Hz
Channels: 2
Bits per sample: 16
Bitrate: 892 kbps
Codec: FLAC
================================================================================

Exact Audio Copy V1.3 from 2. September 2016

EAC extraction logfile from 12. October 2017, 9:16

Various Artists / The Real… Cuba (CD2)

Used drive : TSSTcorpCDDVDW SE-208AB Adapter: 2 ID: 0

Read mode : Secure
Utilize accurate stream : Yes
Defeat audio cache : Yes
Make use of C2 pointers : No

Read offset correction : 6
Overread into Lead-In and Lead-Out : No
Fill up missing offset samples with silence : Yes
Delete leading and trailing silent blocks : No
Null samples used in CRC calculations : Yes
Used interface : Installed external ASPI interface
Gap handling : Appended to previous track

Used output format : User Defined Encoder
Selected bitrate : 768 kBit/s
Quality : High
Add ID3 tag : No
Command line compressor : C:\Program Files (x86)\Exact Audio Copy\Flac\flac.exe
Additional command line options : -8 -V -T "ARTIST=%artist%" -T "TITLE=%title%" -T "ALBUM=%albumtitle%" -T "DATE=%year%" -T "TRACKNUMBER=%tracknr%" -T "GENRE=%genre%" -T "COMMENT=%comment%" -T "BAND=%albuminterpret%" -T "ALBUMARTIST=%albuminterpret%" -T "COMPOSER=%composer%" %haslyrics%–tag-from-file=LYRICS="%lyricsfile%"%haslyrics% -T "DISCNUMBER=%cdnumber%" -T "TOTALDISCS=%totalcds%" -T "TOTALTRACKS=%numtracks%" %hascover%–picture="%coverfile%"%hascover% %source% -o %dest%


TOC of the extracted CD

Track | Start | Length | Start sector | End sector
––––––––––––––––––––––––––––-
1 | 0:00.00 | 2:57.42 | 0 | 13316
2 | 2:57.42 | 5:19.20 | 13317 | 37261
3 | 8:16.62 | 4:21.02 | 37262 | 56838
4 | 12:37.64 | 3:17.72 | 56839 | 71685
5 | 15:55.61 | 4:03.08 | 71686 | 89918
6 | 19:58.69 | 5:17.08 | 89919 | 113701
7 | 25:16.02 | 2:32.60 | 113702 | 125161
8 | 27:48.62 | 2:46.40 | 125162 | 137651
9 | 30:35.27 | 2:56.43 | 137652 | 150894
10 | 33:31.70 | 3:22.08 | 150895 | 166052
11 | 36:54.03 | 3:14.67 | 166053 | 180669
12 | 40:08.70 | 3:20.51 | 180670 | 195720
13 | 43:29.46 | 2:48.13 | 195721 | 208333
14 | 46:17.59 | 4:41.42 | 208334 | 229450
15 | 50:59.26 | 3:34.40 | 229451 | 245540
16 | 54:33.66 | 3:03.48 | 245541 | 259313
17 | 57:37.39 | 3:49.47 | 259314 | 276535
18 | 61:27.11 | 2:53.47 | 276536 | 289557


Track 1

Filename D:\Lietotājs\My Music\Flac\01. Guajira Guantanamera.wav

Pre-gap length 0:00:02.00

Peak level 98.9 %
Extraction speed 1.1 X
Track quality 100.0 %
Test CRC F30BFF70
Copy CRC F30BFF70
Track not present in AccurateRip database
Copy OK

Track 2

Filename D:\Lietotājs\My Music\Flac\02. El Manisero.wav

Pre-gap length 0:00:01.50

Peak level 99.8 %
Extraction speed 1.3 X
Track quality 100.0 %
Test CRC 0CE84E4F
Copy CRC 0CE84E4F
Track not present in AccurateRip database
Copy OK

Track 3

Filename D:\Lietotājs\My Music\Flac\03. Maria Cristina.wav

Pre-gap length 0:00:01.50

Peak level 98.8 %
Extraction speed 1.4 X
Track quality 100.0 %
Test CRC 4CA6F77D
Copy CRC 4CA6F77D
Track not present in AccurateRip database
Copy OK

Track 4

Filename D:\Lietotājs\My Music\Flac\04. Nosotros.wav

Pre-gap length 0:00:01.50

Peak level 98.9 %
Extraction speed 1.5 X
Track quality 100.0 %
Test CRC A5188C8C
Copy CRC A5188C8C
Track not present in AccurateRip database
Copy OK

Track 5

Filename D:\Lietotājs\My Music\Flac\05. La Guarapachanga.wav

Pre-gap length 0:00:01.50

Peak level 98.9 %
Extraction speed 1.6 X
Track quality 100.0 %
Test CRC 360E1A04
Copy CRC 360E1A04
Track not present in AccurateRip database
Copy OK

Track 6

Filename D:\Lietotājs\My Music\Flac\06. Dile a Catalina.wav

Pre-gap length 0:00:01.50

Peak level 98.9 %
Extraction speed 1.7 X
Track quality 100.0 %
Test CRC 9A410577
Copy CRC 9A410577
Track not present in AccurateRip database
Copy OK

Track 7

Filename D:\Lietotājs\My Music\Flac\07. Siboney.wav

Pre-gap length 0:00:01.50

Peak level 98.9 %
Extraction speed 1.6 X
Track quality 100.0 %
Test CRC 785E32DB
Copy CRC 785E32DB
Track not present in AccurateRip database
Copy OK

Track 8

Filename D:\Lietotājs\My Music\Flac\08. Mambo No. 5.wav

Pre-gap length 0:00:01.50

Peak level 98.9 %
Extraction speed 1.7 X
Track quality 100.0 %
Test CRC 00D352F7
Copy CRC 00D352F7
Track not present in AccurateRip database
Copy OK

Track 9

Filename D:\Lietotājs\My Music\Flac\09. Me Lo Dijo Adela.wav

Pre-gap length 0:00:01.50

Peak level 98.9 %
Extraction speed 1.8 X
Track quality 100.0 %
Test CRC C18B68A1
Copy CRC C18B68A1
Track not present in AccurateRip database
Copy OK

Track 10

Filename D:\Lietotājs\My Music\Flac\10. Echale Salsita.wav

Pre-gap length 0:00:01.50

Peak level 98.9 %
Extraction speed 1.8 X
Track quality 100.0 %
Test CRC 1DB945E7
Copy CRC 1DB945E7
Track not present in AccurateRip database
Copy OK

Track 11

Filename D:\Lietotājs\My Music\Flac\11. Tu Me Acostumbraste.wav

Pre-gap length 0:00:01.50

Peak level 98.6 %
Extraction speed 1.6 X
Track quality 99.9 %
Test CRC A5A20361
Copy CRC A5A20361
Track not present in AccurateRip database
Copy OK

Track 12

Filename D:\Lietotājs\My Music\Flac\12. Sarandonga.wav

Pre-gap length 0:00:01.50

Peak level 94.4 %
Extraction speed 1.3 X
Track quality 99.8 %
Test CRC 7B1DCDE6
Copy CRC 7B1DCDE6
Track not present in AccurateRip database
Copy OK

Track 13

Filename D:\Lietotājs\My Music\Flac\13. Drume Negrita.wav

Pre-gap length 0:00:01.50

Peak level 94.4 %
Extraction speed 1.2 X
Track quality 99.8 %
Test CRC 1AD64AF3
Copy CRC 1AD64AF3
Track not present in AccurateRip database
Copy OK

Track 14

Filename D:\Lietotājs\My Music\Flac\14. El Diablo Tun Tun.wav

Pre-gap length 0:00:01.50

Peak level 98.9 %
Extraction speed 1.6 X
Track quality 99.8 %
Test CRC BB881116
Copy CRC BB881116
Track not present in AccurateRip database
Copy OK

Track 15

Filename D:\Lietotājs\My Music\Flac\15. Bilongo.wav

Pre-gap length 0:00:01.50

Peak level 89.1 %
Extraction speed 1.0 X
Track quality 99.6 %
Test CRC 0C6F7047
Copy CRC 0C6F7047
Track not present in AccurateRip database
Copy OK

Track 16

Filename D:\Lietotājs\My Music\Flac\16. Contigo en la Distancia.wav

Pre-gap length 0:00:01.50

Peak level 88.7 %
Extraction speed 1.1 X
Track quality 99.7 %
Test CRC A42BD7E1
Copy CRC A42BD7E1
Track not present in AccurateRip database
Copy OK

Track 17

Filename D:\Lietotājs\My Music\Flac\17. Suavecito.wav

Pre-gap length 0:00:01.50

Peak level 74.9 %
Extraction speed 0.4 X
Track quality 99.1 %
Test CRC 393EE46D
Copy CRC 393EE46D
Track not present in AccurateRip database
Copy OK

Track 18

Filename D:\Lietotājs\My Music\Flac\18. Holguinera.wav

Pre-gap length 0:00:01.50

Peak level 100.0 %
Extraction speed 0.7 X
Track quality 99.4 %
Test CRC E4A10A0B
Copy CRC E4A10A0B
Track not present in AccurateRip database
Copy OK


None of the tracks are present in the AccurateRip database

No errors occurred

End of status report

–– CUETools DB Plugin V2.1.6

[CTDB TOCID: rP2rVPsS8cLTmxzKMywSbvb3YfY-] disk not present in database
Submit result: rP2rVPsS8cLTmxzKMywSbvb3YfY- has been uploaded


==== Log checksum D623802FBD25063AB689FAAEF4D895BE83AA8DBA8409B764822D82A6F9CC49D4 ====

––––––––––––––––––––––––––––––––––––––––
Analyzed: Annia Linares / The Real… Cuba (CD2) (1)
Bola de Nieve / The Real… Cuba (CD2) (2)
Carlos Embale / The Real… Cuba (CD2) (3)
Duo Los Compadres / The Real… Cuba (CD2) (4)
Eliades Ochoa Y El Cuarteto Patria / The Real… Cuba (CD2) (5)
Irakere / The Real… Cuba (CD2) (6)
Joseito Fernandez / The Real… Cuba (CD2) (7)
Los Modernistas / The Real… Cuba (CD2) (8)
Omara Portuondo / The Real… Cuba (CD2) (9)
Orquesta America / The Real… Cuba (CD2) (10)
Orquesta Enrique Jorrin / The Real… Cuba (CD2) (11)
Orquesta Riverside / The Real… Cuba (CD2) (12)
Pacho Alonso con la Orquesta Egrem / The Real… Cuba (CD2) (13)
Paulina Alvarez / The Real… Cuba (CD2) (14)
Perez Prado / The Real… Cuba (CD2) (15)
Rita Gil / The Real… Cuba (CD2) (16)
Septeto Nacional de Ignacio Pineiro / The Real… Cuba (CD2) (17)
Tanda de Guaracheros / The Real… Cuba (CD2) (18)
––––––––––––––––––––––––––––––––––––––––

DR Peak RMS Duration Track
––––––––––––––––––––––––––––––––––––––––
DR8 -1.04 dB -10.89 dB 3:04 16-Contigo en la Distancia
DR11 -0.50 dB -14.15 dB 2:48 13-Drume Negrita
DR9 -0.09 dB -11.07 dB 4:42 14-El Diablo Tun Tun
DR8 -0.50 dB -9.89 dB 3:21 12-Sarandonga
DR10 -0.10 dB -12.14 dB 4:21 03-Maria Cristina
DR9 -0.09 dB -10.82 dB 5:17 06-Dile a Catalina
DR8 -0.09 dB -9.38 dB 2:58 01-Guajira Guantanamera
DR9 -0.09 dB -11.34 dB 2:33 07-Siboney
DR8 -0.09 dB -11.02 dB 3:18 04-Nosotros
DR8 -0.09 dB -9.09 dB 2:57 09-Me Lo Dijo Adela
DR8 -0.09 dB -9.71 dB 4:03 05-La Guarapachanga
DR8 0.00 dB -9.80 dB 2:54 18-Holguinera
DR7 -0.01 dB -9.00 dB 5:19 02-El Manisero
DR8 -0.09 dB -9.12 dB 3:22 10-Echale Salsita
DR8 -0.09 dB -9.48 dB 2:47 08-Mambo No. 5
DR9 -0.12 dB -11.77 dB 3:15 11-Tu Me Acostumbraste
DR7 -2.50 dB -9.94 dB 3:50 17-Suavecito
DR8 -1.00 dB -10.13 dB 3:35 15-Bilongo
––––––––––––––––––––––––––––––––––––––––

Number of tracks: 18
Official DR value: DR8

Samplerate: 44100 Hz
Channels: 2
Bits per sample: 16
Bitrate: 905 kbps
Codec: FLAC
================================================================================

Exact Audio Copy V1.3 from 2. September 2016

EAC extraction logfile from 12. October 2017, 20:06

Various Artists / The Real… Cuba (CD3)

Used drive : TSSTcorpCDDVDW SE-208AB Adapter: 2 ID: 0

Read mode : Secure
Utilize accurate stream : Yes
Defeat audio cache : Yes
Make use of C2 pointers : No

Read offset correction : 6
Overread into Lead-In and Lead-Out : No
Fill up missing offset samples with silence : Yes
Delete leading and trailing silent blocks : No
Null samples used in CRC calculations : Yes
Used interface : Installed external ASPI interface
Gap handling : Appended to previous track

Used output format : User Defined Encoder
Selected bitrate : 768 kBit/s
Quality : High
Add ID3 tag : No
Command line compressor : C:\Program Files (x86)\Exact Audio Copy\Flac\flac.exe
Additional command line options : -8 -V -T "ARTIST=%artist%" -T "TITLE=%title%" -T "ALBUM=%albumtitle%" -T "DATE=%year%" -T "TRACKNUMBER=%tracknr%" -T "GENRE=%genre%" -T "COMMENT=%comment%" -T "BAND=%albuminterpret%" -T "ALBUMARTIST=%albuminterpret%" -T "COMPOSER=%composer%" %haslyrics%–tag-from-file=LYRICS="%lyricsfile%"%haslyrics% -T "DISCNUMBER=%cdnumber%" -T "TOTALDISCS=%totalcds%" -T "TOTALTRACKS=%numtracks%" %hascover%–picture="%coverfile%"%hascover% %source% -o %dest%


TOC of the extracted CD

Track | Start | Length | Start sector | End sector
––––––––––––––––––––––––––––-
1 | 0:00.00 | 5:35.64 | 0 | 25188
2 | 5:35.64 | 3:14.56 | 25189 | 39794
3 | 8:50.45 | 2:46.46 | 39795 | 52290
4 | 11:37.16 | 5:29.67 | 52291 | 77032
5 | 17:07.08 | 3:28.06 | 77033 | 92638
6 | 20:35.14 | 3:36.22 | 92639 | 108860
7 | 24:11.36 | 2:48.49 | 108861 | 121509
8 | 27:00.10 | 3:01.63 | 121510 | 135147
9 | 30:01.73 | 4:11.54 | 135148 | 154026
10 | 34:13.52 | 3:59.18 | 154027 | 171969
11 | 38:12.70 | 2:57.32 | 171970 | 185276
12 | 41:10.27 | 2:46.15 | 185277 | 197741
13 | 43:56.42 | 2:54.28 | 197742 | 210819
14 | 46:50.70 | 3:55.62 | 210820 | 228506
15 | 50:46.57 | 3:11.16 | 228507 | 242847
16 | 53:57.73 | 2:35.22 | 242848 | 254494
17 | 56:33.20 | 5:02.55 | 254495 | 277199
18 | 61:36.00 | 6:48.31 | 277200 | 307830


Track 1

Filename D:\Lietotājs\My Music\Flac\01. Iya.wav

Pre-gap length 0:00:02.00

Peak level 98.3 %
Extraction speed 1.2 X
Track quality 100.0 %
Test CRC 82CCC2F3
Copy CRC 82CCC2F3
Track not present in AccurateRip database
Copy OK

Track 2

Filename D:\Lietotājs\My Music\Flac\02. La Mujer de Antonio.wav

Pre-gap length 0:00:01.50

Peak level 98.3 %
Extraction speed 1.3 X
Track quality 100.0 %
Test CRC 3D729A51
Copy CRC 3D729A51
Track not present in AccurateRip database
Copy OK

Track 3

Filename D:\Lietotājs\My Music\Flac\03. Special del Bebo.wav

Pre-gap length 0:00:01.50

Peak level 91.5 %
Extraction speed 1.1 X
Track quality 99.9 %
Test CRC FCCDDC37
Copy CRC FCCDDC37
Track not present in AccurateRip database
Copy OK

Track 4

Filename D:\Lietotājs\My Music\Flac\04. Son de la Loma.wav

Pre-gap length 0:00:01.50

Peak level 80.3 %
Extraction speed 1.6 X
Track quality 100.0 %
Test CRC DA081DD7
Copy CRC DA081DD7
Track not present in AccurateRip database
Copy OK

Track 5

Filename D:\Lietotājs\My Music\Flac\05. Mi Descarga Pa' Gozar.wav

Pre-gap length 0:00:01.56

Peak level 98.8 %
Extraction speed 1.6 X
Track quality 100.0 %
Test CRC 9320A1D7
Copy CRC 9320A1D7
Track not present in AccurateRip database
Copy OK

Track 6

Filename D:\Lietotājs\My Music\Flac\06. Mi Son Es un Vacilon.wav

Pre-gap length 0:00:01.50

Peak level 98.3 %
Extraction speed 1.7 X
Track quality 100.0 %
Test CRC DEFCC626
Copy CRC DEFCC626
Track not present in AccurateRip database
Copy OK

Track 7

Filename D:\Lietotājs\My Music\Flac\07. Descarga No.2.wav

Pre-gap length 0:00:01.50

Peak level 97.9 %
Extraction speed 1.4 X
Track quality 99.9 %
Test CRC 5E05A25D
Copy CRC 5E05A25D
Track not present in AccurateRip database
Copy OK

Track 8

Filename D:\Lietotājs\My Music\Flac\08. Mambo Mucho Mambo.wav

Pre-gap length 0:00:01.50

Peak level 100.0 %
Extraction speed 1.1 X
Track quality 99.8 %
Test CRC D684E26E
Copy CRC D684E26E
Track not present in AccurateRip database
Copy OK

Track 9

Filename D:\Lietotājs\My Music\Flac\09. Date una Vueltecita.wav

Pre-gap length 0:00:01.50

Peak level 96.6 %
Extraction speed 1.3 X
Track quality 99.8 %
Test CRC 200ECBA5
Copy CRC 200ECBA5
Track not present in AccurateRip database
Copy OK

Track 10

Filename D:\Lietotājs\My Music\Flac\10. El Niche (Aja Bibi).wav

Pre-gap length 0:00:01.50

Peak level 100.0 %
Extraction speed 0.9 X
Track quality 99.7 %
Test CRC 04E7581C
Copy CRC 04E7581C
Track not present in AccurateRip database
Copy OK

Track 11

Filename D:\Lietotājs\My Music\Flac\11. La Mulata Rumbera.wav

Pre-gap length 0:00:01.50

Peak level 84.7 %
Extraction speed 1.4 X
Track quality 99.8 %
Test CRC 94EE68F8
Copy CRC 94EE68F8
Track not present in AccurateRip database
Copy OK

Track 12

Filename D:\Lietotājs\My Music\Flac\12. Rico Vacilon.wav

Pre-gap length 0:00:01.50

Peak level 99.0 %
Extraction speed 1.6 X
Track quality 99.9 %
Test CRC 625EEE7F
Copy CRC 625EEE7F
Track not present in AccurateRip database
Copy OK

Track 13

Filename D:\Lietotājs\My Music\Flac\13. Evaconile.wav

Pre-gap length 0:00:01.50

Peak level 98.8 %
Extraction speed 2.0 X
Track quality 100.0 %
Test CRC 0F3AE1DC
Copy CRC 0F3AE1DC
Track not present in AccurateRip database
Copy OK

Track 14

Filename D:\Lietotājs\My Music\Flac\14. Indefinidamente.wav

Pre-gap length 0:00:01.50

Peak level 79.3 %
Extraction speed 1.9 X
Track quality 99.9 %
Test CRC 1D922AF8
Copy CRC 1D922AF8
Track not present in AccurateRip database
Copy OK

Track 15

Filename D:\Lietotājs\My Music\Flac\15. La Enganadora.wav

Pre-gap length 0:00:01.50

Peak level 94.4 %
Extraction speed 1.8 X
Track quality 99.9 %
Test CRC EC7CC0BE
Copy CRC EC7CC0BE
Track not present in AccurateRip database
Copy OK

Track 16

Filename D:\Lietotājs\My Music\Flac\16. Gandinga, Mondongo y Sandunga.wav

Pre-gap length 0:00:01.50

Peak level 98.9 %
Extraction speed 2.1 X
Track quality 100.0 %
Test CRC E4AC7FC1
Copy CRC E4AC7FC1
Track not present in AccurateRip database
Copy OK

Track 17

Filename D:\Lietotājs\My Music\Flac\17. Contradanza.wav

Pre-gap length 0:00:01.50

Peak level 84.1 %
Extraction speed 2.3 X
Track quality 100.0 %
Test CRC 102B4E0E
Copy CRC 102B4E0E
Track not present in AccurateRip database
Copy OK

Track 18

Filename D:\Lietotājs\My Music\Flac\18. Para Empezar a Vivir.wav

Pre-gap length 0:00:01.55

Peak level 97.1 %
Extraction speed 2.5 X
Track quality 100.0 %
Test CRC 492C936D
Copy CRC 492C936D
Track not present in AccurateRip database
Copy OK


None of the tracks are present in the AccurateRip database

No errors occurred

End of status report

–– CUETools DB Plugin V2.1.6

[CTDB TOCID: vT8ADBVfIBws.Cbj5SiQ4EA82Xg-] disk not present in database
Submit result: vT8ADBVfIBws.Cbj5SiQ4EA82Xg- has been uploaded


==== Log checksum 6F1BA245E485BD79E7290043882CFDAECEDADBD235CC92E3A8C1CCB3DD6FB6A0 ====

––––––––––––––––––––––––––––––––––––––––
Analyzed: Arturo Sandoval y Su Grupo / The Real… Cuba (CD3) (1)
Bebo Valdes / The Real… Cuba (CD3) (2)
Chico O'Farrill y All Stars Cubano / The Real… Cuba (CD3) (3)
Chucho Valdes y Su Combo / The Real… Cuba (CD3) (4)
Conjunto Rumbavana / The Real… Cuba (CD3) (5)
Emiliano Salvador y Pablo Milanes / The Real… Cuba (CD3) (6)
Felo Bergaza / The Real… Cuba (CD3) (7)
Frank Emilio Flynn / The Real… Cuba (CD3) (8)
Grupo Cubano de Musica Moderna / The Real… Cuba (CD3) (9)
Grupo de Experimentacion Sonora del ICAIC / The Real… Cuba (CD3) (10)
Irakere / The Real… Cuba (CD3) (11)
Machito & His Afro-Cuban Orchestra / The Real… Cuba (CD3) (12)
Orquesta America / The Real… Cuba (CD3) (13)
Orquesta Aragon / The Real… Cuba (CD3) (14)
Orquesta Cubana de Musica Moderna / The Real… Cuba (CD3) (15)
Orquesta Enrique Jorrin / The Real… Cuba (CD3) (16)
Peruchin / The Real… Cuba (CD3) (17)
Ruben Gonzalez / The Real… Cuba (CD3) (18)
––––––––––––––––––––––––––––––––––––––––

DR Peak RMS Duration Track
––––––––––––––––––––––––––––––––––––––––
DR10 -0.25 dB -12.68 dB 6:48 18-Para Empezar a Vivir
DR8 -0.77 dB -10.11 dB 2:47 03-Special del Bebo
DR8 -0.18 dB -10.08 dB 2:49 07-Descarga No.2
DR8 -0.10 dB -10.46 dB 3:28 05-Mi Descarga Pa' Gozar
DR10 -0.15 dB -10.97 dB 3:15 02-La Mujer de Antonio
DR6 -1.90 dB -9.79 dB 5:30 04-Son de la Loma
DR8 -0.10 dB -11.02 dB 2:54 13-Evaconile
DR5 -2.01 dB -9.87 dB 3:56 14-Indefinidamente
DR9 -0.09 dB -10.31 dB 2:35 16-Gandinga, Mondongo y Sandunga
DR8 -1.50 dB -12.05 dB 5:03 17-Contradanza
DR10 -0.15 dB -10.95 dB 5:36 01-Iya
DR9 0.00 dB -9.40 dB 3:02 08-Mambo Mucho Mambo
DR8 -0.50 dB -10.13 dB 3:11 15-La Enganadora
DR7 -0.15 dB -9.21 dB 3:36 06-Mi Son Es un Vacilon
DR8 0.00 dB -9.39 dB 3:59 10-El Niche (Aja Bibi)
DR8 -0.09 dB -9.52 dB 2:46 12-Rico Vacilon
DR8 -1.44 dB -10.49 dB 2:57 11-La Mulata Rumbera
DR9 -0.30 dB -11.60 dB 4:12 09-Date una Vueltecita
––––––––––––––––––––––––––––––––––––––––

Number of tracks: 18
Official DR value: DR8

Samplerate: 44100 Hz
Channels: 2
Bits per sample: 16
Bitrate: 558 kbps
Codec: FLAC
================================================================================

All thanks to Olivierito

password: BlondStyle